Jump to content
loufjohn

κοινωνικό ΕΡΩΤΑΣ ΜΕΤΑ (2019) ΑΛΦΑ TV TVrip AVI ΕΩΣ 16

Recommended Posts

loufjohn

ΑΝΕΒΗΚΕ ΕΩΣ 16

Share this post


Link to post
Share on other sites
fotini goumas
Στις ‎17‎/‎9‎/‎2019 στις 3:04 ΜΜ, loufjohn είπε

ΕΡΩΤΑΣ ΜΕΤΑ (2019) ΑΛΦΑ TV TVrip AVI


k8bDPWTl.jpg


IaXZX9E.png


 Μία καινούργια σειρά με τίτλο "Έρωτας μετά" κάνει πρεμιέρα στο καινούργιο πρόγραμμα του ALPHA. Πρόκειται για ερωτικό θρίλερ που όπως αναφέρει και η ανακοίνωση του σταθμού είναι...

… «Μία ιστορία έρωτα και μυστηρίου που εκτυλίσσεται σε δύο χρόνους, σ’ ένα παρελθόν γεμάτο μυστικά και πάθη, σ’ ένα παρόν που ψάχνει απαντήσεις. Έντονες σχέσεις, δυνατά συναισθήματα, αγωνία και ανατροπές
συνθέτουν μια σειρά από γεγονότα που όταν ξεκαθαρίσουν, θα φανεί αν μπορεί να υπάρξει «Έρωτας μετά».

Ένα τροχαίο. Δύο επιβάτες. Το σώμα της γυναίκας εξαφανίζεται. Ο άνδρας πέφτει σε κώμα. Μια σειρά ερωτημάτων ζητούν απαντήσεις. Τι προκάλεσε το ατύχημα; Γιατί εξαφανίστηκε η γυναίκα; Ποια είναι η σχέση τους;
Η ταυτότητά τους αποκαλύπτει ότι δεν ήταν παντρεμένοι… Η αναγνώρισή τους φέρνει στην επιφάνεια το μυστικό τους: ήταν εραστές.

Τρία χρόνια πριν, η γνωριμία δύο ζευγαριών και η φιλία που ξεκίνησε μεταξύ τους, πυροδότησε μία απαγορευμένη αγάπη. Η ένοχη σχέση των δύο εραστών θα στοιχειώσει το παρόν των συντρόφων τους. Η οικογενειακή τους
αρμονία ήταν μία ψευδαίσθηση. Ο πόνος βαθύς, αλλά η ανάγκη να αποκαλυφθεί η αλήθεια επιτακτική».

Η ιστορία βασίζεται στη σειρά της Telefe «Amar despues de amar» και το σενάριο υπογράφει ο Παναγιώτης Ιωσηφέλης σε συνεργασία με τους Μαρία Βρεττού, Αθηνά Γερολύμπου και Μάνο Παπαϊωάννου, ενώ σκηνοθέτης είναι
ο Στέφανος Μπλάτσος μαζί με τους Βασίλη Τσελεμέγκο, Σέργιο Κωνσταντινίδη.

Τους ήρωες της σειράς ενσαρκώνουν: Αντώνης Καρυστινός, Βάσω Λασκαράκη, Μάριος Αθανασίου, Έμιλυ Κολιανδρή, Μιχάλης Λεβεντογιάννης, Ευγενία Σαμαρά, Κώστας Κόκλας, Αλεξάνδρα Παλαιολόγου, Γωγώ Καρτσάνα,
Γιώργος Παπαπαύλου, Λένα Δροσάκη, Δημήτρης Ξανθόπουλος, Νίκος Νικολάου, Αλέξανδρος Μούκανος, Παναγιώτης Καρμάτης, Σόλων Τσούνης, Παναγιώτα Βιτετζάκη, Εύα Κοτανίδη, Δημήτρης Πασσάς, Ιφιγένεια Καραμήτρου,
Ισαβέλλα Μπαλτσαβιά, Σταύρος Τσουμάκης, Μιχαήλ Ταμπακάκης, κ.ά.

Στο ρόλο της Αντιγόνης, η Μπέτυ Λιβανού

Στο ρόλο του Λύσανδρου, ο Νίκος Γαλανός


6KTXyhc.png


g5L2N8Vl.jpg


sNfCVWD.png

 

   General
      Complete name : EROS.EP.01.avi
      Format : AVI
      Format/Info : Audio Video Interleave
      File size : 1.24 GiB
      Duration : 1 h 12 min
      Overall bit rate : 2 440 kb/s
   Video #0
      ID : 0
      Format : AVC
      Format/Info : Advanced Video Codec
      Format profile : [email protected]
      Format settings : 1 Ref Frames
      Format settings, CABAC : No
      Format settings, ReFrames : 1 frame
      Codec ID : H264
      Duration : 1 h 12 min
      Bit rate : 2 298 kb/s
      Width : 1 280 pixels
      Height : 720 pixels
      Display aspect ratio : 16:9
      Frame rate : 25.000 FPS
      Color space : YUV
      Chroma subsampling : 4:2:0
      Bit depth : 8 bits
      Scan type : Progressive
      Bits/(Pixel*Frame) : 0.100
      Stream size : 1.17 GiB (94%)
      Writing library : x264 core 146 r2538 121396c
      
   Audio #1
      ID : 1
      Format : MPEG Audio
      Format version : Version 1
      Format profile : Layer 3
      Codec ID : 55
      Codec ID/Hint : MP3
      Duration : 1 h 12 min
      Bit rate mode : Constant
      Bit rate : 128 kb/s
      Channel(s) : 2 channels
      Sampling rate : 48.0 kHz
      Compression mode : Lossy
      Stream size : 66.7 MiB (5%)
      Alignment : Aligned on interleaves
      Interleave, duration : 24  ms (0.60 video frame)  

 

2V9nbDH.png

eKydSyt.jpg


zPAQxlN.png

 

A3VtJrt.png

 

Hidden Content
You'll be able to see the hidden content once you reply to this topic.

 

 

ΕΥΧΑΡΙΣΤΩ

Share this post


Link to post
Share on other sites

Create an account or sign in to comment

You need to be a member in order to leave a comment

Create an account

Sign up for a new account in our community. It's easy!

Register a new account

Sign in

Already have an account? Sign in here.

Sign In Now

×