Jump to content
Sign in to follow this  
ScooterMan

[δράσης/περιπέτεια] NOMIS / NIGHT HUNTER (2018) MULTi 1080p BluRay x264-THREESOME | ΞΕΧΩΡΙΣΤΟΙ ΥΠΟΤΙΤΛΟΙ

Recommended Posts

ScooterMan


frVmgm2.jpg


 ★★ Πληροφορίες Ταινίας: ★★  

Ελληνικός Τίτλος: Ο κυνηγός της νύχτας
Είδος Ταινίας: Action, Thriller 
Σκηνοθέτης: David Raymond
Σεναριογράφος: David Raymond
Ηθοποιοί: Alexandra Daddario, Henry Cavill, Minka Kelly
Πρεμιέρα: 26 September 2019 (Greece)  
Μετάφραση: adespoti & Deykalionas ΧέσεΨηλά&Αγάντευε

IMDB: https://www.imdb.com/title/tt6533240/

★★ ΥπόΘεση Ταινίας: ★★  

Ένας ταλαιπωρημένος αστυνομικός, το αστυνομικό σώμα στο οποίο ανήκει και ένας αυτόκλητος τιμωρός εμπλέκονται σε μία επικίνδυνη συνομωσία που σχετίζεται με απαγωγές και δολοφονίες γυναικών.


 ★★ Τεχνικά Χαρακτηριστικά:★★  

General
Format                      : Matroska
Format version              : Version 4
File size                   : 6.55 GiB
Duration                    : 1 h 38 min
Overall bit rate            : 9 479 kb/s
Encoded date                : UTC 2019-09-11 21:02:31
Writing application         : mkvmerge v10.0.0 ('To Drown In You') 64bit
Writing library             : libebml v1.3.4 + libmatroska v1.4.5
Cover                       : Yes
Attachments                 : cover.jpg

Video
ID                          : 1
Format                      : AVC
Format/Info                 : Advanced Video Codec
Format profile              : [email protected]
Format settings             : CABAC / 5 Ref Frames
Format settings, CABAC      : Yes
Format settings, ReFrames   : 5 frames
Codec ID                    : V_MPEG4/ISO/AVC
Duration                    : 1 h 38 min
Bit rate                    : 8 198 kb/s
Width                       : 1 920 pixels
Height                      : 808 pixels
Display aspect ratio        : 2.40:1
Frame rate mode             : Constant
Frame rate                  : 23.976 (24000/1001) FPS
Color space                 : YUV
Chroma subsampling          : 4:2:0
Bit depth                   : 8 bits
Scan type                   : Progressive
Bits/(Pixel*Frame)          : 0.220
Stream size                 : 5.67 GiB (86%)
Title                       : Night.Hunter.2018.MULTi.1080p.BluRay.x264-THREESOME
Writing library             : x264 core 157 r2969 d4099dd
Encoding settings           : cabac=1 / ref=5 / deblock=1:0:0 / analyse=0x3:0x113 / me=umh / subme=8 / psy=1 / psy_rd=1.00:0.00 / mixed_ref=1 / me_range=16 / chroma_me=1 / trellis=2 / 8x8dct=1 / cqm=0 / deadzone=21,11 / fast_pskip=1 / chroma_qp_offset=-2 / threads=16 / lookahead_threads=2 / sliced_threads=0 / nr=0 / decimate=1 / interlaced=0 / bluray_compat=0 / constrained_intra=0 / bframes=3 / b_pyramid=2 / b_adapt=2 / b_bias=0 / direct=3 / weightb=1 / open_gop=0 / weightp=2 / keyint=240 / keyint_min=23 / scenecut=40 / intra_refresh=0 / rc_lookahead=50 / rc=2pass / mbtree=1 / bitrate=8198 / ratetol=1.0 / qcomp=0.60 / qpmin=0 / qpmax=69 / qpstep=4 / cplxblur=20.0 / qblur=0.5 / ip_ratio=1.40 / aq=1:1.00
Default                     : Yes
Forced                      : Yes

Audio #1
ID                          : 2
Format                      : AC-3
Format/Info                 : Audio Coding 3
Commercial name             : Dolby Digital
Codec ID                    : A_AC3
Duration                    : 1 h 38 min
Bit rate mode               : Constant
Bit rate                    : 640 kb/s
Channel(s)                  : 6 channels
Channel layout              : L R C LFE Ls Rs
Sampling rate               : 48.0 kHz
Frame rate                  : 31.250 FPS (1536 SPF)
Bit depth                   : 16 bits
Compression mode            : Lossy
Stream size                 : 453 MiB (7%)
Title                       : English
Language                    : English
Service kind                : Complete Main
Default                     : Yes
Forced                      : Yes

Audio #2
ID                          : 3
Format                      : AC-3
Format/Info                 : Audio Coding 3
Commercial name             : Dolby Digital
Codec ID                    : A_AC3
Duration                    : 1 h 38 min
Bit rate mode               : Constant
Bit rate                    : 640 kb/s
Channel(s)                  : 6 channels
Channel layout              : L R C LFE Ls Rs
Sampling rate               : 48.0 kHz
Frame rate                  : 31.250 FPS (1536 SPF)
Bit depth                   : 16 bits
Compression mode            : Lossy
Stream size                 : 453 MiB (7%)
Title                       : French
Language                    : French
Service kind                : Complete Main
Default                     : No
Forced                      : Yes

Text #1
ID                          : 4
Format                      : UTF-8
Codec ID                    : S_TEXT/UTF8
Codec ID/Info               : UTF-8 Plain Text
Duration                    : 1 h 33 min
Bit rate                    : 48 b/s
Count of elements           : 1279
Stream size                 : 32.9 KiB (0%)
Title                       : English SDH
Language                    : English
Default                     : No
Forced                      : No

Text #2
ID                          : 5
Format                      : UTF-8
Codec ID                    : S_TEXT/UTF8
Codec ID/Info               : UTF-8 Plain Text
Duration                    : 1 h 38 min
Bit rate                    : 61 b/s
Count of elements           : 1244
Stream size                 : 44.6 KiB (0%)
Title                       : French
Language                    : French
Default                     : No
Forced                      : No

Text #3
ID                          : 6
Format                      : UTF-8
Codec ID                    : S_TEXT/UTF8
Codec ID/Info               : UTF-8 Plain Text
Duration                    : 1 h 32 min
Bit rate                    : 0 b/s
Count of elements           : 9
Stream size                 : 322 Bytes (0%)
Title                       : French Forced
Language                    : French
Default                     : No
Forced                      : Yes

Text #4
ID                          : 7
Format                      : UTF-8
Codec ID                    : S_TEXT/UTF8
Codec ID/Info               : UTF-8 Plain Text
Duration                    : 1 h 31 min
Bit rate                    : 83 b/s
Count of elements           : 1141
Stream size                 : 55.9 KiB (0%)
Title                       : Greek
Language                    : Greek
Default                     : Yes
Forced                      : Yes


yS2fCJJ.jpg

 


★★ EasyBytez  ★★


Hidden Content
You'll be able to see the hidden content once you reply to this topic.


  • Like 1

Share this post


Link to post
Share on other sites
Alfa sigma

thanks

Share this post


Link to post
Share on other sites

Create an account or sign in to comment

You need to be a member in order to leave a comment

Create an account

Sign up for a new account in our community. It's easy!

Register a new account

Sign in

Already have an account? Sign in here.

Sign In Now
Sign in to follow this  

×