Jump to content
Sign in to follow this  
POPIKOSTAS

Η ΜΗΧΑΝΗ ΤΟΥ ΧΡΟΝΟΥ (2017 - ) HDTv.x264-GrLTv

Recommended Posts

POPIKOSTAS

YpioMbhh.jpg

Η ΜΗΧΑΝΗ ΤΟΥ ΧΡΟΝΟΥ (2017 - ) HDTv.x264-GrLTv

Genre............: Documentaries Greek
Channel..........: Cosmote History
Format...........: matroska
Codec............: x264
Resolution.......: 1-17 720x404 | 18-35 1280x720
Bitrate..........: CRF 20
Audio............: AC3 (ffmpeg) @ 192kbps - 2ch (el)

Για ακόμα μία χρονιά, η «Μηχανή του Χρόνου» κάνει αναδρομή στο παρελθόν, ρίχνοντας φως σε άγνωστα γεγονότα που σημάδεψαν τις ζωές των ανθρώπων και διαμόρφωσαν την ελληνική ιστορία και τον πολιτισμό. Αυτόπτες μάρτυρες διηγούνται τις ιστορίες τους, ενώ στην έρευνα συμβάλλουν και επιστήμονες με μελέτες πάνω σε κοινωνικά ζητήματα που απασχόλησαν την κοινή γνώμη. Κάθε πρόσωπο, άποψη και είδηση έχει τον δικό του καθοριστικό ρόλο στην αναζήτηση της αλήθειας.

Η «Μηχανή του Χρόνου» έχει δημιουργηθεί από τους Χρίστο Βασιλόπουλο και Δημήτρη Πετρόπουλο, και έχει καταφέρει να αποσπάσει το δημοσιογραφικό βραβείο του Ιδρύματος προαγωγής δημοσιογραφίας Α.Μπότση, ενώ και στην Κύπρο έχει ψηφιστεί δύο φορές από το κοινό ως η καλύτερη ενημερωτική εκπομπή. Το 2016 με απόφαση του Υπουργείου Παιδείας, συγκεκριμένα ντοκιμαντέρ της εκπομπής προτάθηκαν ως επίσημο βοήθημα των μαθητών για την εμπέδωση και κατανόηση ιστορικών γεγονότων.

Παρουσίαση - Διεύθυνση Εκπομπής: Χρίστος Βασιλόπουλος
Διευθυντής Σύνταξης: Δημήτρης Πετρόπουλος
Σκηνοθεσία: Δήμος Παυλόπουλος, Χρίστος Βασιλόπουλος
Μοντάζ: Διονύσης Βαρχαλαμάς
Διευθυντής Φωτογραφίας: Βαγγέλης Μαθάς
Πρωτότυπη μουσική: Δημήτρης Μπίζος

Λίστα επεισοδίων:

1. Το έπος του '40 (Μέρος Α)
2. Το έπος του '40 (Μέρος Β)
3. Η ιστορία των Ποντίων
4. Η δίκη του Πολυτεχνείου (Μέρος Α)
5. Η δίκη του Πολυτεχνείου (Μέρος Β)
6. Η γενοκτονία των Ποντίων
7. Από την Αργώ στην Τριήρη
8. Η δημοκρατία της θάλασσας
9. Βενιζέλος - Κωνσταντίνος: Οι μεγάλοι αντίπαλοι
10.   Το κίνημα της Εθνικής Άμυνας
11. Ο εθνικός διχασμός - Από τα Νοεμβριανά στο Ανάθεμα
12. Ο ακήρυχτος εμφύλιος
13. Η Αθήνα την περίοδο της Τουρκοκρατίας (Μέρος Α)
14. Η Αθήνα την περίοδο της Τουρκοκρατίας (Μέρος Β)
15. Η Βουλγαρική κατοχή στην ανατολική Μακεδονία - Θράκη
16. Η Βουλγαρική κατοχή 1941-1944
17. Παύλος Μελάς ο Μακεδονομάχος
18. Οι ήρωες του Μακεδονικού αγώνα
19. Βασιλιάς Γεώργιος Α' (Μέρος Α)
20. Βασιλιάς Γεώργιος Α' (Μέρος Β)
21. Η φιλική εταιρία
22. Η σφαγή της Χίου
23. Θεόδωρος Κολοκοτρώνης - Τα επαναστατικά χρόνια
24. Θεόδωρος Κολοκοτρώνης - Οι μεγάλες μάχες του 1821
25. Θεόδωρος Κολοκοτρώνης - Η ζωή του μετά την επανάσταση
26. Η Αθήνα που χάθηκε μέσα από τον κινηματογράφο
27. Τα επαγγέλματα που χάθηκαν μέσα από τον κινηματογράφο
28. Τα οχυρά της Μακεδονίας - Μέρος Α: Η κατασκευή
29. Τα οχυρά της Μακεδονίας - Μέρος Β: Η μάχη του Ρούπελ
30. Τα οχυρά της Μακεδονίας - Μέρος Γ: Οι άγνωστες μάχες
31. Η ιστορία της αρχαιοκαπηλίας
32. Η διεθνής των αρχαιοκαπήλων
33. Η ιστορία του τουρισμού στην Ελλάδα
34. Το τουριστικό θαύμα της Ρόδου
35. Η ιστορία του τουρισμού στην Κέρκυρα

7sAhsLPh.jpg
niXf1Aah.jpg
chic504h.jpg

ΤΕΧΝΙΚΑ ΧΑΡΑΚΤΗΡΙΣΤΙΚΑ


General
Complete name               : H.mhxanh.tou.xronou.S01E01.HDTV.x264-GrLTv.mkv
Format                      : Matroska
Format version              : Version 4 / Version 2
File size                   : 332 MiB
Duration                    : 47 min 12 s
Overall bit rate mode       : Variable
Overall bit rate            : 984 kb/s
Encoded date                : UTC 2017-10-28 23:18:13
Writing application         : TMPGEnc Video Mastering Works 6 Version. 6.2.5.32
Writing library             : TMPGEnc Video Mastering Works 6 Version. 6.2.5.32

Video
ID                          : 2
Format                      : AVC
Format/Info                 : Advanced Video Codec
Format profile              : [email protected]
Format settings             : CABAC / 4 Ref Frames
Format settings, CABAC      : Yes
Format settings, RefFrames  : 4 frames
Codec ID                    : V_MPEG4/ISO/AVC
Duration                    : 47 min 12 s
Bit rate mode               : Variable
Bit rate                    : 772 kb/s
Maximum bit rate            : 2 000 kb/s
Width                       : 720 pixels
Height                      : 404 pixels
Display aspect ratio        : 16:9
Frame rate mode             : Constant
Frame rate                  : 25.000 FPS
Standard                    : NTSC
Color space                 : YUV
Chroma subsampling          : 4:2:0
Bit depth                   : 8 bits
Scan type                   : Progressive
Bits/(Pixel*Frame)          : 0.106
Stream size                 : 261 MiB (78%)
Writing library             : x264 core 148
Encoding settings           : cabac=1 / ref=4 / deblock=1:0:0 / analyse=0x3:0x113 / me=dia / subme=2 / psy=1 / psy_rd=1.00:0.00 / mixed_ref=0 / me_range=16 / chroma_me=1 / trellis=0 / 8x8dct=1 / cqm=1 / deadzone=21,11 / fast_pskip=1 / chroma_qp_offset=0 / threads=12 / lookahead_threads=3 / sliced_threads=0 / slices=1 / nr=0 / decimate=1 / interlaced=0 / minigop=0 / stitchable=1 / constrained_intra=0 / bframes=3 / b_pyramid=0 / b_adapt=1 / b_bias=0 / direct=1 / weightb=1 / open_gop=0 / weightp=0 / keyint=250 / keyint_min=25 / scenecut=40 / intra_refresh=0 / rc_lookahead=10 / rc=crf / mbtree=1 / crf=20.0 / qcomp=0.60 / qpmin=1 / qpmax=69 / qpstep=4 / vbv_maxrate=2000 / vbv_bufsize=2000 / crf_max=51.0 / nal_hrd=vbr / filler=0 / ip_ratio=1.40 / aq=1:1.00
Default                     : Yes
Forced                      : No
Color range                 : Limited
Color primaries             : BT.601 NTSC
Transfer characteristics    : BT.601
Matrix coefficients         : BT.601

Audio
ID                          : 1
Format                      : AC-3
Format/Info                 : Audio Coding 3
Format settings, Endianness : Big
Codec ID                    : A_AC3
Duration                    : 47 min 12 s
Bit rate mode               : Constant
Bit rate                    : 192 kb/s
Channel(s)                  : 2 channels
Channel positions           : Front: L R
Sampling rate               : 48.0 kHz
Frame rate                  : 31.250 FPS (1536 SPF)
Bit depth                   : 16 bits
Compression mode            : Lossy
Stream size                 : 64.8 MiB (20%)
Service kind                : Complete Main
Default                     : Yes
Forced                      : No


qO4Dexcl.png

Hidden Content
You'll be able to see the hidden content once you reply to this topic.

Share this post


Link to post
Share on other sites
volvonikolaos

thanks

Share this post


Link to post
Share on other sites

Create an account or sign in to comment

You need to be a member in order to leave a comment

Create an account

Sign up for a new account in our community. It's easy!

Register a new account

Sign in

Already have an account? Sign in here.

Sign In Now
Sign in to follow this  

×