Jump to content
Sign in to follow this  
POPIKOSTAS

SANTA & CIE / ΧΡΙΣΤΟΥΓΕΝΝΑ & ΣΙΑ (2017) GR BDRip XviD AC3-EXTREME-ΜΕΤΑΓΛΩΤΤΙΣΜΕΝΟ

Recommended Posts

POPIKOSTAS

V0IUXnnh.jpg

SANTA & CIE / ΧΡΙΣΤΟΥΓΕΝΝΑ & ΣΙΑ (2017) GR BDRip XviD AC3-EXTREME-ΜΕΤΑΓΛΩΤΤΙΣΜΕΝΟ

ΠΛΗΡΟΦΟΡΙΕΣ

Είδος Ταινίας: Comedy, Family, Fantasy
Μεταφρασμένος Τίτλος: Χριστούγεννα & ΣΙΑ
Γνωστό και ως: Christmas & Co.
Σκηνοθέτης: Alain Chabat
Σεναριογράφος: Alain Chabat
Ηθοποιοί (Φωνές) : Πάνος Μουζουράκης, Βάσια Λακουμέντα, Γιώργος Σκουφής κ.α.

ΥΠΟΘΕΣΗ

Επίθετο: Άγιος. Όνομα: Βασίλης.

Η παραμονή Χριστουγέννων βρίσκεται προ των πυλών, όταν αρχίζει το χάος. Τα 92.000 ξωτικά
του Άι Βασίλη ξαφνικά σωριάζονται στο έδαφος και αρρωσταίνουν. Όλα ταυτόχρονα! Το χτύπημα
είναι μεγάλο. Τώρα ποιος θα φτιάξει τα παιχνίδια για όλα τα παιδιά του κόσμου; Ο Άι Βασίλης
δεν έχει άλλη επιλογή, παρά να επισκεφτεί τη Γη μαζί με τους ταράνδους του, ώστε να ανακαλύψει
μια λύση. Μόλις φτάνει εκεί, όμως, θα χρειαστεί βοήθεια για να σώσει τη μαγεία των Χριστουγέννων.

VBWHzsAh.jpg

[video]https://www.youtube.com/watch?v=75u6qA1Jksg[/video]

https://www.imdb.com/title/tt7018010/

ΤΕΧΝΙΚΑ ΧΑΡΑΚΤΗΡΙΣΤΙΚΑ


General
Complete name               : Santa.&.Cie.2017.GR.BDRip.XviD.AC3-EXTREME.avi
Format                      : AVI
Format/Info                 : Audio Video Interleave
File size                   : 1.55 GiB
Duration                    : 1 h 40 min
Overall bit rate            : 2 215 kb/s

Video
ID                          : 0
Format                      : MPEG-4 Visual
Format profile              : Advanced [email protected]
Format settings             : BVOP1
Format settings, BVOP       : 1
Format settings, QPel       : No
Format settings, GMC        : No warppoints
Format settings, Matrix     : Default (H.263)
Codec ID                    : XVID
Codec ID/Hint               : XviD
Duration                    : 1 h 40 min
Bit rate                    : 1 567 kb/s
Width                       : 720 pixels
Height                      : 304 pixels
Display aspect ratio        : 2.35:1
Frame rate                  : 24.000 FPS
Color space                 : YUV
Chroma subsampling          : 4:2:0
Bit depth                   : 8 bits
Scan type                   : Progressive
Compression mode            : Lossy
Bits/(Pixel*Frame)          : 0.298
Stream size                 : 1.10 GiB (71%)
Writing library             : XviD 67

Audio
ID                          : 1
Format                      : AC-3
Format/Info                 : Audio Coding 3
Commercial name             : Dolby Digital
Codec ID                    : 2000
Duration                    : 1 h 40 min
Bit rate mode               : Constant
Bit rate                    : 640 kb/s
Channel(s)                  : 6 channels
Channel layout              : L R C LFE Ls Rs
Sampling rate               : 48.0 kHz
Frame rate                  : 31.250 FPS (1536 SPF)
Bit depth                   : 16 bits
Compression mode            : Lossy
Stream size                 : 459 MiB (29%)
Alignment                   : Aligned on interleaves
Interleave, duration        : 64  ms (1.54 video frames)
Interleave, preload duratio : 192  ms
Title                       : SANTA_ET_CIE.track_2_new
Service kind                : Complete Main


1MFWSWwh.png

Hidden Content
You'll be able to see the hidden content once you reply to this topic.

Share this post


Link to post
Share on other sites
*Tulip*

thanks

Share this post


Link to post
Share on other sites
helendr

thanks

Share this post


Link to post
Share on other sites
chatzeli

ΕΥΧΑΡΙΣΤΩ

Share this post


Link to post
Share on other sites
alkiona

ευχαριστω

Share this post


Link to post
Share on other sites

Create an account or sign in to comment

You need to be a member in order to leave a comment

Create an account

Sign up for a new account in our community. It's easy!

Register a new account

Sign in

Already have an account? Sign in here.

Sign In Now
Sign in to follow this  

×