Jump to content
Sign in to follow this  
ScooterMan

θρίλερ A DARK PLACE / STEEL COUNTRY (2018) 720p BRRip XViD AC3-XVID | ΕΝΣΩΜΑΤΩΜΕΝΟΙ ΥΠΟΤΙΤΛΟΙ

Recommended Posts

ScooterMan


V2ivWeo.jpg


gGH2Dbn.png?3

Ελληνικός Τίτλος: -
Είδος Ταινίας: Mystery, Thriller  
Σκηνοθέτης: Simon Fellows
Σεναριογράφος: Brendan Higgins
Ηθοποιοί: Andrew Scott, Bronagh Waugh, Denise Gough
Πρεμιέρα: 19 April 2019 (UK)
Μετάφραση: *THE-SCREAM JOKERGIRL©* SFTeam


IMDB.png

https://www.imdb.com/title/tt5936866/


dbzzNXu.png?2

Ένας οδηγός απορριμματοφόρου σε μια μικρή πόλη της Pennsylvania, που αποφασίζει να το "παίξει" ντετέκτιβ, όταν ένα μικρό αγόρι της περιοχής του βρίσκεται πνιγμένο. Οι ανεξήγητα παθιασμένες έρευνές του τον οδηγούν στο συμπέρασμα ότι το αγόρι δολοφονήθηκε κάτι που έχει αδιανόητες συνέπειες.


uoJL54u.png?2

General
Format                      : AVI
Format/Info                 : Audio Video Interleave
Format profile              : OpenDML
File size                   : 2.60 GiB
Duration                    : 1 h 29 min
Overall bit rate            : 4 148 kb/s
Writing library             : VirtualDub build 35491/release

Video
ID                          : 0
Format                      : MPEG-4 Visual
Format settings, BVOP       : No
Format settings, QPel       : No
Format settings, GMC        : No warppoints
Format settings, Matrix     : Default (H.263)
Codec ID                    : DX50
Codec ID/Hint               : DivX 5
Duration                    : 1 h 29 min
Bit rate                    : 3 497 kb/s
Nominal bit rate            : 9 708 kb/s
Width                       : 1 280 pixels
Height                      : 536 pixels
Display aspect ratio        : 2.40:1
Frame rate                  : 23.976 (24000/1001) FPS
Color space                 : YUV
Chroma subsampling          : 4:2:0
Bit depth                   : 8 bits
Scan type                   : Progressive
Compression mode            : Lossy
Bits/(Pixel*Frame)          : 0.213
Stream size                 : 2.19 GiB (84%)
Writing library             : DivX 6.8.5 (UTC 2009-08-20)

Audio
ID                          : 1
Format                      : AC-3
Format/Info                 : Audio Coding 3
Commercial name             : Dolby Digital
Codec ID                    : 2000
Duration                    : 1 h 29 min
Bit rate mode               : Constant
Bit rate                    : 640 kb/s
Channel(s)                  : 6 channels
Channel layout              : L R C LFE Ls Rs
Sampling rate               : 48.0 kHz
Frame rate                  : 31.250 FPS (1536 SPF)
Bit depth                   : 16 bits
Compression mode            : Lossy
Stream size                 : 411 MiB (15%)
Alignment                   : Aligned on interleaves
Interleave, duration        : 42  ms (1.00 video frame)
Interleave, preload duratio : 512  ms
Service kind                : Complete Main


7D1KYQt.jpg

 


24p9pg4.jpg

★★ LINK FOR FREE USERS ★★

Hidden Content
You'll be able to see the hidden content once you reply to this topic.


esmb92.jpg


seywwp.jpg


Share this post


Link to post
Share on other sites
grilloscostas

thanks

Share this post


Link to post
Share on other sites

Create an account or sign in to comment

You need to be a member in order to leave a comment

Create an account

Sign up for a new account in our community. It's easy!

Register a new account

Sign in

Already have an account? Sign in here.

Sign In Now
Sign in to follow this  

×