Jump to content
Sign in to follow this  
axhsa

[δράσης/φαντασίας] ALITA: BATTLE ANGEL (2019) 720p BluRay x264-SPARKS ΞΕΧΩΡΙΣΤΟΙ ΥΠΟΤΙΤΛΟΙ

Recommended Posts

axhsa

w7M7dEu.jpg


Αρκετούς αιώνες μπροστά στο μέλλον, η εγκαταλειμμένη Αλίτα βρίσκεται στον σκουπιδότοπο της Iron City από τον Ίντο, έναν καλόψυχο κυβερνο-γιατρό που παίρνει την αναίσθητη σάιμποργκ Αλίτα στην κλινική του. Όταν αυτή ξυπνάει, δεν έχει καμία μνήμη για τον ποια είναι, ούτε αναγνωρίζει τον κόσμο που βρίσκεται. Όλα της είναι καινούργια, κάθε εμπειρία της είναι σαν πρώτη. Καθώς μαθαίνει σιγά-σιγά να ορίζει τη νέα της ζωή στους επικίνδυνους δρόμους της πόλης, ο γιατρός προσπαθεί να την απομακρύνει από τις μνήμες της, ενώ ο καταφερτζής νέος της φίλος Ούγκο προσπαθεί το αντίθετο.


usDrZmS.png

https://www.imdb.com/title/tt0437086/


Είδος Ταινίας: Action, Adventure, Sci-Fi
Πρεμιέρα: 14 February 2019 (Greece)
Σκηνοθέτης: Robert Rodriguez
Σενάριο: James Cameron (screenplay by), Laeta Kalogridis (screenplay by)
Ηθοποιοί: Rosa Salazar, Christoph Waltz, Jennifer Connelly
Ελληνικός Τίτλος: Αλίτα: Ο άγγελος της μάχης
Μετάφραση: fotishitech
Διάρκεια: 122'

 

3sZwobQ.png

 

General
Unique ID                      : 253120410785624798898422855877284585896 (0xBE6D37C61DBF1D3BD8DB80D19043E1A8)
Complete name                  : I:\Alita.Battle.Angel.2019.720p.BluRay.x264-SPARKS.mkv
Format                         : Matroska
Format version                 : Version 4 / Version 2
File size                      : 5.46 GiB
Duration                       : 2h 1mn
Overall bit rate               : 6 415 Kbps
Encoded date                   : UTC 2019-07-10 17:46:20
Writing application            : mkvmerge v33.0.0 ('A Little Bit of Madness') 64-bit
Writing library                : libebml v1.3.7 + libmatroska v1.5.0
DURATION                       : 02:01:57.334000000
NUMBER_OF_FRAMES               : 686000
NUMBER_OF_BYTES                : 1380232000
_STATISTICS_WRITING_APP        : mkvmerge v33.0.0 ('A Little Bit of Madness') 64-bit
_STATISTICS_WRITING_DATE_UTC   : 2019-07-10 17:46:20
_STATISTICS_TAGS               : BPS DURATION NUMBER_OF_FRAMES NUMBER_OF_BYTES

Video
ID                             : 1
Format                         : AVC
Format/Info                    : Advanced Video Codec
Format profile                 : [email protected]
Format settings, CABAC         : Yes
Format settings, ReFrames      : 5 frames
Codec ID                       : V_MPEG4/ISO/AVC
Duration                       : 2h 1mn
Bit rate                       : 4 904 Kbps
Width                          : 1 280 pixels
Height                         : 536 pixels
Display aspect ratio           : 2.40:1
Frame rate                     : 23.976 fps
Color space                    : YUV
Chroma subsampling             : 4:2:0
Bit depth                      : 8 bits
Scan type                      : Progressive
Bits/(Pixel*Frame)             : 0.298
Stream size                    : 4.07 GiB (74%)
Writing library                : x264 core 157 r2970 5493be8
Encoding settings              : cabac=1 / ref=5 / deblock=1:-3:-3 / analyse=0x3:0x113 / me=umh / subme=8 / psy=1 / psy_rd=1.00:0.00 / mixed_ref=1 / me_range=16 / chroma_me=1 / trellis=1 / 8x8dct=1 / cqm=0 / deadzone=21,11 / fast_pskip=1 / chroma_qp_offset=-2 / threads=17 / lookahead_threads=2 / sliced_threads=0 / nr=0 / decimate=1 / interlaced=0 / bluray_compat=0 / constrained_intra=0 / bframes=3 / b_pyramid=2 / b_adapt=1 / b_bias=0 / direct=3 / weightb=1 / open_gop=0 / weightp=2 / keyint=250 / keyint_min=23 / scenecut=40 / intra_refresh=0 / rc_lookahead=50 / rc=2pass / mbtree=1 / bitrate=4904 / ratetol=1.0 / qcomp=0.60 / qpmin=0 / qpmax=69 / qpstep=4 / cplxblur=20.0 / qblur=0.5 / ip_ratio=1.40 / aq=1:1.00
Language                       : English
DURATION                       : 02:01:57.310000000
NUMBER_OF_FRAMES               : 175440
NUMBER_OF_BYTES                : 4485386884
_STATISTICS_WRITING_APP        : mkvmerge v33.0.0 ('A Little Bit of Madness') 64-bit
_STATISTICS_WRITING_DATE_UTC   : 2019-07-10 17:46:20
_STATISTICS_TAGS               : BPS DURATION NUMBER_OF_FRAMES NUMBER_OF_BYTES

Audio
ID                             : 2
Format                         : DTS
Format/Info                    : Digital Theater Systems
Format profile                 : ES
Codec ID                       : A_DTS
Duration                       : 2h 1mn
Bit rate mode                  : Constant
Bit rate                       : 1 510 Kbps
Channel(s)                     : 6 channels
Channel positions              : Front: L C R, Side: L R, LFE
Sampling rate                  : 48.0 KHz
Bit depth                      : 24 bits
Compression mode               : Lossy
Stream size                    : 1.29 GiB (24%)
Language                       : English

 

cnQad2x.jpg

 

EASYBYTEZ | RAPIDGATOR


Hidden Content
You'll be able to see the hidden content once you reply to this topic.

  • Like 1

Share this post


Link to post
Share on other sites
nscovria

thanks

Share this post


Link to post
Share on other sites
MOFE70

tnx

Share this post


Link to post
Share on other sites
Superflygeorge

thanks

Share this post


Link to post
Share on other sites
boko79

thanks

Share this post


Link to post
Share on other sites
kideias

ευχαριστω!!1

Share this post


Link to post
Share on other sites

Create an account or sign in to comment

You need to be a member in order to leave a comment

Create an account

Sign up for a new account in our community. It's easy!

Register a new account

Sign in

Already have an account? Sign in here.

Sign In Now
Sign in to follow this  

×