Jump to content
Sign in to follow this  
POPIKOSTAS

επιστημονικής φαντασίας TIME AFTER TIME - ΜΑΧΗ ΜΕ ΤΟ ΧΡΟΝΟ (1979) DVDRip | ΞΕΧΩΡΙΣΤΟΙ ΥΠΟΤΙΤΛΟΙ

Recommended Posts

POPIKOSTAS

dcC0V4Bh.jpg

TIME AFTER TIME - ΜΑΧΗ ΜΕ ΤΟ ΧΡΟΝΟ (1979) DVDRip | ΞΕΧΩΡΙΣΤΟΙ ΥΠΟΤΙΤΛΟΙ

Ελλ.Τίτλος : Μαχη Με το Χρονο
Είδος: Adventure, Drama, Sci-Fi
Πρεμιέρα: 28 September 1979 (USA)
Διαρκεια 1h 52min
Σκηνοθεσία: Nicholas Meyer
Σενάριο: Karl Alexander (story), Steve Hayes (story)
Ηθοποιοί: Malcolm McDowell, Mary Steenburgen, David Warner
Yπότιτλοι: Eλληνικοί Εξωτερικοι
Μετάφραση:Nana

Φανταστείτε! Μια επιστημονική διάνοια με το όνομα Χ.Τζ. Γουέλς καταδιώκει μια εγκληματική διάνοια με το όνομα Τζακ ο Αντεροβγάλτης διαμέσου του χρόνου, στο πιο ευφυές θρίλερ των καιρών μας…
Λονδίνο, 1893. Ο φουτουριστής συγγραφέας Χέμπερτ Τζορτζ Γουέλς επιδεικνύει μια χρονομηχανή στους σκεπτικιστές καλεσμένους του. Την ώρα που τους επεξηγεί το πώς αυτή λειτουργεί, εισβάλει η χωροφυλακή που αναζητά τον διαβόητο δολοφόνο Τζακ τον Αντεροβγάλτη. Βασικός ύποπτος είναι ένας από τους φίλους του Γουέλς, ο Τζον Λέσλι Στίβενσον, και οι υποψίες εντείνονται από το γεγονός πως η μηχανή κι ο ύποπτος εξαφανίζονται. Αλλά ο Στίβενσον δεν έχει μαζί του το κλειδί για να επιστρέψει στο τώρα και η μηχανή επιστρέφει δίχως αυτόν. Έτσι, ο Γουέλς βάζει μπρος ξανά τη μηχανή και κυνηγά τον «φίλο» του στο Σαν Φρανσίσκο 1979, όπου και φαίνεται ότι πήγε.

y4V6z0nh.jpg

[video]https://www.youtube.com/watch?v=huziaaaEd1s[/video]

https://www.imdb.com/title/tt0080025/

ΤΕΧΝΙΚΑ ΧΑΡΑΚΤΗΡΙΣΤΙΚΑ


General
Complete name               : Time After Time (1979).avi
Format                      : AVI
Format/Info                 : Audio Video Interleave
File size                   : 700 MiB
Duration                    : 1 h 51 min
Overall bit rate mode       : Variable
Overall bit rate            : 875 kb/s
Writing application         : VirtualDubMod 1.5.4.1 (build 2178/release)
Writing library             : VirtualDubMod build 2178/release

Video
ID                          : 0
Format                      : MPEG-4 Visual
Format profile              : Advanced [email protected]
Format settings             : BVOP1 / Custom Matrix
Format settings, BVOP       : 1
Format settings, QPel       : No
Format settings, GMC        : No warppoints
Format settings, Matrix     : Custom
Codec ID                    : XVID
Codec ID/Hint               : XviD
Duration                    : 1 h 51 min
Bit rate                    : 747 kb/s
Width                       : 720 pixels
Height                      : 320 pixels
Display aspect ratio        : 2.25:1
Frame rate                  : 23.976 (24000/1001) FPS
Color space                 : YUV
Chroma subsampling          : 4:2:0
Bit depth                   : 8 bits
Scan type                   : Progressive
Compression mode            : Lossy
Bits/(Pixel*Frame)          : 0.135
Stream size                 : 598 MiB (85%)
Writing library             : XviD 1.2.1 (UTC 2008-12-04)

Audio
ID                          : 1
Format                      : MPEG Audio
Format version              : Version 1
Format profile              : Layer 3
Format settings             : Joint stereo / MS Stereo
Codec ID                    : 55
Codec ID/Hint               : MP3
Duration                    : 1 h 51 min
Bit rate mode               : Variable
Bit rate                    : 115 kb/s
Nominal bit rate            : 128 kb/s
Channel(s)                  : 2 channels
Sampling rate               : 48.0 kHz
Frame rate                  : 41.667 FPS (1152 SPF)
Compression mode            : Lossy
Stream size                 : 92.3 MiB (13%)
Alignment                   : Aligned on interleaves
Interleave, duration        : 24  ms (0.58 video frame)
Interleave, preload duratio : 159  ms
Writing library             : LAME3.98r
Encoding settings           : -m j -V 4 -q 2 -lowpass 17 --abr 128


qO4Dexcl.png

Hidden Content
You'll be able to see the hidden content once you reply to this topic.

  • Thanks 1

Share this post


Link to post
Share on other sites
bertolouci

thanks

Share this post


Link to post
Share on other sites
mpampis79

thanks

Share this post


Link to post
Share on other sites

Create an account or sign in to comment

You need to be a member in order to leave a comment

Create an account

Sign up for a new account in our community. It's easy!

Register a new account

Sign in

Already have an account? Sign in here.

Sign In Now
Sign in to follow this  

×