Sign in to follow this  
POPIKOSTAS

κωμωδία THE ENGLISHMAN WHO WENT UP A HILL BUT CAME DOWN A MOUNTAIN (1995) 720p | ΞΕΧΩΡΙΣΤΟΙ ΥΠΟΤΙΤΛΟΙ

Recommended Posts

POPIKOSTAS

R1lORkfh.jpg

THE ENGLISHMAN WHO WENT UP A HILL BUT CAME DOWN A MOUNTAIN (1995) 720p | ΞΕΧΩΡΙΣΤΟΙ ΥΠΟΤΙΤΛΟΙ

Comedy, Drama
Director: Christopher Monger
Writers: Ifor David Monger, Christopher Monger
Stars: Hugh Grant, Tara Fitzgerald, Colm Meaney
Μετάφραση: Άγνωστος

Ένας Εγγλέζος χαρτογράφος καταφτάνει σε ένα ουαλικό χωριό για να διευθετήσει το ζήτημα του γειτονικού υψώματος. Με λύπη του χωριού, τους αναγγέλλει πως το ύψος δεν δικαιολογεί την χαρτογράφηση του υψώματος ως βουνού αλλά ως λόφου. Οι χωρικοί, όμως, δεν θέλουν να το δεχτούν αυτό κι ετοιμάζονται να ανεβάσουν τα μέτρα μόνοι τους.

Ri1rtneh.jpg

[video]https://www.youtube.com/watch?v=1UWT0dMrYOM[/video]

https://www.imdb.com/title/tt0112966/

ΤΕΧΝΙΚΑ ΧΑΡΑΚΤΗΡΙΣΤΙΚΑ


General
Complete name               : The Englishman Who Went Up a Hill But Came Down a Mountain (1995) 720p.mp4
Format                      : MPEG-4
Format profile              : Base Media
Codec ID                    : isom (isom/iso2/avc1/mp41)
File size                   : 1.16 GiB
Duration                    : 1 h 36 min
Overall bit rate            : 1 730 kb/s
Movie name                  : The.Englishman.Who.Went.Up.a.Hill.1995.720p.BluRay.H264.AAC-RARBG
Encoded date                : UTC 2019-02-23 02:12:24
Tagged date                 : UTC 2019-02-23 02:12:24
Writing application         : Lavf58.20.100
Comment                     : The.Englishman.Who.Went.Up.a.Hill.1995.720p.BluRay.H264.AAC-RARBG

Video
ID                          : 1
Format                      : AVC
Format/Info                 : Advanced Video Codec
Format profile              : [email protected]
Format settings             : CABAC / 4 Ref Frames
Format settings, CABAC      : Yes
Format settings, ReFrames   : 4 frames
Codec ID                    : avc1
Codec ID/Info               : Advanced Video Coding
Duration                    : 1 h 36 min
Bit rate                    : 1 500 kb/s
Width                       : 1 280 pixels
Height                      : 544 pixels
Display aspect ratio        : 2.35:1
Frame rate mode             : Constant
Frame rate                  : 24.000 FPS
Color space                 : YUV
Chroma subsampling          : 4:2:0
Bit depth                   : 8 bits
Scan type                   : Progressive
Bits/(Pixel*Frame)          : 0.090
Stream size                 : 1.01 GiB (87%)
Writing library             : x264 core 152 r2851M ba24899
Encoding settings           : cabac=1 / ref=4 / deblock=1:-1:-1 / analyse=0x3:0x113 / me=umh / subme=9 / psy=1 / psy_rd=1.00:0.15 / mixed_ref=1 / me_range=24 / chroma_me=1 / trellis=2 / 8x8dct=1 / cqm=0 / deadzone=21,11 / fast_pskip=1 / chroma_qp_offset=-3 / threads=32 / lookahead_threads=4 / sliced_threads=0 / nr=0 / decimate=1 / interlaced=0 / bluray_compat=0 / constrained_intra=0 / bframes=3 / b_pyramid=2 / b_adapt=2 / b_bias=0 / direct=3 / weightb=1 / open_gop=0 / weightp=2 / keyint=250 / keyint_min=25 / scenecut=40 / intra_refresh=0 / rc_lookahead=50 / rc=2pass / mbtree=1 / bitrate=1500 / ratetol=1.0 / qcomp=0.60 / qpmin=0 / qpmax=69 / qpstep=4 / cplxblur=20.0 / qblur=0.5 / vbv_maxrate=31250 / vbv_bufsize=31250 / nal_hrd=none / filler=0 / ip_ratio=1.40 / aq=3:1.00
Encoded date                : UTC 2019-02-23 02:12:24
Tagged date                 : UTC 2019-02-23 02:12:24
Codec configuration box     : avcC

Audio
ID                          : 2
Format                      : AAC LC
Format/Info                 : Advanced Audio Codec Low Complexity
Codec ID                    : mp4a-40-2
Duration                    : 1 h 36 min
Bit rate mode               : Constant
Bit rate                    : 224 kb/s
Channel(s)                  : 6 channels
Channel layout              : C L R Ls Rs LFE
Sampling rate               : 48.0 kHz
Frame rate                  : 46.875 FPS (1024 SPF)
Compression mode            : Lossy
Stream size                 : 154 MiB (13%)
Language                    : English
Default                     : Yes
Alternate group             : 1
Encoded date                : UTC 2019-02-23 02:12:24
Tagged date                 : UTC 2019-02-23 02:12:24


qO4Dexcl.png

Hidden Content
You'll be able to see the hidden content once you reply to this topic.

Share this post


Link to post
Share on other sites

Create an account or sign in to comment

You need to be a member in order to leave a comment

Create an account

Sign up for a new account in our community. It's easy!

Register a new account

Sign in

Already have an account? Sign in here.

Sign In Now
Sign in to follow this