Jump to content
Sign in to follow this  
POPIKOSTAS

[θρίλερ αγωνίας] ΕΤΕΡΟΣ ΕΓΩ (2016) 1080p HDTv AC-3 Greek - T e s l a™ | ΕΛΛΗΝΙΚΟ

Recommended Posts

POPIKOSTAS

LXGblLgh.jpg

ΕΤΕΡΟΣ ΕΓΩ (2016) 1080p HDTv AC-3 Greek - T e s l a™ | ΕΛΛΗΝΙΚΟ

ΣΚΗΝΟΘΕΣΙΑ : Sotiris Tsafoulias
ΣΕΝΑΡΙΟ : Sotiris Tsafoulias
ΗΘΟΠΟΙΟΙ : Pigmalion Dadakaridis, Dimitris Katalifos, Manos Vakousis
ΕΙΔΟΣ : Crime, Mystery, Thriller
ΠΡΕΜΙΕΡΑ : 19 January 2017 (Greece)

Υπόθεση:

Αθήνα 2015. Πέντε δολοφονίες. Κοινό χαρακτηριστικό, αρχαία ρητά του Πυθαγόρα στους τόπους των εγκλημάτων. Ο Δημήτρης Λαΐνης (Πυγμαλίων Δαδακαρίδης), καθηγητής εγκληματολογίας, αναλαμβάνει να λύσει το μυστήριο που κρύβεται πίσω από τους πέντε φόνους, οι οποίοι συνδέονται μεταξύ τους. Αναπάντεχοι σύμμαχοι του Λαΐνη στο να ξεμπλέξει το πολύπλοκο και επικίνδυνο αυτό κουβάρι, η θεωρία του Πυθαγόρα κι ένας καθηγητής μαθηματικών (Φρανσουά Κλουζέ). Θα καταφέρει να λύσει το μυστήριο και να αποκαλύψει την αλήθεια;

Extras:

Η ταινία αποσύρθηκε από τις αίθουσες κατά τη δέκατη βδομάδα κυκλοφορίας της, όταν και συνδέθηκε με τη δράση ψυχοπαθούς δολοφόνου οδηγών ταξί, με τον δολοφόνο να φαίνεται ότι αντέγραφε σημεία του σεναρίου της.

4hwJZPvh.jpg

[video=youtube;1HEJmhVaCas]https://www.youtube.com/watch?v=1HEJmhVaCas[/video]

http://www.imdb.com/title/tt5221894/

ΤΕΧΝΙΚΑ ΧΑΡΑΚΤΗΡΙΣΤΙΚΑ


General
Complete name               : Eteros ego (2016) 1080p HDTV AC-3 Greek x264-T e s l a™.mkv
Format                      : Matroska
Format version              : Version 4 / Version 2
File size                   : 12.4 GiB
Duration                    : 1 h 40 min
Overall bit rate            : 17.7 Mb/s
Movie name                  : Eteros ego (2016) 1080p HDTV AC-3 Greek x264-T e s l a™
Encoded date                : UTC 2018-01-21 12:41:42
Writing application         : mkvmerge v8.3.0 ('Over the Horizon') 64bit
Writing library             : libebml v1.3.1 + libmatroska v1.4.2
Attachments                 : Tesla.jpg

Video
ID                          : 1
Format                      : AVC
Format/Info                 : Advanced Video Codec
Format profile              : [email protected]
Format settings             : CABAC / 2 Ref Frames
Format settings, CABAC      : Yes
Format settings, RefFrames  : 2 frames
Codec ID                    : V_MPEG4/ISO/AVC
Duration                    : 1 h 40 min
Bit rate                    : 17.4 Mb/s
Width                       : 1 920 pixels
Height                      : 1 080 pixels
Display aspect ratio        : 16:9
Frame rate mode             : Constant
Frame rate                  : 23.976 (24000/1001) FPS
Color space                 : YUV
Chroma subsampling          : 4:2:0
Bit depth                   : 8 bits
Scan type                   : Progressive
Bits/(Pixel*Frame)          : 0.349
Stream size                 : 12.1 GiB (98%)
Writing library             : x264 core 142
Encoding settings           : cabac=1 / ref=1 / deblock=1:-1:-1 / analyse=0x3:0 / me=hex / subme=5 / psy=0 / mixed_ref=0 / me_range=16 / chroma_me=1 / trellis=0 / 8x8dct=1 / cqm=0 / deadzone=21,11 / fast_pskip=1 / chroma_qp_offset=0 / threads=8 / lookahead_threads=2 / sliced_threads=0 / nr=0 / decimate=1 / interlaced=0 / bluray_compat=0 / constrained_intra=0 / bframes=2 / b_pyramid=0 / b_adapt=1 / b_bias=0 / direct=1 / weightb=1 / open_gop=0 / weightp=0 / keyint=24 / keyint_min=13 / scenecut=40 / intra_refresh=0 / rc=2pass / mbtree=0 / bitrate=17352 / ratetol=1.0 / qcomp=0.60 / qpmin=0 / qpmax=69 / qpstep=4 / cplxblur=20.0 / qblur=0.5 / ip_ratio=1.40 / pb_ratio=1.30 / aq=1:1.00
Default                     : Yes
Forced                      : No
Color range                 : Limited
Color primaries             : BT.709
Transfer characteristics    : BT.709
Matrix coefficients         : BT.709

Audio
ID                          : 2
Format                      : AC-3
Format/Info                 : Audio Coding 3
Format settings, Endianness : Big
Codec ID                    : A_AC3
Duration                    : 1 h 40 min
Bit rate mode               : Constant
Bit rate                    : 384 kb/s
Channel(s)                  : 2 channels
Channel positions           : Front: L R
Sampling rate               : 48.0 kHz
Frame rate                  : 31.250 FPS (1536 SPF)
Bit depth                   : 16 bits
Compression mode            : Lossy
Stream size                 : 275 MiB (2%)
Service kind                : Complete Main
Default                     : No
Forced                      : No


qO4Dexcl.png

Hidden Content
You'll be able to see the hidden content once you reply to this topic.

Share this post


Link to post
Share on other sites
GIOTAPAP

ευχαριστουμε πολυ!!!

Share this post


Link to post
Share on other sites
johnny98

ΕΥΧΑΡΙΣΤΩ

Share this post


Link to post
Share on other sites
Nikkos

Ευχαριστώ

Share this post


Link to post
Share on other sites

Create an account or sign in to comment

You need to be a member in order to leave a comment

Create an account

Sign up for a new account in our community. It's easy!

Register a new account

Sign in

Already have an account? Sign in here.

Sign In Now
Sign in to follow this  

×