Jump to content
Sign in to follow this  
axhsa

επιστημονικής φαντασίας CAPTIVE STATE (2019) 720p BluRay x264-MAYHEM ΞΕΧΩΡΙΣΤΟΙ ΥΠΟΤΙΤΛΟΙ

Recommended Posts

axhsa

 

TwnepRv.jpg


Μια εξωγήινη δύναμη έχει καταλάβει τον πλανήτη σκλαβώνοντας τους ανθρώπους σε μια μορφή τυραννίας. Οι πολίτες εξακολουθούν να ζουν ειρηνικά και δεν αντιλαμβάνονται ότι πρόκειται για σκλαβιά. Ο αστυνόμος Μάλιγκαν πασχίζει να συγκεντρώσει τον κόσμο ενάντια σε αυτή την απειλή, ώστε να επαναστατήσουν.


usDrZmS.png

https://www.imdb.com/title/tt5968394/


Είδος Ταινίας: Sci-Fi, Thriller
Πρεμιέρα: 28 March 2019 (Greece)
Σκηνοθέτης: Rupert Wyatt
Σενάριο: Erica Beeney, Rupert Wyatt
Ηθοποιοί: John Goodman, Ashton Sanders, Jonathan Majors
Ελληνικός Τίτλος: Πόλη υπό Κατοχή
Μετάφραση: Christianaemi
Διάρκεια: 109'

 

3sZwobQ.png

 

General
Unique ID                      : 221692468982303148914679427912980483702 (0xA6C86A9C31669B46A29862DF2237CE76)
Complete name                  : I:\Captive.State.2019.720p.BluRay.x264-MAYHEM.mkv
Format                         : Matroska
Format version                 : Version 4 / Version 2
File size                      : 4.37 GiB
Duration                       : 1h 49mn
Overall bit rate               : 5 705 Kbps
Encoded date                   : UTC 2019-05-29 16:05:23
Writing application            : mkvmerge v13.0.0 ('The Juggler') 64bit
Writing library                : libebml v1.3.4 + libmatroska v1.4.5
DURATION                       : 01:45:13.932000000
NUMBER_OF_FRAMES               : 1123
NUMBER_OF_BYTES                : 36421
_STATISTICS_WRITING_APP        : mkvmerge v13.0.0 ('The Juggler') 64bit
_STATISTICS_WRITING_DATE_UTC   : 2019-05-29 16:05:23
_STATISTICS_TAGS               : BPS DURATION NUMBER_OF_FRAMES NUMBER_OF_BYTES

Video
ID                             : 1
Format                         : AVC
Format/Info                    : Advanced Video Codec
Format profile                 : [email protected]
Format settings, CABAC         : Yes
Format settings, ReFrames      : 5 frames
Codec ID                       : V_MPEG4/ISO/AVC
Duration                       : 1h 49mn
Bit rate                       : 4 194 Kbps
Width                          : 1 280 pixels
Height                         : 536 pixels
Display aspect ratio           : 2.40:1
Frame rate                     : 23.976 fps
Color space                    : YUV
Chroma subsampling             : 4:2:0
Bit depth                      : 8 bits
Scan type                      : Progressive
Bits/(Pixel*Frame)             : 0.255
Stream size                    : 3.12 GiB (72%)
Writing library                : x264 core 157 r2969 d4099dd
Encoding settings              : cabac=1 / ref=5 / deblock=1:1:1 / analyse=0x3:0x133 / me=umh / subme=8 / psy=1 / psy_rd=1.00:0.00 / mixed_ref=1 / me_range=16 / chroma_me=1 / trellis=1 / 8x8dct=1 / cqm=0 / deadzone=21,11 / fast_pskip=0 / chroma_qp_offset=-2 / threads=17 / lookahead_threads=2 / sliced_threads=0 / nr=0 / decimate=1 / interlaced=0 / bluray_compat=0 / constrained_intra=0 / bframes=3 / b_pyramid=2 / b_adapt=2 / b_bias=0 / direct=3 / weightb=1 / open_gop=0 / weightp=2 / keyint=250 / keyint_min=23 / scenecut=40 / intra_refresh=0 / rc_lookahead=50 / rc=2pass / mbtree=1 / bitrate=4194 / ratetol=1.0 / qcomp=0.60 / qpmin=0 / qpmax=69 / qpstep=4 / cplxblur=20.0 / qblur=0.5 / ip_ratio=1.40 / aq=1:1.00
Language                       : English
DURATION                       : 01:49:34.276000000
NUMBER_OF_FRAMES               : 157625
NUMBER_OF_BYTES                : 3446391170
_STATISTICS_WRITING_APP        : mkvmerge v13.0.0 ('The Juggler') 64bit
_STATISTICS_WRITING_DATE_UTC   : 2019-05-29 16:05:23
_STATISTICS_TAGS               : BPS DURATION NUMBER_OF_FRAMES NUMBER_OF_BYTES

Audio
ID                             : 2
Format                         : DTS
Format/Info                    : Digital Theater Systems
Codec ID                       : A_DTS
Duration                       : 1h 49mn
Bit rate mode                  : Constant
Bit rate                       : 1 510 Kbps
Channel(s)                     : 6 channels
Channel positions              : Front: L C R, Side: L R, LFE
Sampling rate                  : 48.0 KHz
Bit depth                      : 24 bits
Compression mode               : Lossy
Stream size                    : 1.16 GiB (26%)
Language                       : English

 

F8Fk4bE.jpg

 

EASYBYTEZ| UPLOADED


Hidden Content
You'll be able to see the hidden content once you reply to this topic.

Share this post


Link to post
Share on other sites
R259

thanks !!!

Share this post


Link to post
Share on other sites
tarpley79

euxaristo

Share this post


Link to post
Share on other sites
XTIKIARHS97

thanks

Share this post


Link to post
Share on other sites

Create an account or sign in to comment

You need to be a member in order to leave a comment

Create an account

Sign up for a new account in our community. It's easy!

Register a new account

Sign in

Already have an account? Sign in here.

Sign In Now
Sign in to follow this  

×