Jump to content
Sign in to follow this  
POPIKOSTAS

εγκλήματος A MINUTE TO PRAY, A SECOND TO DIE (1968) 720p | ΞΕΧΩΡΙΣΤΟΙ ΥΠΟΤΙΤΛΟΙ

Recommended Posts

POPIKOSTAS

8wmEU2Hh.png

A MINUTE TO PRAY, A SECOND TO DIE-ΕΝΑ ΛΕΠΤΟ ΝΑ ΠΡΟΣΕΥΧΗΘΕΙΣ, ΕΝΑ ΔΕΥΤΕΡΟΛΕΠΤΟ ΓΙΑ ΝΑ ΠΕΘΑΝΕΙΣ (1968) 720p | ΞΕΧΩΡΙΣΤΟΙ ΥΠΟΤΙΤΛΟΙ

jxJdNoQh.jpg

Director: Franco Giraldi
Writers: Louis Garfinkle, Ugo Liberatore
Stars: Alex Cord, Arthur Kennedy, Robert Ryan
Μετάφραση: pistolero

Όταν ο παράνομος Κλέι ΜακΚόρντ μαθαίνει ότι ο κυβερνήτης του Νέου Μεξικού προσφέρει αμνηστία, αρκεί να πάνε να την αιτηθούν στην πόλη της Τουσκόσα, ψιλιάζεται ότι κάποιο λάκκο έχει η φάβα. Τριγυρνά στη γύρω περιοχή, ζυγίζει την προσφορά κι έρχεται αντιμέτωπος με άλλους παρανόμους.

JAq651xh.jpg

[video]https://www.youtube.com/watch?v=EX5HQKOLA90[/video]

https://www.imdb.com/title/tt0063308/

ΤΕΧΝΙΚΑ ΧΑΡΑΚΤΗΡΙΣΤΙΚΑ


General
Complete name               : A Minute To Pray, A Second To Die (1968) 720p.mp4
Format                      : MPEG-4
Format profile              : Base Media
Codec ID                    : isom (isom/iso2/avc1/mp41)
File size                   : 815 MiB
Duration                    : 1 h 38 min
Overall bit rate            : 1 152 kb/s
Writing application         : Lavf58.2.103

Video
ID                          : 1
Format                      : AVC
Format/Info                 : Advanced Video Codec
Format profile              : [email protected]
Format settings             : CABAC / 4 Ref Frames
Format settings, CABAC      : Yes
Format settings, ReFrames   : 4 frames
Codec ID                    : avc1
Codec ID/Info               : Advanced Video Coding
Duration                    : 1 h 38 min
Bit rate                    : 1 050 kb/s
Width                       : 1 280 pixels
Height                      : 714 pixels
Display aspect ratio        : 16:9
Frame rate mode             : Constant
Frame rate                  : 23.976 (24000/1001) FPS
Color space                 : YUV
Chroma subsampling          : 4:2:0
Bit depth                   : 8 bits
Scan type                   : Progressive
Bits/(Pixel*Frame)          : 0.048
Stream size                 : 743 MiB (91%)
Writing library             : x264 core 152
Encoding settings           : cabac=1 / ref=4 / deblock=1:-1:-1 / analyse=0x3:0x133 / me=umh / subme=9 / psy=1 / psy_rd=1.00:0.15 / mixed_ref=1 / me_range=24 / chroma_me=1 / trellis=2 / 8x8dct=1 / cqm=0 / deadzone=21,11 / fast_pskip=0 / chroma_qp_offset=-3 / threads=12 / lookahead_threads=1 / sliced_threads=0 / nr=0 / decimate=1 / interlaced=0 / bluray_compat=0 / constrained_intra=0 / bframes=3 / b_pyramid=2 / b_adapt=2 / b_bias=0 / direct=3 / weightb=1 / open_gop=0 / weightp=2 / keyint=250 / keyint_min=23 / scenecut=40 / intra_refresh=0 / rc_lookahead=60 / rc=2pass / mbtree=1 / bitrate=1050 / ratetol=1.0 / qcomp=0.60 / qpmin=0 / qpmax=69 / qpstep=4 / cplxblur=20.0 / qblur=0.5 / vbv_maxrate=31250 / vbv_bufsize=31250 / nal_hrd=none / filler=0 / ip_ratio=1.40 / aq=1:1.00
Codec configuration box     : avcC

Audio
ID                          : 2
Format                      : AAC LC
Format/Info                 : Advanced Audio Codec Low Complexity
Codec ID                    : mp4a-40-2
Duration                    : 1 h 38 min
Bit rate mode               : Constant
Bit rate                    : 96.0 kb/s
Channel(s)                  : 2 channels
Channel layout              : L R
Sampling rate               : 48.0 kHz
Frame rate                  : 46.875 FPS (1024 SPF)
Compression mode            : Lossy
Stream size                 : 67.1 MiB (8%)
Default                     : Yes
Alternate group             : 1


qO4Dexcl.png

Hidden Content
You'll be able to see the hidden content once you reply to this topic.

Share this post


Link to post
Share on other sites

Create an account or sign in to comment

You need to be a member in order to leave a comment

Create an account

Sign up for a new account in our community. It's easy!

Register a new account

Sign in

Already have an account? Sign in here.

Sign In Now
Sign in to follow this  

×