Jump to content
Sign in to follow this  
ScooterMan

κινουμένων σχεδίων TALL TALES FROM THE MAGICAL GARDEN OF ANTOON KRINGS (2017) 720p BRRip XViD AC3 | ΜΕΤΑΓΛΩΤΙΣΜΕΝΟ

Recommended Posts

ScooterMan


9sTxdDf.png


gGH2Dbn.png?3

Ελληνικός Τίτλος: Ο Μαγικός Κήπος
Είδος Ταινίας: Animation, Adventure, Comedy 
Σκηνοθέτης: Arnaud Bouron, Antoon Krings
Σεναριογράφος: Antoon Krings (book), Antoon Krings (scenario)
Ηθοποιοί: Virginie Efira, Kev Adams, Emmanuel Curtil 
Πρεμιέρα: 28 February 2019 (Greece)
Ελληνικές Φωνές: Θοδωρής Τσουανάτος, Έλενα Δελακούρα, Τάνια Παλαιολόγου, Πέτρος Σπυρόπουλος, Υακίνθη Παπαδοπούλου κ.α.
IMDb: https://www.imdb.com/title/tt6314766/
Sourse: 720p GRE BluRay DD5.1 x264-UTT


dbzzNXu.png?2

Όταν ο Απόλλο, ένας ευγενικός περιπλανώμενος καλλιτέχνης, καταφθάνει στο χωριό που κατοικούν τα Ζουζούνια, δεν αργεί να αναστατώσει τη ζωή τους! O Απόλλο πέφτει στην παγίδα της Γουέντι, της ζηλιάρας και παμπόνηρης ξαδέλφης της βασίλισσας Μαργαρίτας. Ο ήρωας μας κατηγορείται για την απαγωγή της Βασίλισσας, προκαλώντας τον πανικό στην κυψέλη. Η αλήθεια είναι ότι η Μαργαρίτα είναι αιχμάλωτη των Ζιζάνιων, που είναι συνένοχα της Γουέντι, όσο εκείνη καταλαμβάνει τον θρόνο. Με τη βοήθεια των νέων του φίλων, ο Απόλλο ηγείται μίας ριψοκίνδυνης αποστολής διάσωσης. Πρέπει να απελευθερώσει τη Βασίλισσα Μαργαρίτα και να σώσει τo μελίσσι, ξεπερνώντας πολλά εμπόδια με τη βοήθεια της φαντασίας!


uoJL54u.png?2

General
Format                      : AVI
Format/Info                 : Audio Video Interleave
Format profile              : OpenDML
File size                   : 2.82 GiB
Duration                    : 1 h 31 min
Overall bit rate            : 4 435 kb/s
Writing library             : VirtualDub build 35491/release

Video
ID                          : 0
Format                      : MPEG-4 Visual
Format settings, BVOP       : No
Format settings, QPel       : No
Format settings, GMC        : No warppoints
Format settings, Matrix     : Default (H.263)
Codec ID                    : DX50
Codec ID/Hint               : DivX 5
Duration                    : 1 h 31 min
Bit rate                    : 3 787 kb/s
Nominal bit rate            : 9 708 kb/s
Width                       : 1 280 pixels
Height                      : 536 pixels
Display aspect ratio        : 2.40:1
Frame rate                  : 24.000 FPS
Color space                 : YUV
Chroma subsampling          : 4:2:0
Bit depth                   : 8 bits
Scan type                   : Progressive
Compression mode            : Lossy
Bits/(Pixel*Frame)          : 0.230
Stream size                 : 2.41 GiB (85%)
Writing library             : DivX 6.8.5 (UTC 2009-08-20)

Audio
ID                          : 1
Format                      : AC-3
Format/Info                 : Audio Coding 3
Commercial name             : Dolby Digital
Codec ID                    : 2000
Duration                    : 1 h 30 min
Bit rate mode               : Constant
Bit rate                    : 640 kb/s
Channel(s)                  : 6 channels
Channel layout              : L R C LFE Ls Rs
Sampling rate               : 48.0 kHz
Frame rate                  : 31.250 FPS (1536 SPF)
Bit depth                   : 16 bits
Compression mode            : Lossy
Stream size                 : 416 MiB (14%)
Alignment                   : Aligned on interleaves
Interleave, duration        : 42  ms (1.00 video frame)
Interleave, preload duratio : 512  ms
Service kind                : Complete Main


en7Yo8X.jpg

 

 


24p9pg4.jpg


Hidden Content
You'll be able to see the hidden content once you reply to this topic.


esmb92.jpg


seywwp.jpg


Share this post


Link to post
Share on other sites

Create an account or sign in to comment

You need to be a member in order to leave a comment

Create an account

Sign up for a new account in our community. It's easy!

Register a new account

Sign in

Already have an account? Sign in here.

Sign In Now
Sign in to follow this  

×