Jump to content
Sign in to follow this  
POPIKOSTAS

κωμωδία CLERKS - ΥΠΑΛΛΗΛΟΙ (1994) EXTENDED 720p | ΞΕΧΩΡΙΣΤΟΙ ΥΠΟΤΙΤΛΟΙ

Recommended Posts

POPIKOSTAS

sW02wxLh.jpg

CLERKS - ΥΠΑΛΛΗΛΟΙ (1994) EXTENDED 720p | ΞΕΧΩΡΙΣΤΟΙ ΥΠΟΤΙΤΛΟΙ

Director: Kevin Smith
Writer: Kevin Smith
Stars: Brian O'Halloran, Jeff Anderson, Marilyn Ghigliotti
Μετάφραση: official

Μια μέρα στη ζωή του Dante, ενός 22αχρονου υπαλλήλου ψιλικατζίδικου, που μισεί τη δουλειά του, τη ζωή του, τους πελάτες του και παράλληλα πρέπει να αντέξει το φίλο του, να κρατήσει την κοπέλα του και να κερδίσει πίσω την πρώην του, που έμαθε από μια εφημερίδα ότι παντρεύεται, να μην χάσει τον αγώνα χόκεϊ και να πάει στο μνημόσυνο μιας παλιάς του φίλης. Και το καλύτερο; Σήμερα δεν έπρεπε καν να είναι στη δουλειά!

HyVTwvph.jpg

[video]https://www.youtube.com/watch?v=Mlfn5n-E2WE[/video]

https://www.imdb.com/title/tt0109445/

ΤΕΧΝΙΚΑ ΧΑΡΑΚΤΗΡΙΣΤΙΚΑ


General
Complete name               : Clerks (1994) EXTENDED 720p.mp4
Format                      : MPEG-4
Format profile              : Base Media
Codec ID                    : isom (isom/iso2/avc1/mp41)
File size                   : 1.20 GiB
Duration                    : 1 h 39 min
Overall bit rate            : 1 729 kb/s
Movie name                  : Clerks.1994.EXTENDED.720p.BluRay.H264.AAC-RARBG
Encoded date                : UTC 2018-02-22 06:58:13
Tagged date                 : UTC 2018-02-22 06:58:13
Writing application         : Lavf57.83.100
Comment                     : Clerks.1994.EXTENDED.720p.BluRay.H264.AAC-RARBG

Video
ID                          : 1
Format                      : AVC
Format/Info                 : Advanced Video Codec
Format profile              : [email protected]
Format settings             : CABAC / 4 Ref Frames
Format settings, CABAC      : Yes
Format settings, ReFrames   : 4 frames
Codec ID                    : avc1
Codec ID/Info               : Advanced Video Coding
Duration                    : 1 h 39 min
Bit rate                    : 1 500 kb/s
Width                       : 1 280 pixels
Height                      : 720 pixels
Display aspect ratio        : 16:9
Frame rate mode             : Constant
Frame rate                  : 23.976 (23976/1000) FPS
Color space                 : YUV
Chroma subsampling          : 4:2:0
Bit depth                   : 8 bits
Scan type                   : Progressive
Bits/(Pixel*Frame)          : 0.068
Stream size                 : 1.04 GiB (87%)
Writing library             : x264 core 152 r2851M ba24899
Encoding settings           : cabac=1 / ref=4 / deblock=1:-1:-1 / analyse=0x3:0x113 / me=umh / subme=9 / psy=1 / psy_rd=1.00:0.15 / mixed_ref=1 / me_range=24 / chroma_me=1 / trellis=2 / 8x8dct=1 / cqm=0 / deadzone=21,11 / fast_pskip=1 / chroma_qp_offset=-3 / threads=32 / lookahead_threads=4 / sliced_threads=0 / nr=0 / decimate=1 / interlaced=0 / bluray_compat=0 / constrained_intra=0 / bframes=3 / b_pyramid=2 / b_adapt=2 / b_bias=0 / direct=3 / weightb=1 / open_gop=0 / weightp=2 / keyint=250 / keyint_min=25 / scenecut=40 / intra_refresh=0 / rc_lookahead=50 / rc=2pass / mbtree=1 / bitrate=1500 / ratetol=1.0 / qcomp=0.60 / qpmin=0 / qpmax=69 / qpstep=4 / cplxblur=20.0 / qblur=0.5 / vbv_maxrate=31250 / vbv_bufsize=31250 / nal_hrd=none / filler=0 / ip_ratio=1.40 / aq=3:1.00
Encoded date                : UTC 2018-02-22 06:58:13
Tagged date                 : UTC 2018-02-22 06:58:13
Codec configuration box     : avcC

Audio
ID                          : 2
Format                      : AAC LC
Format/Info                 : Advanced Audio Codec Low Complexity
Codec ID                    : mp4a-40-2
Duration                    : 1 h 39 min
Bit rate mode               : Constant
Bit rate                    : 224 kb/s
Channel(s)                  : 6 channels
Channel layout              : C L R Ls Rs LFE
Sampling rate               : 48.0 kHz
Frame rate                  : 46.875 FPS (1024 SPF)
Compression mode            : Lossy
Stream size                 : 159 MiB (13%)
Language                    : English
Default                     : Yes
Alternate group             : 1
Encoded date                : UTC 2018-02-22 06:58:13
Tagged date                 : UTC 2018-02-22 06:58:13


qO4Dexcl.png

Hidden Content
You'll be able to see the hidden content once you reply to this topic.

Share this post


Link to post
Share on other sites

Create an account or sign in to comment

You need to be a member in order to leave a comment

Create an account

Sign up for a new account in our community. It's easy!

Register a new account

Sign in

Already have an account? Sign in here.

Sign In Now
Sign in to follow this  

×