Jump to content
Sign in to follow this  
POPIKOSTAS

ASTERIX: LE SECRET DE LA POTION MAGIQUE - ΑΣΤΕΡΙΞ: ΤΟ ΜΥΣΤΙΚΟ ΤΟΥ ΜΑΓΙΚΟΥ ΖΩΜΟΥ (2018) DVDRip-ΜΕΤΑΓΛΩΤΤΙΣΜΕΝΟ

Recommended Posts

POPIKOSTAS

wgAGc5qh.jpg

ASTERIX: LE SECRET DE LA POTION MAGIQUE - ΑΣΤΕΡΙΞ: ΤΟ ΜΥΣΤΙΚΟ ΤΟΥ ΜΑΓΙΚΟΥ ΖΩΜΟΥ (2018) DVDRip-ΜΕΤΑΓΛΩΤΤΙΣΜΕΝΟ

ΠΛΗΡΟΦΟΡΙΕΣ

Γαλλία, 2018

Βασισμένο στο έργο των René Goscinny και Albert Uderzo
Σκηνοθεσία: Louis Clichy και Alexandre Astier
Σενάριο: Alexandre Astier, Louis Clichy
Μια πρωτότυπη ιστορία του Alexandre Astier
Σκηνοθεσία: Louis Clichy, Alexandre Astier
Διευθυντής Φωτογραφίας: David Dulac
Υπεύθυνοι animation: Coline Veith , Jérôme Charton
Στην ελληνική μεταγλώττιση ακούγονται: Γιάννης Υφαντής, Κώστας Δαρλάσης, Γιάννος Κοιλάκος, Βασίλης Μηλιός, Άντρια Ράπτη, Τηλέμαχος Κρεβάικας, Ανδρέας Ευαγγελάτος, Νίκος Ιωαννίδης, Πέγκυ Μανωλά, Νίκος Νίκας, Τάσος Κωστής, Κώστας Τριανταφυλλόπουλος, Χρήστος Συριώτης, Βασίλης Παπαστάθης, Θάνος Παρασκευόπουλος, Γιώργος Σκουφής, Σοφία Τσάκα, Τόνια Σωτηροπούλου και Θοδωρής Κουτσογιαννόπουλος

ΥΠΟΘΕΣΗ

Έπειτα από μια πτώση κατά τη συγκομιδή του γκι, ο δρυΐδης Πανοραμίξ αποφασίζει πως είναι καιρός να εξασφαλίσει το μέλλον του χωριού.

Μαζί με τον Αστερίξ και τον Οβελίξ ξεκινά ένα ταξίδι στον γαλατικό κόσμο, αναζητώντας έναν νεαρό, ταλαντούχο δρυΐδη, για να του μεταδώσει το Μυστικό του Μαγικού Ζωμού.

Οι θρυλικοί Γαλάτες επιστρέφουν σ’ αυτή τη διασκεδαστική ταινία κινουμένων σχεδίων μετά το επιτυχημένο και ευφυέστατο «Αστερίξ: Η Κατοικία των Θεών». Η νέα περιπέτεια, «Αστερίξ: Τo Μυστικό του Μαγικού Ζωμού» σφύζει από δράση, αστείες στιγμές, ατακοδόρικους διαλόγους και ποπ αναφορές καθώς ξετυλίγει μία πρωτότυπη ιστορία που παραμένει πιστή στο πνεύμα των θρυλικών κόμικς των Goscinny και Uderzo, και που υπόσχεται να προσφέρει απολαυστικό θέαμα στους νέους και τους παλιότερους φίλους του γαλατικού χωριού.

xXsgVomh.jpg

[video]https://www.youtube.com/watch?v=YmmiUuazpDU[/video]

https://www.imdb.com/title/tt8001346/

ΤΕΧΝΙΚΑ ΧΑΡΑΚΤΗΡΙΣΤΙΚΑ


General
Complete name               : ASTΕRIX.LE.SECRET.DE.LA.POTION.MAGIQUE.2018.mkv
Format                      : Matroska
Format version              : Version 2
File size                   : 2.18 GiB
Duration                    : 1 h 21 min
Overall bit rate            : 3 821 kb/s
Movie name                  : ASTERIX.Title1
Encoded date                : UTC 2019-06-05 18:02:19
Writing application         : DVDFab 9.2.1.8
Writing library             : libebml v0.7.8 + libmatroska v0.8.1

Video
ID                          : 1
Format                      : AVC
Format/Info                 : Advanced Video Codec
Format profile              : [email protected]
Format settings             : CABAC / 2 Ref Frames
Format settings, CABAC      : Yes
Format settings, ReFrames   : 2 frames
Codec ID                    : V_MPEG4/ISO/AVC
Duration                    : 1 h 21 min
Bit rate                    : 3 370 kb/s
Width                       : 720 pixels
Height                      : 312 pixels
Display aspect ratio        : 2.35:1
Frame rate mode             : Constant
Frame rate                  : 25.000 FPS
Color space                 : YUV
Chroma subsampling          : 4:2:0
Bit depth                   : 8 bits
Scan type                   : Progressive
Bits/(Pixel*Frame)          : 0.600
Stream size                 : 1.88 GiB (86%)
Writing library             : x264 core 142
Encoding settings           : cabac=1 / ref=1 / deblock=1:-1:-1 / analyse=0x3:0 / me=hex / subme=5 / psy=0 / mixed_ref=0 / me_range=16 / chroma_me=1 / trellis=0 / 8x8dct=1 / cqm=0 / deadzone=21,11 / fast_pskip=1 / chroma_qp_offset=0 / threads=4 / lookahead_threads=1 / sliced_threads=0 / nr=0 / decimate=1 / interlaced=0 / bluray_compat=0 / constrained_intra=0 / bframes=2 / b_pyramid=0 / b_adapt=1 / b_bias=0 / direct=1 / weightb=1 / open_gop=0 / weightp=0 / keyint=24 / keyint_min=13 / scenecut=40 / intra_refresh=0 / rc=2pass / mbtree=0 / bitrate=3370 / ratetol=1.0 / qcomp=0.60 / qpmin=0 / qpmax=69 / qpstep=4 / cplxblur=20.0 / qblur=0.5 / ip_ratio=1.40 / pb_ratio=1.30 / aq=1:1.00
Default                     : Yes
Forced                      : No
Color range                 : Limited
Color primaries             : BT.601 NTSC
Transfer characteristics    : BT.709
Matrix coefficients         : BT.601

Audio
ID                          : 2
Format                      : AC-3
Format/Info                 : Audio Coding 3
Commercial name             : Dolby Digital
Codec ID                    : A_AC3
Duration                    : 1 h 21 min
Bit rate mode               : Constant
Bit rate                    : 448 kb/s
Channel(s)                  : 6 channels
Channel layout              : L R C LFE Ls Rs
Sampling rate               : 48.0 kHz
Frame rate                  : 31.250 FPS (1536 SPF)
Bit depth                   : 16 bits
Compression mode            : Lossy
Stream size                 : 261 MiB (12%)
Language                    : Greek
Service kind                : Complete Main
Default                     : Yes
Forced                      : No


1MFWSWwh.png

Hidden Content
You'll be able to see the hidden content once you reply to this topic.

Share this post


Link to post
Share on other sites
SADONIS

OKKKKKKKKKKK

Share this post


Link to post
Share on other sites
vayial

thanks

Share this post


Link to post
Share on other sites
sonap610

thanks

Share this post


Link to post
Share on other sites
mimikos70

ευχαριστω

Share this post


Link to post
Share on other sites
yellowman1974

😀😀😀😀😀😀

Share this post


Link to post
Share on other sites
morfanid17

thnx!!!

Share this post


Link to post
Share on other sites
milios
On 6/6/2019 at 8:02 AM, POPIKOSTAS said:

 

wgAGc5qh.jpg

ASTERIX: LE SECRET DE LA POTION MAGIQUE - ΑΣΤΕΡΙΞ: ΤΟ ΜΥΣΤΙΚΟ ΤΟΥ ΜΑΓΙΚΟΥ ΖΩΜΟΥ (2018) DVDRip-ΜΕΤΑΓΛΩΤΤΙΣΜΕΝΟ

ΠΛΗΡΟΦΟΡΙΕΣ

Γαλλία, 2018

Βασισμένο στο έργο των René Goscinny και Albert Uderzo
Σκηνοθεσία: Louis Clichy και Alexandre Astier
Σενάριο: Alexandre Astier, Louis Clichy
Μια πρωτότυπη ιστορία του Alexandre Astier
Σκηνοθεσία: Louis Clichy, Alexandre Astier
Διευθυντής Φωτογραφίας: David Dulac
Υπεύθυνοι animation: Coline Veith , Jérôme Charton
Στην ελληνική μεταγλώττιση ακούγονται: Γιάννης Υφαντής, Κώστας Δαρλάσης, Γιάννος Κοιλάκος, Βασίλης Μηλιός, Άντρια Ράπτη, Τηλέμαχος Κρεβάικας, Ανδρέας Ευαγγελάτος, Νίκος Ιωαννίδης, Πέγκυ Μανωλά, Νίκος Νίκας, Τάσος Κωστής, Κώστας Τριανταφυλλόπουλος, Χρήστος Συριώτης, Βασίλης Παπαστάθης, Θάνος Παρασκευόπουλος, Γιώργος Σκουφής, Σοφία Τσάκα, Τόνια Σωτηροπούλου και Θοδωρής Κουτσογιαννόπουλος

ΥΠΟΘΕΣΗ

Έπειτα από μια πτώση κατά τη συγκομιδή του γκι, ο δρυΐδης Πανοραμίξ αποφασίζει πως είναι καιρός να εξασφαλίσει το μέλλον του χωριού.

Μαζί με τον Αστερίξ και τον Οβελίξ ξεκινά ένα ταξίδι στον γαλατικό κόσμο, αναζητώντας έναν νεαρό, ταλαντούχο δρυΐδη, για να του μεταδώσει το Μυστικό του Μαγικού Ζωμού.

Οι θρυλικοί Γαλάτες επιστρέφουν σ’ αυτή τη διασκεδαστική ταινία κινουμένων σχεδίων μετά το επιτυχημένο και ευφυέστατο «Αστερίξ: Η Κατοικία των Θεών». Η νέα περιπέτεια, «Αστερίξ: Τo Μυστικό του Μαγικού Ζωμού» σφύζει από δράση, αστείες στιγμές, ατακοδόρικους διαλόγους και ποπ αναφορές καθώς ξετυλίγει μία πρωτότυπη ιστορία που παραμένει πιστή στο πνεύμα των θρυλικών κόμικς των Goscinny και Uderzo, και που υπόσχεται να προσφέρει απολαυστικό θέαμα στους νέους και τους παλιότερους φίλους του γαλατικού χωριού.

xXsgVomh.jpg

[video]https://www.youtube.com/watch?v=YmmiUuazpDU[/video]

 

https://www.imdb.com/title/tt8001346/

 

ΤΕΧΝΙΚΑ ΧΑΡΑΚΤΗΡΙΣΤΙΚΑ


General
Complete name               : ASTΕRIX.LE.SECRET.DE.LA.POTION.MAGIQUE.2018.mkv
Format                      : Matroska
Format version              : Version 2
File size                   : 2.18 GiB
Duration                    : 1 h 21 min
Overall bit rate            : 3 821 kb/s
Movie name                  : ASTERIX.Title1
Encoded date                : UTC 2019-06-05 18:02:19
Writing application         : DVDFab 9.2.1.8
Writing library             : libebml v0.7.8 + libmatroska v0.8.1

  Reveal hidden contents

Video
ID                          : 1
Format                      : AVC
Format/Info                 : Advanced Video Codec
Format profile              : [email protected]
Format settings             : CABAC / 2 Ref Frames
Format settings, CABAC      : Yes
Format settings, ReFrames   : 2 frames
Codec ID                    : V_MPEG4/ISO/AVC
Duration                    : 1 h 21 min
Bit rate                    : 3 370 kb/s
Width                       : 720 pixels
Height                      : 312 pixels
Display aspect ratio        : 2.35:1
Frame rate mode             : Constant
Frame rate                  : 25.000 FPS
Color space                 : YUV
Chroma subsampling          : 4:2:0
Bit depth                   : 8 bits
Scan type                   : Progressive
Bits/(Pixel*Frame)          : 0.600
Stream size                 : 1.88 GiB (86%)
Writing library             : x264 core 142
Encoding settings           : cabac=1 / ref=1 / deblock=1:-1:-1 / analyse=0x3:0 / me=hex / subme=5 / psy=0 / mixed_ref=0 / me_range=16 / chroma_me=1 / trellis=0 / 8x8dct=1 / cqm=0 / deadzone=21,11 / fast_pskip=1 / chroma_qp_offset=0 / threads=4 / lookahead_threads=1 / sliced_threads=0 / nr=0 / decimate=1 / interlaced=0 / bluray_compat=0 / constrained_intra=0 / bframes=2 / b_pyramid=0 / b_adapt=1 / b_bias=0 / direct=1 / weightb=1 / open_gop=0 / weightp=0 / keyint=24 / keyint_min=13 / scenecut=40 / intra_refresh=0 / rc=2pass / mbtree=0 / bitrate=3370 / ratetol=1.0 / qcomp=0.60 / qpmin=0 / qpmax=69 / qpstep=4 / cplxblur=20.0 / qblur=0.5 / ip_ratio=1.40 / pb_ratio=1.30 / aq=1:1.00
Default                     : Yes
Forced                      : No
Color range                 : Limited
Color primaries             : BT.601 NTSC
Transfer characteristics    : BT.709
Matrix coefficients         : BT.601

Audio
ID                          : 2
Format                      : AC-3
Format/Info                 : Audio Coding 3
Commercial name             : Dolby Digital
Codec ID                    : A_AC3
Duration                    : 1 h 21 min
Bit rate mode               : Constant
Bit rate                    : 448 kb/s
Channel(s)                  : 6 channels
Channel layout              : L R C LFE Ls Rs
Sampling rate               : 48.0 kHz
Frame rate                  : 31.250 FPS (1536 SPF)
Bit depth                   : 16 bits
Compression mode            : Lossy
Stream size                 : 261 MiB (12%)
Language                    : Greek
Service kind                : Complete Main
Default                     : Yes
Forced                      : No

 


1MFWSWwh.png

 

Hidden Content
You'll be able to see the hidden content once you reply to this topic.

 

 

thanks

Share this post


Link to post
Share on other sites
GEKAS

THANK YOU HELLAS

Share this post


Link to post
Share on other sites

Create an account or sign in to comment

You need to be a member in order to leave a comment

Create an account

Sign up for a new account in our community. It's easy!

Register a new account

Sign in

Already have an account? Sign in here.

Sign In Now
Sign in to follow this  

×