Sign in to follow this  
ScooterMan

περιπέτεια MORTAL KOMBAT (1995-1997) DYOLOGY 1080p BluRay DTS x264 | ΕΝΣΩΜΑΤΩΜΕΝΟΙ ΥΠΟΤΙΤΛΟΙ

Recommended Posts

ScooterMan


VF22vfu.jpg


97lLFEt.jpg


gGH2Dbn.png?3

Ελληνικός Τίτλος: Θανάσιμη μάχη
Είδος Ταινίας: Action, Adventure, Fantasy   
Σκηνοθέτης: Paul W.S. Anderson
Σεναριογράφος: Ed Boon (video games), John Tobias (video games)
Ηθοποιοί: Christopher Lambert, Robin Shou, Linden Ashby
Πρεμιέρα: 3 May 1996 (Greece)
Υπότιτλοι: Ελληνικοί Ενσωματωμένοι & Σε Ξεχωριστό Αρχείο
Μετάφραση: Original
IMDb: https://www.imdb.com/title/tt0113855/


dbzzNXu.png?2

O Λόρδος Ρέιντεν τούς έχει σώσει αλλά δεν μπορεί να αγωνιστεί για αυτούς. Εκείνοι – ένας καλλιτέχνης πολεμικών τεχνών, ένας κινηματογραφικός αστέρας περιπετειών, ένας στρατιώτης – είναι οι επιλεγμένοι τρεις. Κι ενώ η τύχη όλου του κόσμου εξαρτάται πλέον από αυτούς, εμείς μπορούμε να τους απολαύσουμε καθώς μάχονται για να σώσουν όλους μας σε μια σειρά σώμα με σώμα, μυστικιστικές, μέχρι θανάτου μάχες με δαίμονες και τέρατα, την ονομαζόμενη Θανάσιμη Μάχη.


uoJL54u.png?2

General
Format                      : Matroska
Format version              : Version 4
File size                   : 10.4 GiB
Duration                    : 1 h 41 min
Overall bit rate            : 14.7 Mb/s
Movie name                  : Mortal.Kombat.1995.1080p.BluRay.DTS.x264-HDMaNiAcS
Encoded date                : UTC 2019-05-15 10:03:04
Writing application         : mkvmerge v10.0.0 ('To Drown In You') 64bit
Writing library             : libebml v1.3.4 + libmatroska v1.4.5

Video
ID                          : 1
Format                      : AVC
Format/Info                 : Advanced Video Codec
Format profile              : [email protected]
Format settings             : CABAC / 4 Ref Frames
Format settings, CABAC      : Yes
Format settings, ReFrames   : 4 frames
Codec ID                    : V_MPEG4/ISO/AVC
Duration                    : 1 h 41 min
Bit rate                    : 12.5 Mb/s
Width                       : 1 920 pixels
Height                      : 1 080 pixels
Display aspect ratio        : 16:9
Frame rate mode             : Constant
Frame rate                  : 23.976 (24000/1001) FPS
Color space                 : YUV
Chroma subsampling          : 4:2:0
Bit depth                   : 8 bits
Scan type                   : Progressive
Bits/(Pixel*Frame)          : 0.252
Stream size                 : 8.88 GiB (85%)
Writing library             : x264 core 148 r2638 7599210
Encoding settings           : cabac=1 / ref=4 / deblock=1:-3:-3 / analyse=0x3:0x133 / me=tesa / subme=11 / psy=1 / psy_rd=1.04:0.00 / mixed_ref=1 / me_range=32 / chroma_me=1 / trellis=2 / 8x8dct=1 / cqm=0 / deadzone=21,11 / fast_pskip=0 / chroma_qp_offset=-2 / threads=34 / lookahead_threads=8 / sliced_threads=0 / nr=0 / decimate=0 / interlaced=0 / bluray_compat=0 / constrained_intra=0 / bframes=12 / b_pyramid=2 / b_adapt=2 / b_bias=0 / direct=3 / weightb=1 / open_gop=0 / weightp=2 / keyint=240 / keyint_min=23 / scenecut=40 / intra_refresh=0 / rc_lookahead=150 / rc=crf / mbtree=0 / crf=19.5 / qcomp=0.60 / qpmin=0 / qpmax=69 / qpstep=4 / vbv_maxrate=62500 / vbv_bufsize=78125 / crf_max=0.0 / nal_hrd=none / filler=0 / ip_ratio=1.40 / pb_ratio=1.30 / aq=1:0.80
Default                     : Yes
Forced                      : No

Audio #1
ID                          : 2
Format                      : DTS
Format/Info                 : Digital Theater Systems
Codec ID                    : A_DTS
Duration                    : 1 h 41 min
Bit rate mode               : Constant
Bit rate                    : 1 509 kb/s
Channel(s)                  : 6 channels
Channel layout              : C L R Ls Rs LFE
Sampling rate               : 48.0 kHz
Frame rate                  : 93.750 FPS (512 SPF)
Bit depth                   : 24 bits
Compression mode            : Lossy
Stream size                 : 1.07 GiB (10%)
Title                       : DTS 5.1
Language                    : English
Default                     : No
Forced                      : No

Audio #2
ID                          : 3
Format                      : AC-3
Format/Info                 : Audio Coding 3
Commercial name             : Dolby Digital
Codec ID                    : A_AC3
Duration                    : 1 h 41 min
Bit rate mode               : Constant
Bit rate                    : 640 kb/s
Channel(s)                  : 6 channels
Channel layout              : L R C LFE Ls Rs
Sampling rate               : 48.0 kHz
Frame rate                  : 31.250 FPS (1536 SPF)
Bit depth                   : 16 bits
Compression mode            : Lossy
Stream size                 : 464 MiB (4%)
Title                       : AC3 5.1
Language                    : English
Service kind                : Complete Main
Default                     : Yes
Forced                      : No

Text #1
ID                          : 4
Format                      : UTF-8
Codec ID                    : S_TEXT/UTF8
Codec ID/Info               : UTF-8 Plain Text
Duration                    : 1 h 30 min
Bit rate                    : 57 b/s
Count of elements           : 755
Stream size                 : 38.6 KiB (0%)
Title                       : Greek
Language                    : Greek
Default                     : Yes
Forced                      : Yes

Text #2
ID                          : 5
Format                      : UTF-8
Codec ID                    : S_TEXT/UTF8
Codec ID/Info               : UTF-8 Plain Text
Duration                    : 1 h 39 min
Bit rate                    : 27 b/s
Count of elements           : 756
Stream size                 : 19.9 KiB (0%)
Title                       : English
Language                    : English
Default                     : No
Forced                      : No

Text #3
ID                          : 6
Format                      : UTF-8
Codec ID                    : S_TEXT/UTF8
Codec ID/Info               : UTF-8 Plain Text
Duration                    : 1 h 40 min
Bit rate                    : 41 b/s
Count of elements           : 757
Stream size                 : 30.8 KiB (0%)
Title                       : Arabic
Language                    : Arabic
Default                     : No
Forced                      : No

Text #4
ID                          : 7
Format                      : UTF-8
Codec ID                    : S_TEXT/UTF8
Codec ID/Info               : UTF-8 Plain Text
Duration                    : 1 h 40 min
Bit rate                    : 26 b/s
Count of elements           : 746
Stream size                 : 19.9 KiB (0%)
Title                       : Chinese
Language                    : Chinese
Default                     : No
Forced                      : No

Text #5
ID                          : 8
Format                      : UTF-8
Codec ID                    : S_TEXT/UTF8
Codec ID/Info               : UTF-8 Plain Text
Duration                    : 1 h 29 min
Bit rate                    : 29 b/s
Count of elements           : 525
Stream size                 : 19.7 KiB (0%)
Title                       : Danish
Language                    : Danish
Default                     : No
Forced                      : No

Text #6
ID                          : 9
Format                      : UTF-8
Codec ID                    : S_TEXT/UTF8
Codec ID/Info               : UTF-8 Plain Text
Duration                    : 1 h 29 min
Bit rate                    : 27 b/s
Count of elements           : 743
Stream size                 : 18.0 KiB (0%)
Title                       : Dutch
Language                    : Dutch
Default                     : No
Forced                      : No

Text #7
ID                          : 10
Format                      : UTF-8
Codec ID                    : S_TEXT/UTF8
Codec ID/Info               : UTF-8 Plain Text
Duration                    : 1 h 29 min
Bit rate                    : 28 b/s
Count of elements           : 743
Stream size                 : 18.7 KiB (0%)
Title                       : French
Language                    : French
Default                     : No
Forced                      : No

Text #8
ID                          : 11
Format                      : UTF-8
Codec ID                    : S_TEXT/UTF8
Codec ID/Info               : UTF-8 Plain Text
Duration                    : 1 h 30 min
Bit rate                    : 29 b/s
Count of elements           : 730
Stream size                 : 19.6 KiB (0%)
Title                       : Portuguese
Language                    : Portuguese
Default                     : No
Forced                      : No

Text #9
ID                          : 12
Format                      : UTF-8
Codec ID                    : S_TEXT/UTF8
Codec ID/Info               : UTF-8 Plain Text
Duration                    : 1 h 30 min
Bit rate                    : 29 b/s
Count of elements           : 508
Stream size                 : 19.2 KiB (0%)
Title                       : Swedish
Language                    : Swedish
Default                     : No
Forced                      : No


====================================================================================

e1OBTB3.jpg


gGH2Dbn.png?3

Ελληνικός Τίτλος: Θανάσιμη μάχη 2: Η εξόντωση
Είδος Ταινίας: Action, Adventure, Fantasy   
Σκηνοθέτης: John R. Leonetti
Σεναριογράφος: Ed Boon (video games), Lawrence Kasanoff (story)
Ηθοποιοί: Robin Shou, Talisa Soto, James Remar
Πρεμιέρα: 21 November 1997 (USA)
Υπότιτλοι: Ελληνικοί Ενσωματωμένοι & Σε Ξεχωριστό Αρχείο
Μετάφραση: Original
IMDb: https://www.imdb.com/title/tt0119707/


dbzzNXu.png?2

Μια νέα εποχή… αλλά από ποιόν; Η νίκη στη Θανάσιμη Μάχη για τον Εξώκοσμο υποτίθεται ότι θα αναδείκνυε μια γενιά ειρηνική στην Γη. Αλλά πότε δεν μπορείς να εμπιστευτείς τους δολοπλόκους και παθιασμένους για εξουσία ανθρώπους. Άνοιξαν τις πύλες που ενώνουν τον κόσμο τους με τον δικό μας και τώρα η Γη θα καταληφθεί. Εκτός εάν μια ομάδα ηρωικών ανθρώπων εκπαιδευτεί κατάλληλα με νέες ικανότητες στην μάχη για να μπορέσουν να συντρίψουν την επιδρομή των θανάσιμων πλασμάτων του Εξώκοσμου.


uoJL54u.png?2

General
Format                      : Matroska
Format version              : Version 4
File size                   : 11.2 GiB
Duration                    : 1 h 35 min
Overall bit rate mode       : Variable
Overall bit rate            : 16.7 Mb/s
Encoded date                : UTC 2019-05-15 10:07:02
Writing application         : mkvmerge v10.0.0 ('To Drown In You') 64bit
Writing library             : libebml v1.3.4 + libmatroska v1.4.5

Video
ID                          : 1
Format                      : AVC
Format/Info                 : Advanced Video Codec
Format profile              : [email protected]
Format settings             : CABAC / 4 Ref Frames
Format settings, CABAC      : Yes
Format settings, ReFrames   : 4 frames
Codec ID                    : V_MPEG4/ISO/AVC
Duration                    : 1 h 34 min
Bit rate                    : 11.9 Mb/s
Width                       : 1 920 pixels
Height                      : 1 080 pixels
Display aspect ratio        : 16:9
Frame rate mode             : Constant
Frame rate                  : 23.976 (24000/1001) FPS
Color space                 : YUV
Chroma subsampling          : 4:2:0
Bit depth                   : 8 bits
Scan type                   : Progressive
Bits/(Pixel*Frame)          : 0.239
Stream size                 : 7.87 GiB (70%)
Title                       : [email protected] Profile L4.1, 24/1.001 fps @ 11900 kbps
Writing library             : x264 core 133 r2334 a3ac64b
Encoding settings           : cabac=1 / ref=4 / deblock=1:-3:-3 / analyse=0x3:0x133 / me=umh / subme=11 / psy=1 / psy_rd=1.00:0.00 / mixed_ref=1 / me_range=32 / chroma_me=1 / trellis=2 / 8x8dct=1 / cqm=0 / deadzone=21,11 / fast_pskip=0 / chroma_qp_offset=-2 / threads=12 / lookahead_threads=1 / sliced_threads=0 / nr=0 / decimate=0 / interlaced=0 / bluray_compat=0 / constrained_intra=0 / bframes=6 / b_pyramid=2 / b_adapt=2 / b_bias=0 / direct=3 / weightb=1 / open_gop=0 / weightp=2 / keyint=240 / keyint_min=23 / scenecut=40 / intra_refresh=0 / rc_lookahead=60 / rc=2pass / mbtree=1 / bitrate=11900 / ratetol=1.0 / qcomp=0.60 / qpmin=0 / qpmax=69 / qpstep=4 / cplxblur=20.0 / qblur=0.5 / vbv_maxrate=45000 / vbv_bufsize=45000 / nal_hrd=none / ip_ratio=1.40 / aq=1:0.60
Language                    : English
Default                     : Yes
Forced                      : No

Audio #1
ID                          : 2
Format                      : AC-3
Format/Info                 : Audio Coding 3
Commercial name             : Dolby Digital
Codec ID                    : A_AC3
Duration                    : 1 h 35 min
Bit rate mode               : Constant
Bit rate                    : 640 kb/s
Channel(s)                  : 6 channels
Channel layout              : L R C LFE Ls Rs
Sampling rate               : 48.0 kHz
Frame rate                  : 31.250 FPS (1536 SPF)
Bit depth                   : 16 bits
Compression mode            : Lossy
Stream size                 : 438 MiB (4%)
Title                       : English AC3 5.1
Language                    : English
Service kind                : Complete Main
Default                     : Yes
Forced                      : No

Audio #2
ID                          : 3
Format                      : DTS XLL
Format/Info                 : Digital Theater Systems
Commercial name             : DTS-HD Master Audio
Codec ID                    : A_DTS
Duration                    : 1 h 35 min
Bit rate mode               : Variable
Bit rate                    : 4 268 kb/s
Channel(s)                  : 6 channels
Channel layout              : C L R Ls Rs LFE
Sampling rate               : 48.0 kHz
Frame rate                  : 93.750 FPS (512 SPF)
Bit depth                   : 24 bits
Compression mode            : Lossless
Stream size                 : 2.85 GiB (26%)
Title                       : English DTS-HD Master Audio 5.1 @ 4312 kbps
Language                    : English
Default                     : No
Forced                      : No

Text #1
ID                          : 4
Format                      : UTF-8
Codec ID                    : S_TEXT/UTF8
Codec ID/Info               : UTF-8 Plain Text
Duration                    : 1 h 22 min
Bit rate                    : 57 b/s
Count of elements           : 690
Stream size                 : 34.8 KiB (0%)
Title                       : Greek/SRT
Language                    : Greek
Default                     : Yes
Forced                      : No

Text #2
ID                          : 5
Format                      : PGS
Muxing mode                 : zlib
Codec ID                    : S_HDMV/PGS
Codec ID/Info               : Picture based subtitle format used on BDs/HD-DVDs
Duration                    : 1 h 33 min
Bit rate                    : 8 519 b/s
Count of elements           : 1536
Stream size                 : 5.72 MiB (0%)
Title                       : Eng/SUP
Language                    : English
Default                     : No
Forced                      : No

Text #3
ID                          : 6
Format                      : PGS
Muxing mode                 : zlib
Codec ID                    : S_HDMV/PGS
Codec ID/Info               : Picture based subtitle format used on BDs/HD-DVDs
Duration                    : 1 h 33 min
Bit rate                    : 10.1 kb/s
Count of elements           : 1316
Stream size                 : 6.79 MiB (0%)
Title                       : Cht/SUP  繁体
Language                    : Chinese
Default                     : No
Forced                      : No


24p9pg4.jpg


Hidden Content
You'll be able to see the hidden content once you reply to this topic.


esmb92.jpg


seywwp.jpg


Share this post


Link to post
Share on other sites

Create an account or sign in to comment

You need to be a member in order to leave a comment

Create an account

Sign up for a new account in our community. It's easy!

Register a new account

Sign in

Already have an account? Sign in here.

Sign In Now
Sign in to follow this