Jump to content
Sign in to follow this  
POPIKOSTAS

DUCKTALES - ΠΑΠΙΟΠΕΡΙΠΕΤΕΙΕΣ (2017 - ) TVRip - ΜΕΤΑΓΛΩΤΤΙΣΜΕΝΟ

Recommended Posts

POPIKOSTAS

m3ekOYEh.jpg

DUCKTALES - ΠΑΠΙΟΠΕΡΙΠΕΤΕΙΕΣ (2017 - ) TVRip - ΜΕΤΑΓΛΩΤΤΙΣΜΕΝΟ

ΠΛΗΡΟΦΟΡΙΕΣ

Είδος Σειράς: Κινούμενα Σχέδια, Περιπέτεια, Κωμωδία
Σκηνοθεσία: Φρανσίσκο Ανγκόνες, Ματ Γιάνγκμπεργκ
Ήχος: Ελληνικά

ΥΠΟΘΕΣΗ

 Η σειρά Παπιοπεριπέτειες  προβαλλόταν από το 1987 έως το 1990 στις ΗΠΑ και λίγο αργότερα ήρθε και στην Ελλάδα. Μέσα από 100 επεισόδια και μια επική ταινία, οι Παπιοπεριπέτειες κατέκτησαν τις καρδιές ακόμα μιας γενιάς, εκείνης των σημερινών τριαντάρηδων, αφού αποτελούσαν μια κάπως "εκσυγχρονισμένη" εκδοχή της κλασικής οικογένειας των Μακ Ντακ από τη Λιμνούπολη!

 Οι θρυλικοί χαρακτήρες επέστρεψαν σε νέες Παπιοπεριπέτειες! Ο πρώτος κύκλος θα αποτελείται από 21 τριαντάλεπτα επεισόδια. Ο τσιγκούναρος τρισεκατομμυριούχος Σκρουτζ, μαζί με τα τρία ανιψάκια του, Χιούι, Λιούι και Ντιούι, για ακόμη μία φορά φαίνεται πως θα γυρίσουν ολόκληρο τον πλανήτη, έχοντας ως οδηγό τον ανεπίδεκτο πιλότο Βολίδα. Μόνο που αυτήν τη φορά, η παλιοπαρέα θα είναι ιδιαίτερα ενισχυμένη, τόσο με την τρελιάρα Γουέμπι, η οποία στα 80's ήταν περισσότερο guest star, αλλά πλέον θα έχει ισόποσο χρόνο με τους υπολοίπους στις οθόνες μας, όσο και με τον πάντα γκαφατζή και πάντα αγαπημένο, Ντόναλντ! Ο Ντόναλντ δεν ήταν και πρώτη μούρη στην παλιά σειρά, αλλά όπως φαίνεται ο ρόλος του θα αναβαθμιστεί και θα τον βλέπουμε πολύ περισσότερο να κάνει βασανιστικά πιο δύσκολη τη ζωή του ίδιου και των γύρω του με τις άγαρμπες κινήσεις του...

AODJPfXh.jpg

[video]https://www.youtube.com/watch?v=YKSU82afy1w[/video]

https://www.imdb.com/title/tt5531466/

ΤΕΧΝΙΚΑ ΧΑΡΑΚΤΗΡΙΣΤΙΚΑ


General
Complete name               : PAPASTORY.01.mp4
Format                      : MPEG-4
Format profile              : Base Media
Codec ID                    : isom (isom/iso2/avc1/mp41)
File size                   : 240 MiB
Duration                    : 21 min 30 s
Overall bit rate            : 1 561 kb/s
Description                 : AverMedia_c285_001.002.001
Writing application         : Lavf54.31.100
Comment                     : Quality_FINE

Video
ID                          : 1
Format                      : AVC
Format/Info                 : Advanced Video Codec
Format profile              : [email protected]
Format settings             : CABAC / 4 Ref Frames
Format settings, CABAC      : Yes
Format settings, ReFrames   : 4 frames
Codec ID                    : avc1
Codec ID/Info               : Advanced Video Coding
Duration                    : 21 min 30 s
Bit rate                    : 1 427 kb/s
Width                       : 1 280 pixels
Height                      : 720 pixels
Display aspect ratio        : 16:9
Frame rate mode             : Constant
Frame rate                  : 25.000 FPS
Color space                 : YUV
Chroma subsampling          : 4:2:0
Bit depth                   : 8 bits
Scan type                   : Progressive
Bits/(Pixel*Frame)          : 0.062
Stream size                 : 220 MiB (91%)
Writing library             : x264 core 148 r2708 86b7198
Encoding settings           : cabac=1 / ref=2 / deblock=1:0:0 / analyse=0x1:0x111 / me=hex / subme=6 / psy=1 / psy_rd=1.00:0.00 / mixed_ref=1 / me_range=16 / chroma_me=1 / trellis=1 / 8x8dct=0 / cqm=0 / deadzone=21,11 / fast_pskip=1 / chroma_qp_offset=-2 / threads=6 / lookahead_threads=1 / sliced_threads=0 / nr=0 / decimate=1 / interlaced=0 / bluray_compat=0 / constrained_intra=0 / bframes=3 / b_pyramid=2 / b_adapt=1 / b_bias=0 / direct=1 / weightb=1 / open_gop=0 / weightp=1 / keyint=250 / keyint_min=25 / scenecut=40 / intra_refresh=0 / rc_lookahead=30 / rc=crf / mbtree=1 / crf=21.0 / qcomp=0.60 / qpmin=0 / qpmax=69 / qpstep=4 / vbv_maxrate=14000 / vbv_bufsize=14000 / crf_max=0.0 / nal_hrd=none / filler=0 / ip_ratio=1.40 / aq=1:1.00
Color range                 : Limited
Color primaries             : BT.709
Transfer characteristics    : BT.709
Matrix coefficients         : BT.709
Codec configuration box     : avcC

Audio
ID                          : 2
Format                      : AAC LC
Format/Info                 : Advanced Audio Codec Low Complexity
Codec ID                    : mp4a-40-2
Duration                    : 21 min 30 s
Bit rate mode               : Constant
Bit rate                    : 128 kb/s
Channel(s)                  : 2 channels
Channel layout              : L R
Sampling rate               : 48.0 kHz
Frame rate                  : 46.875 FPS (1024 SPF)
Compression mode            : Lossy
Stream size                 : 19.7 MiB (8%)
Default                     : Yes
Alternate group             : 1


1MFWSWwh.png

Hidden Content
You'll be able to see the hidden content once you reply to this topic.

  • Like 2
  • Thanks 3

Share this post


Link to post
Share on other sites
StathisTsasakos

thanks

 

Share this post


Link to post
Share on other sites

Create an account or sign in to comment

You need to be a member in order to leave a comment

Create an account

Sign up for a new account in our community. It's easy!

Register a new account

Sign in

Already have an account? Sign in here.

Sign In Now
Sign in to follow this  

×