Sign in to follow this  
POPIKOSTAS

θρίλερ 3 HOMMES A ABATTRE - ΤΡΕΙΣ ΦΟΡΕΣ ΣΚΛΗΡΟΣ (1980) DVDRip (Alain Delon) - ΞΕΧΩΡΙΣΤΟΙ ΥΠΟΤΙΤΛΟΙ

Recommended Posts

POPIKOSTAS

ooRi2Qqh.png

3 HOMMES A ABATTRE - ΤΡΕΙΣ ΦΟΡΕΣ ΣΚΛΗΡΟΣ (1980) DVDRip (Alain Delon) - ΞΕΧΩΡΙΣΤΟΙ ΥΠΟΤΙΤΛΟΙ

Είδος Ταινίας: Thriller
Έτος: 1980
Διάρκεια: 1h 33min
Σκηνοθεσία: Jacques Deray
Σενάριο: Jean-Patrick Manchette, Alain Delon
Ηθοποιοί: Alain Delon, Dalila Di Lazzaro, Michel Auclair
Χρωματισμός Εικόνας: Εγχρωμος
Χώρα Παραγωγής: France
Γλώσσα: France
ΥΠΟΤΙΤΛΟΙ: ΧΡΗΣΤΟΣ

Ένας όμορφος μεσήλικας ζει στο Παρίσι. Έχει δεσμό με μια όμορφη νεότερη φιλενάδα και βγάζει τα προς το ζην ως επαγγελματίας παίχτης του πόκερ. Ένα βράδυ, καθώς γυρίζει σπίτι του, βρίσκεται αντιμέτωπος μ' ένα αυτοκινητιστικό δυστύχημα. Διαπιστώνει ότι ο οδηγός ζει ακόμα και τον μεταφέρει στο νοσοκομείο.
Τις επόμενες ημέρες διαβάζει στις εφημερίδες ότι το άτομο που μετέφερε, το οποίο παρεμπιπτόντως τύγχανε υψηλόβαθμος αξιωματούχος, εν τέλει κατέληξε. Μάλιστα, το ίδιο βράδυ του δυστυχήματος, δύο ακόμα συνάδερφοί του είχαν σκοτωθεί. Το πιο σκοτεινό όλων, αποδεικνύεται ότι και οι τρεις σχετίζονταν με στρατιωτικές μελέτες και ότι γνώριζαν για αστοχίες πυραύλων που θα χρησιμοποιούνταν από το στρατό!

[video]https://www.youtube.com/watch?v=Gem-YiIcs8I[/video]

pNj0iHYh.jpg

https://www.imdb.com/title/tt0081658/

ΤΕΧΝΙΚΑ ΧΑΡΑΚΤΗΡΙΣΤΙΚΑ


General
Complete name               : 3 Hommes a Abattre (1980).mkv
Format                      : Matroska
Format version              : Version 2
File size                   : 1.42 GiB
Duration                    : 1 h 36 min
Overall bit rate            : 2 108 kb/s
Encoded date                : UTC 2014-11-10 06:35:40
Writing application         : mkvmerge v7.0.0 ('Where We Going') 32bit built on Jun  9 2014 15:08:34
Writing library             : libebml v1.3.0 + libmatroska v1.4.1

Video
ID                          : 1
Format                      : AVC
Format/Info                 : Advanced Video Codec
Format profile              : [email protected]
Format settings             : CABAC / 8 Ref Frames
Format settings, CABAC      : Yes
Format settings, ReFrames   : 8 frames
Codec ID                    : V_MPEG4/ISO/AVC
Duration                    : 1 h 36 min
Bit rate                    : 1 850 kb/s
Width                       : 656 pixels
Height                      : 572 pixels
Display aspect ratio        : 5:3
Frame rate mode             : Constant
Frame rate                  : 24.000 FPS
Color space                 : YUV
Chroma subsampling          : 4:2:0
Bit depth                   : 8 bits
Scan type                   : Progressive
Bits/(Pixel*Frame)          : 0.205
Stream size                 : 1.25 GiB (88%)
Writing library             : x264 core 142 r2431 ac76440
Encoding settings           : cabac=1 / ref=8 / deblock=1:-3:-3 / analyse=0x3:0x133 / me=umh / subme=9 / psy=1 / psy_rd=1.00:0.15 / mixed_ref=1 / me_range=28 / chroma_me=1 / trellis=2 / 8x8dct=1 / cqm=0 / deadzone=21,11 / fast_pskip=0 / chroma_qp_offset=-3 / threads=3 / lookahead_threads=1 / sliced_threads=0 / nr=0 / decimate=0 / interlaced=0 / bluray_compat=0 / constrained_intra=0 / bframes=7 / b_pyramid=2 / b_adapt=2 / b_bias=0 / direct=3 / weightb=1 / open_gop=0 / weightp=2 / keyint=240 / keyint_min=24 / scenecut=40 / intra_refresh=0 / rc_lookahead=240 / rc=2pass / mbtree=1 / bitrate=1850 / ratetol=3.0 / qcomp=0.70 / qpmin=0 / qpmax=69 / qpstep=4 / cplxblur=20.0 / qblur=0.5 / vbv_maxrate=14000 / vbv_bufsize=14000 / nal_hrd=none / filler=0 / ip_ratio=1.40 / aq=1:1.00
Language                    : English
Default                     : Yes
Forced                      : No

Audio
ID                          : 2
Format                      : AC-3
Format/Info                 : Audio Coding 3
Commercial name             : Dolby Digital
Codec ID                    : A_AC3
Duration                    : 1 h 36 min
Bit rate mode               : Constant
Bit rate                    : 256 kb/s
Channel(s)                  : 6 channels
Channel layout              : L R C LFE Ls Rs
Sampling rate               : 48.0 kHz
Frame rate                  : 31.250 FPS (1536 SPF)
Bit depth                   : 16 bits
Compression mode            : Lossy
Stream size                 : 177 MiB (12%)
Service kind                : Complete Main
Default                     : Yes
Forced                      : No


qO4Dexcl.png

Hidden Content
You'll be able to see the hidden content once you reply to this topic.

Share this post


Link to post
Share on other sites
triant

THANKS

Share this post


Link to post
Share on other sites

Create an account or sign in to comment

You need to be a member in order to leave a comment

Create an account

Sign up for a new account in our community. It's easy!

Register a new account

Sign in

Already have an account? Sign in here.

Sign In Now
Sign in to follow this