Jump to content
Sign in to follow this  
ScooterMan

[δράσης/περιπέτεια] MILE 22 (2018) 1080p BluRay x264-AMIABLE | ΞΕΧΩΡΙΣΤΟΙ ΥΠΟΤΙΤΛΟΙ

Recommended Posts

ScooterMan

MILE 22 (2018)


vQ6p0VG.jpg


Ελληνικός Τίτλος: -
Είδος Ταινίας: Action , Adventure , Crime  
Σκηνοθέτης: Peter Berg
Σεναριογράφος: Lea Carpenter (screenplay by), Graham Roland (story by)  
Ηθοποιοί: Mark Wahlberg, Lauren Cohan, Iko Uwais
Πρεμιέρα: 16 August 2018 (Greece)
Μετάφραση: up2spi

IMDB.png


ΥπόθεΣη:


Ο Τζέιμς Σίλβα, μέλος της πιο πολύτιμης μονάδας της CIA, έχει ως αποστολή να ανακτήσει και να μεταφέρει στο Mile 22 έναν μυστηριώδη κρατούμενο αστυνομικό που γνωρίζει ευαίσθητες πληροφορίες που απειλούν τη ζωή του. Με τη βοήθεια της άκρως απόρρητης ομάδας τακτικών επιχειρήσεων, ο Σίλβα πρέπει να ολοκληρώσει την αποστολή με κάθε κόστος, προτού ο εχθρός κλείσει την πρόσβαση για το 22ο μίλι.


Τεχνικά Χαρακτηριστικά:


General
Format                      : Matroska
Format version              : Version 4
File size                   : 6.56 GiB
Duration                    : 1 h 34 min
Overall bit rate            : 9 913 kb/s
Encoded date                : UTC 2010-02-22 21:41:29
Writing application         : no_variable_data
Writing library             : no_variable_data
IsTruncated                 : Yes

Video
ID                          : 1
Format                      : AVC
Format/Info                 : Advanced Video Codec
Format profile              : [email protected]
Format settings             : CABAC / 5 Ref Frames
Format settings, CABAC      : Yes
Format settings, ReFrames   : 5 frames
Codec ID                    : V_MPEG4/ISO/AVC
Duration                    : 1 h 34 min
Bit rate                    : 9 277 kb/s
Width                       : 1 920 pixels
Height                      : 800 pixels
Display aspect ratio        : 2.40:1
Frame rate mode             : Constant
Frame rate                  : 23.976 (24000/1001) FPS
Color space                 : YUV
Chroma subsampling          : 4:2:0
Bit depth                   : 8 bits
Scan type                   : Progressive
Bits/(Pixel*Frame)          : 0.252
Stream size                 : 6.13 GiB (94%)
Writing library             : x264 core 157 r2935 545de2f
Encoding settings           : cabac=1 / ref=5 / deblock=1:-3:-3 / analyse=0x3:0x113 / me=umh / subme=8 / psy=1 / psy_rd=1.00:0.00 / mixed_ref=1 / me_range=32 / chroma_me=1 / trellis=2 / 8x8dct=1 / cqm=0 / deadzone=21,11 / fast_pskip=1 / chroma_qp_offset=-2 / threads=25 / lookahead_threads=4 / sliced_threads=0 / nr=0 / decimate=1 / interlaced=0 / bluray_compat=0 / constrained_intra=0 / bframes=3 / b_pyramid=2 / b_adapt=2 / b_bias=0 / direct=3 / weightb=1 / open_gop=0 / weightp=2 / keyint=240 / keyint_min=24 / scenecut=40 / intra_refresh=0 / rc_lookahead=50 / rc=2pass / mbtree=1 / bitrate=9277 / ratetol=1.0 / qcomp=0.60 / qpmin=0 / qpmax=69 / qpstep=4 / cplxblur=20.0 / qblur=0.5 / ip_ratio=1.40 / aq=3:0.80
Default                     : Yes
Forced                      : No

Audio
ID                          : 2
Format                      : AC-3
Format/Info                 : Audio Coding 3
Commercial name             : Dolby Digital
Codec ID                    : A_AC3
Duration                    : 1 h 34 min
Bit rate mode               : Constant
Bit rate                    : 640 kb/s
Channel(s)                  : 6 channels
Channel layout              : L R C LFE Ls Rs
Sampling rate               : 48.0 kHz
Frame rate                  : 31.250 FPS (1536 SPF)
Bit depth                   : 16 bits
Compression mode            : Lossy
Stream size                 : 433 MiB (6%)
Language                    : English
Service kind                : Complete Main
Default                     : Yes
Forced                      : No

Text #1
ID                          : 3
Format                      : UTF-8
Codec ID                    : S_TEXT/UTF8
Codec ID/Info               : UTF-8 Plain Text
Duration                    : 1 h 11 min
Bit rate                    : 1 b/s
Count of elements           : 42
Stream size                 : 853 Bytes (0%)
Title                       : Forced
Language                    : English
Default                     : Yes
Forced                      : Yes

Text #2
ID                          : 4
Format                      : UTF-8
Codec ID                    : S_TEXT/UTF8
Codec ID/Info               : UTF-8 Plain Text
Duration                    : 1 h 25 min
Bit rate                    : 69 b/s
Count of elements           : 1403
Stream size                 : 43.3 KiB (0%)
Language                    : English
Default                     : No
Forced                      : No

Text #3
ID                          : 5
Format                      : UTF-8
Codec ID                    : S_TEXT/UTF8
Codec ID/Info               : UTF-8 Plain Text
Duration                    : 1 h 26 min
Bit rate                    : 77 b/s
Count of elements           : 1584
Stream size                 : 49.6 KiB (0%)
Title                       : SDH
Language                    : English
Default                     : No
Forced                      : No


sPVeZzh.jpg


[video]https://www.youtube.com/watch?v=YDx2jGsgL4U[/video]


download_links.png


Για να κατεβάζεις αρχεία μεγέθους έως 510 ΜΒ κάντε απλά μια εγγραφή
Αγοράζοντας Λογαριασμό ή Κάνετε Ανανέωση
τον ήδη υπάρχων λογαριασμό που έχετε.!!

Πατήστε έπανω στον αντιστοίχο Host που επιθυμείτε !!!

24p9pg4.jpg

Hidden Content
You'll be able to see the hidden content once you reply to this topic.

21abivr.jpg

Share this post


Link to post
Share on other sites
sarriselias
Στις 24/11/2018 στις 5:28 ΜΜ, ScooterMan είπε

 

MILE 22 (2018)


vQ6p0VG.jpg


Ελληνικός Τίτλος: -
Είδος Ταινίας: Action , Adventure , Crime  
Σκηνοθέτης: Peter Berg
Σεναριογράφος: Lea Carpenter (screenplay by), Graham Roland (story by)  
Ηθοποιοί: Mark Wahlberg, Lauren Cohan, Iko Uwais
Πρεμιέρα: 16 August 2018 (Greece)
Μετάφραση: up2spi

 

IMDB.png

 

 

ΥπόθεΣη:


Ο Τζέιμς Σίλβα, μέλος της πιο πολύτιμης μονάδας της CIA, έχει ως αποστολή να ανακτήσει και να μεταφέρει στο Mile 22 έναν μυστηριώδη κρατούμενο αστυνομικό που γνωρίζει ευαίσθητες πληροφορίες που απειλούν τη ζωή του. Με τη βοήθεια της άκρως απόρρητης ομάδας τακτικών επιχειρήσεων, ο Σίλβα πρέπει να ολοκληρώσει την αποστολή με κάθε κόστος, προτού ο εχθρός κλείσει την πρόσβαση για το 22ο μίλι.

 

Τεχνικά Χαρακτηριστικά:

 

  Εμφάνιση κρυμμένων περιεχομένων

General
Format                      : Matroska
Format version              : Version 4
File size                   : 6.56 GiB
Duration                    : 1 h 34 min
Overall bit rate            : 9 913 kb/s
Encoded date                : UTC 2010-02-22 21:41:29
Writing application         : no_variable_data
Writing library             : no_variable_data
IsTruncated                 : Yes

Video
ID                          : 1
Format                      : AVC
Format/Info                 : Advanced Video Codec
Format profile              : [email protected]
Format settings             : CABAC / 5 Ref Frames
Format settings, CABAC      : Yes
Format settings, ReFrames   : 5 frames
Codec ID                    : V_MPEG4/ISO/AVC
Duration                    : 1 h 34 min
Bit rate                    : 9 277 kb/s
Width                       : 1 920 pixels
Height                      : 800 pixels
Display aspect ratio        : 2.40:1
Frame rate mode             : Constant
Frame rate                  : 23.976 (24000/1001) FPS
Color space                 : YUV
Chroma subsampling          : 4:2:0
Bit depth                   : 8 bits
Scan type                   : Progressive
Bits/(Pixel*Frame)          : 0.252
Stream size                 : 6.13 GiB (94%)
Writing library             : x264 core 157 r2935 545de2f
Encoding settings           : cabac=1 / ref=5 / deblock=1:-3:-3 / analyse=0x3:0x113 / me=umh / subme=8 / psy=1 / psy_rd=1.00:0.00 / mixed_ref=1 / me_range=32 / chroma_me=1 / trellis=2 / 8x8dct=1 / cqm=0 / deadzone=21,11 / fast_pskip=1 / chroma_qp_offset=-2 / threads=25 / lookahead_threads=4 / sliced_threads=0 / nr=0 / decimate=1 / interlaced=0 / bluray_compat=0 / constrained_intra=0 / bframes=3 / b_pyramid=2 / b_adapt=2 / b_bias=0 / direct=3 / weightb=1 / open_gop=0 / weightp=2 / keyint=240 / keyint_min=24 / scenecut=40 / intra_refresh=0 / rc_lookahead=50 / rc=2pass / mbtree=1 / bitrate=9277 / ratetol=1.0 / qcomp=0.60 / qpmin=0 / qpmax=69 / qpstep=4 / cplxblur=20.0 / qblur=0.5 / ip_ratio=1.40 / aq=3:0.80
Default                     : Yes
Forced                      : No

Audio
ID                          : 2
Format                      : AC-3
Format/Info                 : Audio Coding 3
Commercial name             : Dolby Digital
Codec ID                    : A_AC3
Duration                    : 1 h 34 min
Bit rate mode               : Constant
Bit rate                    : 640 kb/s
Channel(s)                  : 6 channels
Channel layout              : L R C LFE Ls Rs
Sampling rate               : 48.0 kHz
Frame rate                  : 31.250 FPS (1536 SPF)
Bit depth                   : 16 bits
Compression mode            : Lossy
Stream size                 : 433 MiB (6%)
Language                    : English
Service kind                : Complete Main
Default                     : Yes
Forced                      : No

Text #1
ID                          : 3
Format                      : UTF-8
Codec ID                    : S_TEXT/UTF8
Codec ID/Info               : UTF-8 Plain Text
Duration                    : 1 h 11 min
Bit rate                    : 1 b/s
Count of elements           : 42
Stream size                 : 853 Bytes (0%)
Title                       : Forced
Language                    : English
Default                     : Yes
Forced                      : Yes

Text #2
ID                          : 4
Format                      : UTF-8
Codec ID                    : S_TEXT/UTF8
Codec ID/Info               : UTF-8 Plain Text
Duration                    : 1 h 25 min
Bit rate                    : 69 b/s
Count of elements           : 1403
Stream size                 : 43.3 KiB (0%)
Language                    : English
Default                     : No
Forced                      : No

Text #3
ID                          : 5
Format                      : UTF-8
Codec ID                    : S_TEXT/UTF8
Codec ID/Info               : UTF-8 Plain Text
Duration                    : 1 h 26 min
Bit rate                    : 77 b/s
Count of elements           : 1584
Stream size                 : 49.6 KiB (0%)
Title                       : SDH
Language                    : English
Default                     : No
Forced                      : No

 

 

sPVeZzh.jpg

 

 

[video]https://www.youtube.com/watch?v=YDx2jGsgL4U[/video]

 

 

download_links.png

 

 

Για να κατεβάζεις αρχεία μεγέθους έως 510 ΜΒ κάντε απλά μια εγγραφή
Αγοράζοντας Λογαριασμό ή Κάνετε Ανανέωση
τον ήδη υπάρχων λογαριασμό που έχετε.!!

 

 

Πατήστε έπανω στον αντιστοίχο Host που επιθυμείτε !!!

 

 

24p9pg4.jpg

 

 

Hidden Content
You'll be able to see the hidden content once you reply to this topic.

 

 

21abivr.jpg

 

 

ευχαριστω

Share this post


Link to post
Share on other sites

Create an account or sign in to comment

You need to be a member in order to leave a comment

Create an account

Sign up for a new account in our community. It's easy!

Register a new account

Sign in

Already have an account? Sign in here.

Sign In Now
Sign in to follow this  

×