Jump to content
Sign in to follow this  
ScooterMan

οικογενειακή MARY POPPINS RETURNS (2018) 720p BRRip XViD AC3-XVID | ΜΕΤΑΓΛΩΤΙΣΜΕΝΟ

Recommended Posts

ScooterMan


e2DWcLk.jpg


gGH2Dbn.png?3

Ελληνικός Τίτλος: Η Μαίρη Πόπινς επιστρέφει
Είδος Ταινίας: Comedy, Family, Fantasy
Σκηνοθέτης: Rob Marshall
Σεναριογράφος: David Magee (screenplay by), David Magee (screen story by)
Ηθοποιοί: Emily Blunt, Lin-Manuel Miranda, Ben Whishaw
Πρεμιέρα: 20 December 2018 (Greece)
Eλληνικές Φωνές: Βάσια Χαχαροπούλου, Άρης Πλασκασοβίτης, Βασίλης Παπαστάθης, Άριελ Κωνσαντινίδη, Πέγκυ Μανωλά κ.α.
IMDb: https://www.imdb.com/title/tt5028340/


dbzzNXu.png?2

Βρισκόμαστε στο Λονδίνο την εποχή της Μεγάλης Ύφεσης κατά τα 1930. και ακολουθούμε τους μεγάλους πια Τζέιν και Μάικλ Μπανκς, που μαζί με τα τρία παιδιά του Μάικλ κι έπειτα από μια προσωπική απώλεια, δέχονται την αινιγματική επίσκεψη της Μαίρη Πόππινς. Με όπλο τις μοναδικές μαγικές της ικανότητες και με τη βοήθεια του φίλου της, Τζακ, θα βοηθήσει την οικογένεια να ανακαλύψει τη χαρά που έλειπε από τη ζωή της.

uoJL54u.png?2

General
Format                      : AVI
Format/Info                 : Audio Video Interleave
Format profile              : OpenDML
File size                   : 4.05 GiB
Duration                    : 2 h 10 min
Overall bit rate            : 4 446 kb/s
Writing library             : VirtualDub build 35491/release

Video
ID                          : 0
Format                      : MPEG-4 Visual
Format settings, BVOP       : No
Format settings, QPel       : No
Format settings, GMC        : No warppoints
Format settings, Matrix     : Default (H.263)
Codec ID                    : DX50
Codec ID/Hint               : DivX 5
Duration                    : 2 h 10 min
Bit rate                    : 3 797 kb/s
Width                       : 1 280 pixels
Height                      : 536 pixels
Display aspect ratio        : 2.40:1
Frame rate                  : 23.976 (24000/1001) FPS
Color space                 : YUV
Chroma subsampling          : 4:2:0
Bit depth                   : 8 bits
Scan type                   : Progressive
Compression mode            : Lossy
Bits/(Pixel*Frame)          : 0.231
Stream size                 : 3.46 GiB (85%)
Writing library             : DivX 6.8.5 (UTC 2009-08-20)

Audio
ID                          : 1
Format                      : AC-3
Format/Info                 : Audio Coding 3
Commercial name             : Dolby Digital
Codec ID                    : 2000
Duration                    : 2 h 10 min
Bit rate mode               : Constant
Bit rate                    : 640 kb/s
Channel(s)                  : 6 channels
Channel layout              : L R C LFE Ls Rs
Sampling rate               : 48.0 kHz
Frame rate                  : 31.250 FPS (1536 SPF)
Bit depth                   : 16 bits
Compression mode            : Lossy
Stream size                 : 597 MiB (14%)
Alignment                   : Aligned on interleaves
Interleave, duration        : 42  ms (1.00 video frame)
Interleave, preload duratio : 512  ms
Service kind                : Complete Main


ray8Gvl.jpg

 

 


24p9pg4.jpg


Hidden Content
You'll be able to see the hidden content once you reply to this topic.

esmb92.jpg


seywwp.jpg


Share this post


Link to post
Share on other sites
arhs

Η Μαίρη Πόπινς επιστρέφει

Share this post


Link to post
Share on other sites
betelgeuse

πολυ ωραια

Share this post


Link to post
Share on other sites

Create an account or sign in to comment

You need to be a member in order to leave a comment

Create an account

Sign up for a new account in our community. It's easy!

Register a new account

Sign in

Already have an account? Sign in here.

Sign In Now
Sign in to follow this  

×