Jump to content
loufjohn

ΙΣΤΟΡΙΚΑ ΠΡΟΣΚΥΝΗΜΑΤΑ ΚΩΝΣΤΑΝΤΙΝΟΥΠΟΛΗ Κ.Λ.Π (2019) ΕΡΤ1 WEBRip AVI ΕΩΣ 10 ΤΕΛΟΣ

Recommended Posts

loufjohn
Posted (edited)

ΙΣΤΟΡΙΚΑ ΠΡΟΣΚΥΝΗΜΑΤΑ ΚΩΝΣΤΑΝΤΙΝΟΥΠΟΛΗ Κ.Λ.Π (2019) ΕΡΤ1 WEBRip AVI

 

110IeGRl.jpg

 

IaXZX9E.png

 

Σειρά ιστορικών ντοκιμαντέρ που θα ολοκληρωθεί σε 10 45λεπτα επεισόδια παραγωγής WHΙTE FOX 2012-2016.
Εκατομμύρια επισκέπτες, από όλο τον κόσμο συγκεντρώνονται σε διάφορα μέρη με σημαντική ιστορία και πολιτισμό. Ερευνήσαμε και βρήκαμε τους κρυφούς ιερούς τόπους
και με τη βοήθεια των καλύτερων οδηγών καταγράψαμε κάθε δυνατή λεπτομέρεια. Η σειρά ταξιδεύει στην Ιερουσαλήμ, την Ελλάδα, τον Πόντο, την Κωνσταντινούπολη
και την Κύπρο … για να δει πού εξακολουθεί να συμβαίνει το θαύμα.

                                                                                                                                                     
Η Κωνσταντινούπολη ονομάστηκε Νέα Ρώμη, θεματοφύλακας του ελληνορωμαϊκού πολιτισμού, κέντρο του ορθόδοξου-χριστιανικού κόσμου, ένα σταυροδρόμι μεταξύ Ευρώπης
και Ασίας. Καταπληκτικά μοναστήρια όπως η μονή Ακατάληπτου Χριστού, η μονή του Χριστού Παντοκράτορα, της Παναγιάς της Παμμακαρίστου και του Σωτήρος και μνημεία
διηγούνται την ιστορία της πόλης.


6KTXyhc.png


BDIfUHxl.jpg

sNfCVWD.png


General
Complete name                  : ISTORIKA.EP.01.avi
Format                         : AVI
Format/Info                    : Audio Video Interleave
File size                      : 1.05 GiB
Duration                       : 44 min 26 s
Overall bit rate               : 3 374 kb/s

Video
ID                             : 0
Format                         : AVC
Format/Info                    : Advanced Video Codec
Format profile                 : [email protected]
Format settings, CABAC         : No
Format settings, RefFrames     : 1 frame
Codec ID                       : H264
Duration                       : 44 min 26 s
Bit rate                       : 3 228 kb/s
Width                          : 1 280 pixels
Height                         : 720 pixels
Display aspect ratio           : 16:9
Frame rate                     : 50.000 FPS
Color space                    : YUV
Chroma subsampling             : 4:2:0
Bit depth                      : 8 bits
Scan type                      : Progressive
Bits/(Pixel*Frame)             : 0.070
Stream size                    : 1.00 GiB (96%)
Writing library                : x264 core 146 r2538 121396c

Audio
ID                             : 1
Format                         : MPEG Audio
Format version                 : Version 1
Format profile                 : Layer 3
Codec ID                       : 55
Codec ID/Hint                  : MP3
Duration                       : 44 min 26 s
Bit rate mode                  : Constant
Bit rate                       : 128 kb/s
Channel(s)                     : 2 channels
Sampling rate                  : 44.1 kHz
Compression mode               : Lossy
Stream size                    : 40.7 MiB (4%)
Alignment                      : Aligned on interleaves
Interleave, duration           : 26  ms (1.31 video frame)

 

fxZhAEdl.png

 

2V9nbDH.png

 

eKydSyt.jpg

 


zPAQxlN.png

 

A3VtJrt.png


Hidden Content
You'll be able to see the hidden content once you reply to this topic.

 

Edited by loufjohn

Share this post


Link to post
Share on other sites
loufjohn

ΑΝΕΒΗΚΕ ΕΩΣ 04

Share this post


Link to post
Share on other sites
loufjohn

ΑΝΕΒΗΚΕ ΕΩΣ 06

Share this post


Link to post
Share on other sites
loufjohn

ΑΝΕΒΗΚΕ ΕΩΣ ΤΟ 10 ΤΕΛΕΥΤΑΙΟ ΕΠΕΙΣΟΔΙΟ

Share this post


Link to post
Share on other sites
Τάλως

ευχαριστώ   

 

Share this post


Link to post
Share on other sites
Τάλως

ευχαριστώ   

Share this post


Link to post
Share on other sites
Τάλως

ευχαριστώ   

Share this post


Link to post
Share on other sites
Τάλως

ευχαριστώ   

Share this post


Link to post
Share on other sites
Τάλως

ευχαριστώ   

Share this post


Link to post
Share on other sites
Τάλως

ευχαριστώ   

Share this post


Link to post
Share on other sites

Create an account or sign in to comment

You need to be a member in order to leave a comment

Create an account

Sign up for a new account in our community. It's easy!

Register a new account

Sign in

Already have an account? Sign in here.

Sign In Now

×