Sign in to follow this  
POPIKOSTAS

κοινωνικό ΔΟΞΑΠΑΤΡΗ (2016) HDTV-GrLTv

Recommended Posts

POPIKOSTAS

tPxmKYGh.jpg

ΔΟΞΑΠΑΤΡΗ (2016) HDTV-GrLTv

Κωμωδία του Θοδωρή Αθερίδη

Ερμηνεύουν: Θ. Αθερίδης, Π. Ζούνη, Ρ. Λουιζίδου, Λ. Ελευθερίου. Σκην.: Αθ. Σμαραγδή

Σκηνικά έργου: Αθανασία Σμαραγδή

Κοστούμια ηθοποιών: Άγης Παναγιώτου

Χορογραφίες ηθοποιών: Ελένη Γκασούκα

Σχεδιασμός Φωτισμών σκηνής: Χρήστος Τζιόγκας

Βοηθός Σκηνοθέτη: Αγνή Χιώτη

Ο Θ. Αθερίδης πιάνει το σφυγμό της σύγχρονης ελληνικής κοινωνίας και καταγράφει με χιούμορ την καθημερινότητα απλών πολιτών που ζουν Κολωνάκι μεριά.

Πρόκειται για ένα σύγχρονο ιλαρομελόδραμα, που διαδραματίζεται σε ένα σκηνικό σαν αυτό που βιώνουμε στη χώρα μας, σε μία πόλη σαν την Αθήνα, σε μία περιοχή σαν το Κολωνάκι, ανεβάζοντας στην σκηνή προβλήματα και θέματα σαν τα δικά μας.

Οι ήρωες, καθημερινοί άνθρωποι που τους συναντάμε ανάμεσά μας, έρχονται αντιμέτωποι και παλεύουν να διαχειριστούν τις προσωπικές τους αλήθειες.
    
[video]https://www.youtube.com/watch?v=yPAIn0MWUI4[/video]

50tJUFVh.jpg


ΤΕΧΝΙΚΑ ΧΑΡΑΚΤΗΡΙΣΤΙΚΑ


General
Complete name               : Doxapatri.2016.HDTV.x264-GrLTv.mkv
Format                      : Matroska
Format version              : Version 4
File size                   : 1.04 GiB
Duration                    : 1 h 58 min
Overall bit rate mode       : Variable
Overall bit rate            : 1 254 kb/s
Encoded date                : UTC 2019-04-19 16:43:04
Writing application         : TMPGEnc Video Mastering Works 6 Version. 6.2.9.36
Writing library             : TMPGEnc Video Mastering Works 6 Version. 6.2.9.36

Video
ID                          : 2
Format                      : AVC
Format/Info                 : Advanced Video Codec
Format profile              : [email protected]
Format settings             : CABAC / 4 Ref Frames
Format settings, CABAC      : Yes
Format settings, ReFrames   : 4 frames
Codec ID                    : V_MPEG4/ISO/AVC
Duration                    : 1 h 58 min
Bit rate mode               : Variable
Bit rate                    : 1 037 kb/s
Maximum bit rate            : 2 000 kb/s
Width                       : 720 pixels
Height                      : 404 pixels
Display aspect ratio        : 16:9
Frame rate mode             : Constant
Frame rate                  : 25.000 FPS
Standard                    : NTSC
Color space                 : YUV
Chroma subsampling          : 4:2:0
Bit depth                   : 8 bits
Scan type                   : Progressive
Bits/(Pixel*Frame)          : 0.143
Stream size                 : 881 MiB (83%)
Writing library             : x264 core 148
Encoding settings           : cabac=1 / ref=4 / deblock=1:0:0 / analyse=0x3:0x113 / me=hex / subme=4 / psy=1 / psy_rd=1.00:0.00 / mixed_ref=0 / me_range=16 / chroma_me=1 / trellis=1 / 8x8dct=1 / cqm=1 / deadzone=21,11 / fast_pskip=1 / chroma_qp_offset=0 / threads=12 / lookahead_threads=3 / sliced_threads=0 / slices=1 / nr=0 / decimate=1 / interlaced=0 / minigop=0 / stitchable=1 / constrained_intra=0 / bframes=3 / b_pyramid=0 / b_adapt=1 / b_bias=0 / direct=1 / weightb=1 / open_gop=0 / weightp=1 / keyint=250 / keyint_min=25 / scenecut=40 / intra_refresh=0 / rc_lookahead=20 / rc=crf / mbtree=1 / crf=20.0 / qcomp=0.60 / qpmin=1 / qpmax=69 / qpstep=4 / vbv_maxrate=2000 / vbv_bufsize=2000 / crf_max=51.0 / nal_hrd=vbr / filler=0 / ip_ratio=1.40 / aq=1:1.00
Default                     : Yes
Forced                      : No
Color range                 : Limited
Color primaries             : BT.601 NTSC
Transfer characteristics    : BT.601
Matrix coefficients         : BT.601

Audio
ID                          : 1
Format                      : AC-3
Format/Info                 : Audio Coding 3
Commercial name             : Dolby Digital
Codec ID                    : A_AC3
Duration                    : 1 h 58 min
Bit rate mode               : Constant
Bit rate                    : 192 kb/s
Channel(s)                  : 2 channels
Channel layout              : L R
Sampling rate               : 48.0 kHz
Frame rate                  : 31.250 FPS (1536 SPF)
Bit depth                   : 16 bits
Compression mode            : Lossy
Stream size                 : 163 MiB (15%)
Service kind                : Complete Main
Default                     : Yes
Forced                      : No


qO4Dexcl.png

Hidden Content
You'll be able to see the hidden content once you reply to this topic.

Share this post


Link to post
Share on other sites
mimikos70

ευχαριστω

Share this post


Link to post
Share on other sites

Create an account or sign in to comment

You need to be a member in order to leave a comment

Create an account

Sign up for a new account in our community. It's easy!

Register a new account

Sign in

Already have an account? Sign in here.

Sign In Now
Sign in to follow this