Sign in to follow this  
POPIKOSTAS

τρομου ALL THE BOYS LOVE MANDY LANE (2006) 1080p Bluray DTS x264-HDMaNiAcS | ΞΕΧΩΡΙΣΤΟΙ ΥΠΟΤΙΤΛΟΙ

Recommended Posts

POPIKOSTAS

Bj9FH8Ih.jpg

ALL THE BOYS LOVE MANDY LANE (2006) 1080p Bluray DTS x264-HDMaNiAcS | ΞΕΧΩΡΙΣΤΟΙ ΥΠΟΤΙΤΛΟΙ

ΚΑΤΗΓΟΡΙΑ: Horror
ΣΚΗΝΟΘΕΤΗΣ: Jonathan Levine
ΗΘΟΠΟΙΟΙ: Amber Heard, Anson Mount, Whitney Able
ΧΩΡΑ: USA
ΓΛΩΣΣΑ: English
ΕΤΟΣ ΠΡΟΒΟΛΗΣ: 6 September 2013 (USA)
ΔΙΑΡΚΕΙΑ: 1h 30min
ΧΡΩΜΑ: Color
ΥΠΟΤΙΤΛΟΙ: By doden

Μια ομάδα μαθητών προσκαλούν την Mandy Lane (Amber Heard), ένα συμπαθητικό κορίτσι που ομόρφυνε πολύ μετά το καλοκαίρι, σε ένα πάρτι που θα γίνει σε ένα απομονωμένο αγρόκτημα. Κι ενώ το πάρτι εξελίσσεται, ο αριθμός των καλεσμένων μειώνεται μυστηριωδώς, γιατί κάποιος κάνει τα πάντα για να μείνει μόνος μαζί της.

BDapAa7h.jpg

[video]https://www.youtube.com/watch?v=y9lA94P7shQ[/video]

https://www.imdb.com/title/tt0490076/

ΤΕΧΝΙΚΑ ΧΑΡΑΚΤΗΡΙΣΤΙΚΑ


General
Complete name               : All.The.Boys.Love.Mandy.Lane.2006.1080p.BluRay.DTS.x264-HDMaNiAcS.mkv
Format                      : Matroska
Format version              : Version 4
File size                   : 9.27 GiB
Duration                    : 1 h 30 min
Overall bit rate            : 14.7 Mb/s
Movie name                  : All.The.Boys.Love.Mandy.Lane.2006.1080p.BluRay.DTS.x264-HDMaNiAcS
Encoded date                : UTC 2016-03-27 07:49:16
Writing application         : mkvmerge v8.9.0 ('Father Daughter') 64bit
Writing library             : libebml v1.3.3 + libmatroska v1.4.4

Video
ID                          : 1
Format                      : AVC
Format/Info                 : Advanced Video Codec
Format profile              : [email protected]
Format settings             : CABAC / 5 Ref Frames
Format settings, CABAC      : Yes
Format settings, ReFrames   : 5 frames
Codec ID                    : V_MPEG4/ISO/AVC
Duration                    : 1 h 30 min
Bit rate                    : 13.2 Mb/s
Width                       : 1 920 pixels
Height                      : 800 pixels
Display aspect ratio        : 2.40:1
Frame rate mode             : Constant
Frame rate                  : 23.976 (24000/1001) FPS
Color space                 : YUV
Chroma subsampling          : 4:2:0
Bit depth                   : 8 bits
Scan type                   : Progressive
Bits/(Pixel*Frame)          : 0.357
Stream size                 : 8.32 GiB (90%)
Writing library             : x264 core 146 r2538 121396c
Encoding settings           : cabac=1 / ref=5 / deblock=1:-3:-3 / analyse=0x3:0x133 / me=umh / subme=11 / psy=1 / psy_rd=1.00:0.00 / mixed_ref=1 / me_range=32 / chroma_me=1 / trellis=2 / 8x8dct=1 / cqm=0 / deadzone=21,11 / fast_pskip=0 / chroma_qp_offset=-2 / threads=48 / lookahead_threads=6 / sliced_threads=0 / nr=0 / decimate=0 / interlaced=0 / bluray_compat=0 / constrained_intra=0 / bframes=12 / b_pyramid=2 / b_adapt=2 / b_bias=0 / direct=3 / weightb=1 / open_gop=0 / weightp=2 / keyint=240 / keyint_min=23 / scenecut=40 / intra_refresh=0 / rc_lookahead=150 / rc=crf / mbtree=0 / crf=17.3 / qcomp=0.60 / qpmin=0 / qpmax=69 / qpstep=4 / vbv_maxrate=62500 / vbv_bufsize=78125 / crf_max=0.0 / nal_hrd=none / filler=0 / ip_ratio=1.40 / pb_ratio=1.30 / aq=1:0.80
Default                     : Yes
Forced                      : No

Audio
ID                          : 2
Format                      : DTS
Format/Info                 : Digital Theater Systems
Codec ID                    : A_DTS
Duration                    : 1 h 30 min
Bit rate mode               : Constant
Bit rate                    : 1 509 kb/s
Channel(s)                  : 6 channels
Channel layout              : C L R Ls Rs LFE
Sampling rate               : 48.0 kHz
Frame rate                  : 93.750 FPS (512 SPF)
Bit depth                   : 24 bits
Compression mode            : Lossy
Stream size                 : 977 MiB (10%)
Language                    : English
Default                     : Yes
Forced                      : No

Text
ID                          : 3
Format                      : UTF-8
Codec ID                    : S_TEXT/UTF8
Codec ID/Info               : UTF-8 Plain Text
Duration                    : 1 h 23 min
Bit rate                    : 37 b/s
Count of elements           : 823
Stream size                 : 22.7 KiB (0%)
Title                       : English
Language                    : English
Default                     : Yes
Forced                      : No


qO4Dexcl.png

Hidden Content
You'll be able to see the hidden content once you reply to this topic.

Share this post


Link to post
Share on other sites

Create an account or sign in to comment

You need to be a member in order to leave a comment

Create an account

Sign up for a new account in our community. It's easy!

Register a new account

Sign in

Already have an account? Sign in here.

Sign In Now
Sign in to follow this