Jump to content
Sign in to follow this  
POPIKOSTAS

κωμωδία THE FORBIDDEN LEGEND SEX AND CHOPSTICKS 2 (2009) CHINESE BRRip XviD MP3-VXT - ΞΕΧΩΡΙΣΤΟΙ ΥΠΟΤΙΤΛΟΙ

Recommended Posts

POPIKOSTAS

9SA2X7rh.jpg

THE FORBIDDEN LEGEND SEX AND CHOPSTICKS 2 (2009) CHINESE BRRip XviD MP3-VXT - ΞΕΧΩΡΙΣΤΟΙ ΥΠΟΤΙΤΛΟΙ

Director: Man Kei Chin
Writer: Hermit Sage (screenplay)
Stars: Hikaru Wakana, Kaera Uehara, Serina Hayakawa
Υπότιτλοι: SATIROS

- Πλοκή:

Ο Σιμόν είναι ένα πλουσιόπαιδο που ακόμα δεν έχει χάσει την παρθενιά του, παρά την εκπαίδευση στην τέχνη της αγάπης από τον βιρτουόζο σε αυτά πατέρα του . Όλα αυτά αλλάζουν όταν συναντά την πρώτη αγάπη, την Βιολέτα. Παρόλο τις ασταμάτητες ερωτικές περιπτύξεις και τις άπειρες ερωτικές στάσεις που θα δοκιμάσουν μαζί, δεν καταφέρνουν να δημιουργήσουν κάτι μόνιμο μεταξύ τους. Πληγωμένος ο Σιμον θα αναζητήσει νέα σύντροφο, που θα την βρει στο πρόσωπο, της πρώην μοναχής και άπειρης στον ερώτα Μουν. Ο γάμος τους όμως δεν πάει καλά εξαιτίας της ακατάπαυστης επιθυμίας του Σιμον να πηγαίνει με άλλες γυναίκες. Ώσπου συναντάει την Λοτους που τον γοητεύει με τη φυσική ομορφιά της….

[video]https://www.youtube.com/watch?v=S_SD6ON8SWU[/video]

3npaOr2h.jpg

https://www.imdb.com/title/tt1465840/

ΤΕΧΝΙΚΑ ΧΑΡΑΚΤΗΡΙΣΤΙΚΑ


General
Complete name               : The Forbidden Legend Sex And Chopsticks 2 2009 CHINESE BRRip 720p.mp4
Format                      : MPEG-4
Format profile              : Base Media
Codec ID                    : isom (isom/iso2/avc1/mp41)
File size                   : 1.12 GiB
Duration                    : 1 h 32 min
Overall bit rate            : 1 731 kb/s
Movie name                  : The.Forbidden.Legend.Sex.And.Chopsticks.2.2009.CHINESE.720p.BluRay.H264.AAC-VXT
Encoded date                : UTC 2018-06-12 15:15:39
Tagged date                 : UTC 2018-06-12 15:15:39
Writing application         : Lavf57.83.100
Comment                     : The.Forbidden.Legend.Sex.And.Chopsticks.2.2009.CHINESE.720p.BluRay.H264.AAC-VXT

Video
ID                          : 1
Format                      : AVC
Format/Info                 : Advanced Video Codec
Format profile              : [email protected]
Format settings             : CABAC / 4 Ref Frames
Format settings, CABAC      : Yes
Format settings, ReFrames   : 4 frames
Codec ID                    : avc1
Codec ID/Info               : Advanced Video Coding
Duration                    : 1 h 32 min
Bit rate                    : 1 500 kb/s
Width                       : 1 280 pixels
Height                      : 720 pixels
Display aspect ratio        : 16:9
Frame rate mode             : Constant
Frame rate                  : 24.000 FPS
Color space                 : YUV
Chroma subsampling          : 4:2:0
Bit depth                   : 8 bits
Scan type                   : Progressive
Bits/(Pixel*Frame)          : 0.068
Stream size                 : 994 MiB (87%)
Writing library             : x264 core 152 r2851M ba24899
Encoding settings           : cabac=1 / ref=4 / deblock=1:-1:-1 / analyse=0x3:0x113 / me=umh / subme=9 / psy=1 / psy_rd=1.00:0.15 / mixed_ref=1 / me_range=24 / chroma_me=1 / trellis=2 / 8x8dct=1 / cqm=0 / deadzone=21,11 / fast_pskip=1 / chroma_qp_offset=-3 / threads=32 / lookahead_threads=4 / sliced_threads=0 / nr=0 / decimate=1 / interlaced=0 / bluray_compat=0 / constrained_intra=0 / bframes=3 / b_pyramid=2 / b_adapt=2 / b_bias=0 / direct=3 / weightb=1 / open_gop=0 / weightp=2 / keyint=250 / keyint_min=25 / scenecut=40 / intra_refresh=0 / rc_lookahead=50 / rc=2pass / mbtree=1 / bitrate=1500 / ratetol=1.0 / qcomp=0.60 / qpmin=0 / qpmax=69 / qpstep=4 / cplxblur=20.0 / qblur=0.5 / vbv_maxrate=31250 / vbv_bufsize=31250 / nal_hrd=none / filler=0 / ip_ratio=1.40 / aq=3:1.00
Encoded date                : UTC 2018-06-12 15:15:39
Tagged date                 : UTC 2018-06-12 15:15:39
Codec configuration box     : avcC

Audio
ID                          : 2
Format                      : AAC LC
Format/Info                 : Advanced Audio Codec Low Complexity
Codec ID                    : mp4a-40-2
Duration                    : 1 h 32 min
Bit rate mode               : Constant
Bit rate                    : 224 kb/s
Channel(s)                  : 6 channels
Channel layout              : C L R Ls Rs LFE
Sampling rate               : 48.0 kHz
Frame rate                  : 46.875 FPS (1024 SPF)
Compression mode            : Lossy
Stream size                 : 148 MiB (13%)
Language                    : Chinese
Default                     : Yes
Alternate group             : 1
Encoded date                : UTC 2018-06-12 15:15:39
Tagged date                 : UTC 2018-06-12 15:15:39


qO4Dexcl.png

Hidden Content
You'll be able to see the hidden content once you reply to this topic.

Share this post


Link to post
Share on other sites

Create an account or sign in to comment

You need to be a member in order to leave a comment

Create an account

Sign up for a new account in our community. It's easy!

Register a new account

Sign in

Already have an account? Sign in here.

Sign In Now
Sign in to follow this  

×