Sign in to follow this  
ScooterMan

MotoGp 2019 (ΑΓΩΝΕΣ OTE TV) | ΣΥΝΕΧΗΣ ΑΝΑΝΕΩΣΗ

Recommended Posts

ScooterMan
Posted (edited)

UYzSuvI.jpg

Τις ημερομηνίες των 19 αγώνων για το παγκόσμιο πρωτάθλημα Moto GP του 2019 έκανε γνωστό η διοργανώτρια αρχή του σπορ, η Dorna.

Το πρωτάθλημα ξεκίνησε από το Κατάρ στις 10 Μαρτίου, ενώ θα ρίξει «αυλαία» στη Βαλένθια, στις 17 Νοεμβρίου. Και φέτος η Ισπανία θα φιλοξενήσει τέσσερις αγώνες (Χερέθ, Βαρκελώνη, Αραγονία και Βαλένθια), ενώ η Ιταλία δύο (Μουτζέλο και Ρίμινι).

Μια σημαντική αλλαγή αφορά το μεγαλύτερο καλοκαιρινό διάλειμμα, μια απαίτηση όλων των εμπλεκομένων που υλοποιήθηκε. Το GP του Σάχσενρινγκ στη Γερμανία θα διεξαχθεί στις 7 Ιουλίου και αυτό στο Μπρνο είναι προγραμματισμένο για τις 4 Αυγούστου.

Η λεγόμενη “silly season” των MotoGP έχει πάντα το ενδιαφέρον της, καθώς σε αυτήν διαβάζουμε και μαθαίνουμε για τις διαπραγματεύσεις των ομάδων με διάφορους αναβάτες μέχρι να καταλήξουμε στο τελικό σχήμα που θα βλέπουμε να στήνεται στη σχάρα της εκκίνησης κάθε αγώνα της ερχόμενης σεζόν.

Σε αντίθεση με τις τελευταίες σεζόν, ωστόσο, η φετινή μεταγραφολογία είχε ένα επιπλέον ενδιαφέρον που τροφοδοτήθηκε πρωτίστως από τον Jorge Lorenzo, αλλά και τον Dani Pedrosa. Οι αναμονή για τις επόμενες κινήσεις των δύο Ισπανών ήταν άρρηκτα συνδεδεμένη με διάφορα εργοστάσια, μεγάλους χορηγούς και άλλους αναβάτες που μοιραία το μέλλον τους εξαρτιόταν πολύ από το πού θα κάτσει η μπίλια.

Πλέον βρισκόμαστε στην ευχάριστη θέση να έχουμε σχεδόν συμπληρωμένο το ρόστερ όλων των ομάδων MotoGP για το 2019, όπως αυτό ξεκαθάρισε μετά την πολύκροτη μετακόμιση του Lorenzo στη Honda και την αποχώρηση του Pedrosa από την ενεργό δράση.

Στον παρακάτω χάρτη τυπικά υπάρχουν μόνο δύο εκκρεμότητες, ο Tito Rabat στην Avintia και ο Takaaki Nakagami στην LCR. Αμφότεροι θεωρούνται σίγουροι στις θέσεις τους, απλώς δεν έχουν γίνει οι επίσημες ανακοινώσεις ακόμη από τις ομάδες τους – σε αντίθεση με όλους τους υπόλοιπους αναβάτες.

Τεχνικά Χαρακτηριστικά:

 

 

General
Format                      : Matroska
Format version              : Version 4
File size                   : 2.36 GiB
Duration                    : 1 h 21 min
Overall bit rate mode       : Variable
Overall bit rate            : 4 149 kb/s
Encoded date                : UTC 2019-03-10 18:58:54
Writing application         : TMPGEnc Video Mastering Works 6 Version. 6.2.9.36
Writing library             : TMPGEnc Video Mastering Works 6 Version. 6.2.9.36

Video
ID                          : 2
Format                      : AVC
Format/Info                 : Advanced Video Codec
Format profile              : [email protected]
Format settings             : CABAC / 5 Ref Frames
Format settings, CABAC      : Yes
Format settings, ReFrames   : 5 frames
Codec ID                    : V_MPEG4/ISO/AVC
Duration                    : 1 h 21 min
Bit rate mode               : Variable
Bit rate                    : 3 875 kb/s
Maximum bit rate            : 6 000 kb/s
Width                       : 1 280 pixels
Height                      : 720 pixels
Display aspect ratio        : 16:9
Frame rate mode             : Constant
Frame rate                  : 25.000 FPS
Standard                    : NTSC
Color space                 : YUV
Chroma subsampling          : 4:2:0
Bit depth                   : 8 bits
Scan type                   : Progressive
Bits/(Pixel*Frame)          : 0.168
Stream size                 : 2.20 GiB (93%)
Writing library             : x264 core 148
Encoding settings           : cabac=1 / ref=5 / deblock=1:0:0 / analyse=0x3:0x113 / me=hex / subme=4 / psy=1 / psy_rd=1.00:0.00 / mixed_ref=0 / me_range=16 / chroma_me=1 / trellis=1 / 8x8dct=1 / cqm=1 / deadzone=21,11 / fast_pskip=1 / chroma_qp_offset=0 / threads=12 / lookahead_threads=3 / sliced_threads=0 / slices=1 / nr=0 / decimate=1 / interlaced=0 / minigop=0 / stitchable=1 / constrained_intra=0 / bframes=3 / b_pyramid=0 / b_adapt=1 / b_bias=0 / direct=1 / weightb=1 / open_gop=0 / weightp=1 / keyint=250 / keyint_min=25 / scenecut=40 / intra_refresh=0 / rc_lookahead=20 / rc=crf / mbtree=1 / crf=20.0 / qcomp=0.60 / qpmin=1 / qpmax=69 / qpstep=4 / vbv_maxrate=6000 / vbv_bufsize=6000 / crf_max=51.0 / nal_hrd=vbr / filler=0 / ip_ratio=1.40 / aq=1:1.00
Default                     : Yes
Forced                      : No
Color range                 : Limited
Color primaries             : BT.709
Transfer characteristics    : BT.709
Matrix coefficients         : BT.709

Audio
ID                          : 1
Format                      : AC-3
Format/Info                 : Audio Coding 3
Commercial name             : Dolby Digital
Codec ID                    : A_AC3
Duration                    : 1 h 21 min
Bit rate mode               : Constant
Bit rate                    : 192 kb/s
Channel(s)                  : 2 channels
Channel layout              : L R
Sampling rate               : 48.0 kHz
Frame rate                  : 31.250 FPS (1536 SPF)
Bit depth                   : 16 bits
Compression mode            : Lossy
Stream size                 : 112 MiB (5%)
Service kind                : Complete Main
Default                     : Yes
Forced                      : No

 

MgKq9EU.png

 

l19oA8i.jpg

 

txw38Go.jpg

 

Ενα ΜΕΓΑΛΟ Ευχαριστώ την Ομάδα GrLTv για την δουλειά τους

EASYBYTEZ_LOGO.png

Hidden Content
You'll be able to see the hidden content once you reply to this topic.

 

esmb92.jpg

 

seywwp.jpg

 

Edited by ScooterMan
προστεθηκε ο 4ος Αγωνας

Share this post


Link to post
Share on other sites
ScooterMan

προστεθηκε ο 3ος Αγωνας

Share this post


Link to post
Share on other sites

Create an account or sign in to comment

You need to be a member in order to leave a comment

Create an account

Sign up for a new account in our community. It's easy!

Register a new account

Sign in

Already have an account? Sign in here.

Sign In Now
Sign in to follow this