Sign in to follow this  
loufjohn

κωμωδία ΑΛ ΤΣΑΝΤΙΡΙ ΝΙΟΥΖ ΚΑΙ ΑΛ ΣΙΧΤΙΡΙ (2019) OPENTV TVRip AVI ΕΩΣ 07

Recommended Posts

loufjohn
Posted (edited)

 

ΑΛ ΤΣΑΝΤΙΡΙ ΝΙΟΥΖ ΚΑΙ ΑΛ ΣΙΧΤΙΡΙ (2019) OPENTV TVRip AVI


y0F9mCvl.jpg


IaXZX9E.png


Γελάει καλύτερα όποιος γελάει στο Αλ Τσαντίρι!

Ο Λάκης Λαζόπουλος επιστρέφει δυναμικά μέσα από τη συχνότητα του OPEN με το πιο ανατρεπτικό και ανανεωμένο Αλ Τσαντίρι Νιουζ, σχολιάζοντας με
το μοναδικό σατιρικό του τρόπο την επικαιρότητα.
ΕπΊσης μαζί του το ΑΛ ΣΑΧΤΙΡΙ

Το Αλ Τσαντίρι Νιουζ, μια από τις μακροβιότερες και πιο πετυχημένες εκπομπές στην ελληνική τηλεόραση, θα έχει διάρκεια 3 ωρών και μια νέα ενότητα-έκπληξη,
το μουσικό Αλ Σιχτίρι.

Έρχεται το Αλ Τσαντίρι Νιουζ και θα γίνει της… Τρίτης!

 

6KTXyhc.png


YdqoDMVl.jpg

sNfCVWD.png

 


General
Complete name                  : AL.TS.NIEWS.EP.01.avi
Format                         : AVI
Format/Info                    : Audio Video Interleave
Format profile                 : OpenDML
File size                      : 1.24 GiB
Duration                       : 1 h 22 min
Overall bit rate               : 2 147 kb/s
Writing application            : Lavf56.15.102

Video
ID                             : 0
Format                         : AVC
Format/Info                    : Advanced Video Codec
Format profile                 : [email protected]
Format settings                : 2 Ref Frames
Format settings, CABAC         : No
Format settings, ReFrames      : 2 frames
Codec ID                       : H264
Duration                       : 1 h 22 min
Bit rate                       : 2 000 kb/s
Width                          : 1 024 pixels
Height                         : 576 pixels
Display aspect ratio           : 16:9
Frame rate mode                : Variable
Frame rate                     : 25.000 FPS
Color space                    : YUV
Chroma subsampling             : 4:2:0
Bit depth                      : 8 bits
Scan type                      : Progressive
Bits/(Pixel*Frame)             : 0.136
Stream size                    : 1.16 GiB (93%)
Writing library                : x264 core 142

Audio
ID                             : 1
Format                         : MPEG Audio
Format version                 : Version 1
Format profile                 : Layer 3
Format settings                : Joint stereo / MS Stereo
Codec ID                       : 55
Codec ID/Hint                  : MP3
Duration                       : 1 h 22 min
Bit rate mode                  : Constant
Bit rate                       : 128 kb/s
Channel(s)                     : 2 channels
Sampling rate                  : 44.1 kHz
Compression mode               : Lossy
Stream size                    : 75.6 MiB (6%)
Alignment                      : Aligned on interleaves
Interleave, duration           : 26  ms (0.65 video frame)
Interleave, preload duration   : 26  ms

 
 

2V9nbDH.png

eKydSyt.jpg


zPAQxlN.png

 

A3VtJrt.png

Hidden Content
You'll be able to see the hidden content once you reply to this topic.

 

Edited by loufjohn

Share this post


Link to post
Share on other sites
loufjohn

o.k ta links

Share this post


Link to post
Share on other sites
loufjohn

ΑΝΕΒΗΚΕ ΕΩΣ ΤΟ 02

Share this post


Link to post
Share on other sites
loufjohn

ΑΝΕΒΗΚΕ ΕΩΣ ΤΟ 03

Share this post


Link to post
Share on other sites
mixalis

euxaristo

Share this post


Link to post
Share on other sites
loufjohn

ΑΝΕΒΗΚΕ ΕΩΣ 04

Share this post


Link to post
Share on other sites
Amfipolis

ευχαριστώ

Share this post


Link to post
Share on other sites
loufjohn

ΑΝΕΒΗΚΕ ΕΩΣ 06 ΚΑΙ 05 ΑΝΤΙΣΤΟΙΧΑ

Share this post


Link to post
Share on other sites
loufjohn

ΑΝΕΒΗΚΕ ΤΟ 07 ΚΑΙ 06 ΑΝΤΙΣΤΟΙΧΑ

Share this post


Link to post
Share on other sites

Create an account or sign in to comment

You need to be a member in order to leave a comment

Create an account

Sign up for a new account in our community. It's easy!

Register a new account

Sign in

Already have an account? Sign in here.

Sign In Now
Sign in to follow this