Jump to content
Sign in to follow this  
POPIKOSTAS

κωμωδία ΜΙΜΗΣ ΦΩΤΟΠΟΥΛΟΣ ΦΙΛΜΟΓΡΑΦΙΑ

Recommended Posts

POPIKOSTAS

daqZRhNh.jpg

ΜΙΜΗΣ ΦΩΤΟΠΟΥΛΟΣ ΦΙΛΜΟΓΡΑΦΙΑ

Ο Μίμης (Δημήτρης) Φωτόπουλος του Νικολάου (20 Απριλίου 1913 - 29 Οκτωβρίου 1986) υπήρξε ένα από τα μεγαλύτερα ονόματα του ελληνικού κινηματογράφου.

Γεννήθηκε στη Ζάτουνα Γορτυνίας και ήταν γιος του Νικολάου Φωτόπουλου από τη Ζάτουνα της Αρκαδίας και της Άννας Παπαδοπούλου από το Αίγιο.
Σπούδασε στη Δραματική Σχολή του Εθνικού Θεάτρου και παρακολούθησε μαθήματα της Φιλοσοφικής Σχολής του Πανεπιστημίου Αθηνών (μέχρι το β' έτος, 1933).

Εργάσθηκε ως ηθοποιός - θιασάρχης από το 1952 και σκηνοθέτης από το 1960.
Έγραψε 7 βιβλία (4 ποιητικές συλλογές: «Μπουλούκια» 1940, «Ημιτόνια» 1960, «Σκληρά τριολέτα» 1961 και ο «θάνατος των ημερών» 1976) και 3 αυτοβιογραφικά («25 χρόνια θέατρο» 1958, «Το ποτάμι της ζωής μου» και «Ελ Ντάμπα - Όμηρος των Εγγλέζων» 1965) και 2 θεατρικά έργα («Ένα κορίτσι στο παράθυρο» 1966 και «Πελοπίδας ο καλός πολίτης» 1976) που έχουν παιχτεί. Οργάνωσε 5 εκθέσεις ζωγραφικής (ιδιότυπης τεχνικής κολάζ γραμματοσήμων).

Υπήρξε μέλος του Δ.Σ. του Σωματείου Ελλήνων Ηθοποιών, μέλος της Πανελλήνιας Ένωσης Ελευθέρου Θεάτρου και Πρόεδρος του Δ. Σ. Άρματος Θέσπιδος.
Έκανε θεατρικές περιοδείες στην Αμερική, Γερμανία, Αίγυπτο, Τουρκία και Κύπρο.
Τιμήθηκε με τα παράσημα Χρυσό Σταυρό του Γεωργίου Α' και Σταυρό του Αποστόλου Μάρκου Πατριαρχείου Αλεξανδρείας.

Ο Μίμης Φωτόπουλος ασχολήθηκε για πολλά χρόνια και με αξιοσημείωτη επιτυχία με την τεχνική του κολάζ και μάλιστα με έναν πολύ ιδιαίτερο τρόπο, τη χρήση «ψηφίδων» από γραμματόσημα με τις οποίες έφτιαξε μεγάλο αριθμό ζωγραφικών πινάκων.

Σημαντικότερες συμμετοχές του ήταν στο «Βυσσινόκηπο» του Τσέχωφ, στις «Αγριόπαπιες» του Ίψεν στο θέατρο Τέχνης, στο «Όνειρο καλοκαιρινής νύκτας» του Σαίξπηρ στο θέατρο του Βασιλικού Κήπου (1956) και για πολλά χρόνια συνεργάστηκε με τον Ντίνο Ηλιόπουλο.
Εμφανίστηκε σε δεκάδες κωμωδίες φάρσες αλλά και δραματικούς ρόλους.
Χαρακτηριστικές ερμηνείες στο «Ο καλός στρατιώτης Σβέικ» και «Δον Καμίλλο».
Επίσης σε περισσότερες από 100 ταινίες με κωμικούς ρόλους όπως «Η Κάλπικη λίρα», «Λατέρνα, φτώχεια και φιλότιμο», «Τα κίτρινα γάντια», «Το σωφεράκι», «Ο Εμίρης και ο Κακομοίρης» (στην ταινία αυτή η Ελένη Προκοπίου αποτέλεσε την κινηματογραφική του κόρη), «Ο γρουσούζης» κ.ά.

Χαρακτηριστική του κινηματογραφική ατάκα: «Και μετά θα κάααθεσαι!»

Όσες ταινίες, γράφουν BY.POPIKOSTAS, είναι δικά μου rip, με εξαίρεση την ταινία "ΝΑ ΖΗΣΟΥΝ ΤΑ ΦΤΩΧΟΠΑΙΔΑ" που είναι του filos film και το έγραψα κατά λάθος. Για όσες δεν είναι δικά μου rip, τα ευχαριστώ πάνε στους encoders.

p95a3KOh.jpg
8LdTi1oh.jpg

ΤΕΧΝΙΚΑ ΧΑΡΑΚΤΗΡΙΣΤΙΚΑ


General
Complete name                            : MIMHS.1955-LATERNA.FTWXEIA.KAI.FILOTIMO.BY.POPIKOSTAS.mkv
Format                                   : Matroska
Format version                           : Version 4 / Version 2
File size                                : 1.49 GiB
Duration                                 : 1h 26mn
Overall bit rate                         : 2 474 Kbps
Movie name                               : 8791 - Laterna, Ftwxeia, Filoti
Writing application                      : Lavf55.21.100
Writing library                          : Lavf55.21.100

Video
ID                                       : 1
Format                                   : AVC
Format/Info                              : Advanced Video Codec
Format profile                           : [email protected]
Format settings, CABAC                   : Yes
Format settings, ReFrames                : 5 frames
Codec ID                                 : V_MPEG4/ISO/AVC
Duration                                 : 1h 26mn
Bit rate                                 : 2 233 Kbps
Width                                    : 720 pixels
Height                                   : 576 pixels
Display aspect ratio                     : 4:3
Frame rate mode                          : Variable
Frame rate                               : 25.000 fps
Standard                                 : PAL
Color space                              : YUV
Chroma subsampling                       : 4:2:0
Bit depth                                : 8 bits
Scan type                                : Progressive
Bits/(Pixel*Frame)                       : 0.215
Stream size                              : 1.34 GiB (90%)
Writing library                          : x264 core 140 r2377 1ca7bb9
Encoding settings                        : cabac=1 / ref=5 / deblock=1:0:0 / analyse=0x3:0x113 / me=umh / subme=8 / psy=1 / psy_rd=1.00:0.00 / mixed_ref=1 / me_range=16 / chroma_me=1 / trellis=1 / 8x8dct=1 / cqm=0 / deadzone=21,11 / fast_pskip=1 / chroma_qp_offset=-2 / threads=6 / lookahead_threads=1 / sliced_threads=0 / nr=0 / decimate=1 / interlaced=0 / bluray_compat=0 / constrained_intra=0 / bframes=3 / b_pyramid=2 / b_adapt=2 / b_bias=0 / direct=3 / weightb=1 / open_gop=0 / weightp=2 / keyint=250 / keyint_min=25 / scenecut=40 / intra_refresh=0 / rc_lookahead=50 / rc=crf / mbtree=1 / crf=18.0 / qcomp=0.60 / qpmin=0 / qpmax=69 / qpstep=4 / vbv_maxrate=2300 / vbv_bufsize=2000 / crf_max=0.0 / nal_hrd=none / filler=0 / ip_ratio=1.40 / aq=1:1.00
Language                                 : English
Default                                  : No
Forced                                   : No

Audio
ID                                       : 2
Format                                   : AC-3
Format/Info                              : Audio Coding 3
Mode extension                           : CM (complete main)
Codec ID                                 : A_AC3
Duration                                 : 1h 26mn
Bit rate mode                            : Constant
Bit rate                                 : 192 Kbps
Channel(s)                               : 2 channels
Channel positions                        : Front: L R
Sampling rate                            : 48.0 KHz
Bit depth                                : 16 bits
Compression mode                         : Lossy
Stream size                              : 118 MiB (8%)
Title                                    : Stereo
Language                                 : Greek
Default                                  : Yes
Forced                                   : No


qO4Dexcl.png

Hidden Content
You'll be able to see the hidden content once you reply to this topic.

Share this post


Link to post
Share on other sites
pali

WWWWWWWWWWWWWWWWWWWWWWWWWWWWWW

Share this post


Link to post
Share on other sites

Create an account or sign in to comment

You need to be a member in order to leave a comment

Create an account

Sign up for a new account in our community. It's easy!

Register a new account

Sign in

Already have an account? Sign in here.

Sign In Now
Sign in to follow this  

×