Jump to content

Search the Community

Showing results for tags 'εως 42'.



More search options

  • Search By Tags

    Type tags separated by commas.
  • Search By Author

Content Type


Forums

  • ΓΕΝΙΚΑ - GENERAL
    • Γενικές Ανακοινώσεις - General Announcements
    • Κανόνες - Rules
    • Βοηθητικοί Οδηγοί
    • Συζήτηση - Discussion
    • Συστηθείτε - Introduse yourself
    • Γαστρονομικές Οπτασίες - Recipes
    • Το γέλιο είναι μεταδοτικό... Μεταδώστε το!!! - Fun Place
    • Υγεία
  • ΕΛΛΗΝΙΚΗ ΜΟΥΣΙΚΗ - GREEK MUSIC
    • Νέα CDs 2016-2020
    • Promos
    • Single Remix
    • Ελληνικά Ψηφιακά Cds - Greek Digital Cds
    • Ελληνικά CDs 2010-2015
    • Παλαιότερα Ελληνικά CDs μέχρι το 2009
    • Παραδοσιακά CDs
    • Ρεμπέτικο Στέκι
    • Δίσκοι Βινυλίου 33 Στροφών
    • Δισκάκια 45 στροφών και γραμμοφώνου
    • Επανεκδόσεις
    • Συλλογές
    • Box Set Collections
    • Ελληνικά Mix - Remix
    • Παιδικά Ελληνικά CDs
    • Δισκογραφίες
  • ΞΕΝΗ ΜΟΥΣΙΚΗ - INTERNATIONAL MUSIC
    • Νέα CDs 2016-2020
    • Promos
    • Παλαιότερα Ξένα CDs
    • Συλλογές
    • Box Set Collections
    • Ξένα Mix - Remix
    • Παιδικά Ξένα CDs
    • Δισκογραφίες
  • ΜΟΥΣΙΚΗ ΣΕ ΠΟΙΟΤΗΤΑ LOSSLESS
    • Ελληνικά CDs
    • Ξένα CDs
  • ΤΑΙΝΙΕΣ - MOVIES
    • Ξένες Ταινίες με ελληνικούς υπότιτλους 2016 - 2020
    • Ελληνικές Ταινίες - Greek Movies
    • Παλαιότερες Κλασσικές Ξένες Ταινίες (μέχρι το 1990)
    • Ξένες Ταινίες με ελληνικούς υπότιτλους 1991 - 2015
    • Ξένες Ταινίες HD 720p BRRIP Avi
    • Ξένες Ταινίες BluRay
    • Ξένες Ταινίες Micro HD
    • WWE SmackDown
    • Φιλμογραφίες
    • Παιδικές Ταινίες
    • Ντοκιμαντέρ
    • Θεατρικές Παραστάσεις
  • ΕΠΟΧΙΑΚΑ
    • Χριστούγεννα
    • Πάσχα
    • Αποκριές
    • Αγίου Βαλεντίνου
  • ΤΗΛΕΟΠΤΙΚΟ ΠΡΟΓΡΑΜΜΑ
    • Ελληνικές Σειρές
    • Ξένες Σειρές
    • Τούρκικες Σειρές
    • Τηλεοπτικές Eκπομπές
  • ΠΑΙΧΝΙΔΙΑ - GAMES
    • Pc Games
    • Play Station Games
    • XBOX
    • Mac Games
  • ΕΦΑΡΜΟΓΕΣ - ΠΡΟΓΡΑΜΜΑΤΑ
    • Λειτουργικά Προγράμματα
    • Προγράμματα Προστασίας
    • Εργαλεία Συστήματος
    • Εργαλεία Πολυμέσων
    • Portable Προγράμματα
    • Προγράμματα για Mac
    • Internet Tools
    • Tutorials
  • E-BOOKS
    • Έλληνες Συγγραφείς
    • Ξένοι Συγγραφείς
    • Κόμικς
    • Περιοδικά
    • Audio Books
  • ΑΝΑΖΗΤΗΣΗ
    • Μουσική
    • Ταινίες - Σειρές
    • Παιχνίδια
    • Προγράμματα
    • E-Books
  • V.I.P

Find results in...

Find results that contain...


Date Created

  • Start

    End


Last Updated

  • Start

    End


Filter by number of...

Found 1 result

  1. LA PASTA POMILΩRI Γ΄ΚΥΚΛΟΣ (2019-) ANT1CY WEBRip Αρχίζει ο Γ΄ΚΥΚΛΟΣ Πόσοι γνωρίζουν ότι η ντομάτα ονομάζεται και «φρούτο του έρωτα» …ναι αλήθεια … και σε αυτή την γλυκιά σειρά με αυτό θα ασχοληθούμε ..με αυτό το ολοκόκκινο φρούτο του πάθους αλλά και με τον .. έρωτα .. Ας μπούμε σε κάποια γειτονιά λοιπόν … φτωχική ,γραφική γειτονιά … που χαρούμενοι άνθρωποι εκεί έχουν πάντα γιορτή και μοιράζουνε φιλιά … που έχει νέες αλλά και γριές που για τον έρωτα μιλούν και άσε που μέρα νύχτα τραγουδούν κλπ κλπ… τι θα γίνει όμως όταν κάποιοι έρθουν για τους πάρουν αυτό τον χαρούμενο κόσμο … Τι θα γίνει; … αντί άσπρες κορδέλες που τα κορίτσια φοράνε θα τα βάψουνε μαύρα και θα σβήσουν το χαμόγελο … ή θα κάνουν τα πάντα για την γειτονιά τη γη και την ζωή τους … ; πάμε να το μάθουμε μαζί τους … πάμε να ζήσουμε εκεί που όλοι κατά βάθος θα θέλαμε … σε μια τέτοια χωριού γειτονιά … πάμε να καλλιεργήσουμε μαζί τους το φρούτο του έρωτα και να φτιάξουμε την ωραιότερη μακαρονάδα με κόκκινη σάλτσα .. la pasta pomilώri λοιπόν … και καλή όρεξη … Ηθοποιοί: Ηράκλης Γιωργαλλής, Κώστας Καζάκας, Μαρούσα Αβρααμίδου, Βαλεντίνα Σοφοκλέους, Λιάνα Χαλκιά, Λώρης Λοϊζίδης, Μάριος Δημητρίου, Φώτης Γιωργίδης, Πανίκος Πιλάλης, Μαριάννα Σάντη, Λουκία Πρωτοπαπά, Μαρία Μαστρίδου, Βίκτωρ Νικολαϊδης, Κωνσταντίνος Σωκράτους, Βιντζέσο Λορούσσο. General Complete name :LA.PASTA.S03.EP.01.avi Format : AVI Format/Info : Audio Video Interleave File size : 1.15 GiB Duration : 43 min 21 s Overall bit rate : 3 800 kb/s Video #0 ID : 0 Format : AVC Format/Info : Advanced Video Codec Format profile : [email protected] Format settings : 1 Ref Frames Format settings, CABAC : No Format settings, ReFrames : 1 frame Codec ID : H264 Duration : 43 min 21 s Bit rate : 3 658 kb/s Width : 1 280 pixels Height : 720 pixels Display aspect ratio : 16:9 Frame rate : 25.000 FPS Color space : YUV Chroma subsampling : 4:2:0 Bit depth : 8 bits Scan type : Progressive Bits/(Pixel*Frame) : 0.159 Stream size : 1.11 GiB (96%) Writing library : x264 core 146 r2538 121396c Audio #1 ID : 1 Format : MPEG Audio Format version : Version 1 Format profile : Layer 3 Codec ID : 55 Codec ID/Hint : MP3 Duration : 43 min 21 s Bit rate mode : Constant Bit rate : 128 kb/s Channel(s) : 2 channels Sampling rate : 48.0 kHz Compression mode : Lossy Stream size : 39.7 MiB (3%) Alignment : Aligned on interleaves Interleave, duration : 24 ms (0.60 video frame)
×