Jump to content

Search the Community

Showing results for tags 'μιούζικαλ'.



More search options

  • Search By Tags

    Type tags separated by commas.
  • Search By Author

Content Type


Forums

  • ΓΕΝΙΚΑ - GENERAL
    • Γενικές Ανακοινώσεις - General Announcements
    • Κανόνες - Rules
    • Βοηθητικοί Οδηγοί
    • Συζήτηση - Discussion
    • Συστηθείτε - Introduse yourself
    • Γαστρονομικές Οπτασίες - Recipes
    • Το γέλιο είναι μεταδοτικό... Μεταδώστε το!!! - Fun Place
    • Υγεία
  • ΕΛΛΗΝΙΚΗ ΜΟΥΣΙΚΗ - GREEK MUSIC
    • Νέα CDs 2016-2019
    • Promos
    • Single Remix
    • Ελληνικά Ψηφιακά Cds - Greek Digital Cds
    • Ελληνικά CDs 2010-2015
    • Παλαιότερα Ελληνικά CDs μέχρι το 2009
    • Παραδοσιακά CDs
    • Ρεμπέτικο Στέκι
    • Δισκάκια 45 στροφών και γραμμοφώνου
    • Επανεκδόσεις
    • Συλλογές
    • Box Set Collections
    • Ελληνικά Mix - Remix
    • Παιδικά Ελληνικά CDs
    • Δισκογραφίες
  • ΞΕΝΗ ΜΟΥΣΙΚΗ - INTERNATIONAL MUSIC
    • Νέα CDs 2016-2019
    • Παλαιότερα Ξένα CDs
    • Συλλογές
    • Box Set Collections
    • Ξένα Mix - Remix
    • Παιδικά Ξένα CDs
    • Δισκογραφίες
  • ΜΟΥΣΙΚΗ ΣΕ ΠΟΙΟΤΗΤΑ LOSSLESS
    • Ελληνικά CDs
    • Ξένα CDs
  • ΤΑΙΝΙΕΣ - MOVIES
    • Ελληνικές Ταινίες - Greek Movies
    • Ξένες Ταινίες με ελληνικούς υπότιτλους 2016 - 2019
    • Παλαιότερες Κλασσικές Ξένες Ταινίες (μέχρι το 1990)
    • Ξένες Ταινίες με ελληνικούς υπότιτλους 1991 - 2015
    • Ξένες Ταινίες HD 720p BRRIP Avi
    • Ξένες Ταινίες BluRay
    • Ξένες Ταινίες Micro HD
    • Φιλμογραφίες
    • Παιδικές Ταινίες
    • Ντοκιμαντέρ
    • Θεατρικές Παραστάσεις
  • ΕΠΟΧΙΑΚΑ
    • Χριστούγεννα
    • Πάσχα
    • Αποκριές
    • Αγίου Βαλεντίνου
  • ΤΗΛΕΟΠΤΙΚΟ ΠΡΟΓΡΑΜΜΑ
    • Ελληνικές Σειρές
    • Ξένες Σειρές
    • Τούρκικες Σειρές
    • Τηλεοπτικές Eκπομπές
  • ΠΑΙΧΝΙΔΙΑ - GAMES
    • Pc Games
    • Play Station Games
    • XBOX
    • Mac Games
  • ΕΦΑΡΜΟΓΕΣ - ΠΡΟΓΡΑΜΜΑΤΑ
    • Λειτουργικά Προγράμματα
    • Προγράμματα Προστασίας
    • Εργαλεία Συστήματος
    • Εργαλεία Πολυμέσων
    • Portable Προγράμματα
    • Προγράμματα για Mac
    • Internet Tools
    • Tutorials
  • E-BOOKS
    • Έλληνες Συγγραφείς
    • Ξένοι Συγγραφείς
    • Κόμικς
    • Περιοδικά
    • Audio Books
  • ΑΝΑΖΗΤΗΣΗ
    • Μουσική
    • Ταινίες - Σειρές
    • Παιχνίδια
    • Προγράμματα
    • E-Books
  • V.I.P

Find results in...

Find results that contain...


Date Created

  • Start

    End


Last Updated

  • Start

    End


Filter by number of...

Found 15 results

  1. THE VOICE GREECE Δ' ΣAIZON (2019) SKAI WEBRip HD AVI The Voice of Greece, το απόλυτο μουσικό show στον ΣΚΑΪ ανανεωμένο, φρέσκο, γεμάτο ενέργεια και ωραίες φωνές ήρθε για να μαγέψει το τηλεοπτικό κοινό. Οι τέσσερις κριτές είναι έτοιμοι να πάρουν τη θέση τους στις καρέκλες. Mε χαρά υποδεχόμαστε την καταξιωμένη ερμηνεύτρια Ελεωνόρα Ζουγανέλη που έρχεται να προστεθεί στην ήδη αγαπημένη παρέα των Πάνου Μουζουράκη, Έλενας Παπαρίζου, και Σάκη Ρουβά. Παρουσιαστές του δημοφιλούς σόου ο Γιώργος Λιανός και η Χριστίνα Μπόμπα, που με το δικό τους μοναδικό στυλ θα υποδέχονται τους coaches και θα στηρίζουν τους υποψήφιους τραγουδιστές. Οι τέσσερεις coaches είναι έτοιμοι να πατήσουν το «μαγικό» κουμπί και να διεκδικήσουν την καλύτερη φωνή για την ομάδα τους. General Complete name :VOICE.S04.EP.01.avi Format : AVI Format/Info : Audio Video Interleave Format profile : OpenDML File size : 1.72 GiB Duration : 2 h 30 min Overall bit rate : 1 638 kb/s Writing application : Lavf56.15.102 Video #0 ID : 0 Format : AVC Format/Info : Advanced Video Codec Format profile : [email protected] Format settings : 2 Ref Frames Format settings, CABAC : No Format settings, ReFrames : 2 frames Codec ID : H264 Duration : 2 h 30 min Bit rate : 1 500 kb/s Width : 1 280 pixels Height : 720 pixels Display aspect ratio : 16:9 Frame rate mode : Variable Frame rate : 25.000 FPS Color space : YUV Chroma subsampling : 4:2:0 Bit depth : 8 bits Scan type : Progressive Bits/(Pixel*Frame) : 0.065 Stream size : 1.57 GiB (91%) Writing library : x264 core 142 Audio #1 ID : 1 Format : MPEG Audio Format version : Version 1 Format profile : Layer 3 Format settings : Joint stereo / MS Stereo Codec ID : 55 Codec ID/Hint : MP3 Duration : 2 h 30 min Bit rate mode : Constant Bit rate : 128 kb/s Channel(s) : 2 channels Sampling rate : 44.1 kHz Compression mode : Lossy Stream size : 137 MiB (8%) Alignment : Aligned on interleaves Interleave, duration : 26 ms (0.65 video frame) Interleave, preload duration : 26 ms Writing library : LAME3.98.4U9ΔCΜJ / Μ Βοηθήστε εντελώς ανέξοδα τους uploaders, ανανεώνοντας τακτικά την ip σας, με 1 απλή επανεκκίνηση του router.
  2. THE FINAL FOUR (2019) ANT1 TV WEBRip H AVI Το «The Final Four», που έκανε μεγάλη επιτυχία σε όσες χώρες προβλήθηκε σημειώνοντας επιδόσεις – ρεκόρ στους πίνακες τηλεθέασης, έρχεται και στην Ελλάδα, με παρουσιάστρια τη Ζέτα Μακρυπούλια, για να ανατρέψει ό,τι ξέραμε μέχρι τώρα για τα μουσικά talent shows. O Μιχάλης Χατζηγιάννης, η Ελένη Φουρέιρα και ο Μιχάλης Κουινέλης (Stavento) παίρνουν τη θέση του κριτή και κάνουν ακόμη πιο ξεχωριστό, το απρόβλεπτο και ανατρεπτικό «The Final Four». Η μεγαλύτερη μουσική μάχη ξεκινά από τον τελικό και οι Final Four βρίσκονται ήδη στη σκηνή για να παλέψουν να υπερασπιστούν και να κρατήσουν τη θέση τους. Κάθε εβδομάδα θα βρίσκονται απέναντί τους, οι διεκδικητές που με το πείσμα και το ταλέντο τους θα προσπαθήσουν να τους εκθρονίσουν και να πάρουν τη θέση τους στο «TheFinalFour». General Complete name :THE.FINAL.FOUR.EP.01.avi Format : AVI Format/Info : Audio Video Interleave Format profile : OpenDML File size : 2.07 GiB Duration : 2 h 18 min Overall bit rate : 2 136 kb/s Writing application : Lavf56.15.102 Video #0 ID : 0 Format : AVC Format/Info : Advanced Video Codec Format profile : [email protected] Format settings : 2 Ref Frames Format settings, CABAC : No Format settings, ReFrames : 2 frames Codec ID : H264 Duration : 2 h 18 min Bit rate : 2 000 kb/s Width : 640 pixels Height : 360 pixels Display aspect ratio : 16:9 Frame rate mode : Variable Frame rate : 25.000 FPS Color space : YUV Chroma subsampling : 4:2:0 Bit depth : 8 bits Scan type : Progressive Bits/(Pixel*Frame) : 0.347 Stream size : 1.93 GiB (93%) Writing library : x264 core 142 Audio #1 ID : 1 Format : MPEG Audio Format version : Version 1 Format profile : Layer 3 Format settings : Joint stereo / MS Stereo Codec ID : 55 Codec ID/Hint : MP3 Duration : 2 h 18 min Bit rate mode : Constant Bit rate : 128 kb/s Channel(s) : 2 channels Sampling rate : 44.1 kHz Compression mode : Lossy Stream size : 127 MiB (6%) Alignment : Aligned on interleaves Interleave, duration : 26 ms (0.65 video frame) Interleave, preload duration : 26 ms Writing library : LAME3.98.4 Βοηθήστε εντελώς ανέξοδα τους uploaders, ανανεώνοντας τακτικά την ip σας, με 1 απλή επανεκκίνηση του router.
  3. ΣΤΑ ΤΡΑΓΟΥΔΙΑ ΛΕΜΕ ΝΑΙ (2019-2020) ΕΡΤ1 WEBRip AVI Η εκπομπή που κατάφερε να "χτίσει" μια νέα συνήθεια στην Ελληνική Τηλεόραση επιστρέφει για να σας κάνει να πείτε ΝΑΙ στα τηλεοπτικά Σαββατόβραδα! "Στα τραγούδια λέμε ΝΑΙ" για 3η σεζόν στην ΕΡΤ1, με τη Ναταλία Δραγούμη και τον Μιχάλη Μαρίνο. Συνεχίζουμε και λέμε «ΝΑΙ» στα τραγούδια που δίνουν χρώμα, παλμό και χαρακτήρα στη ζωή μας, λέμε «ΝΑΙ» σε όσα έχουν ουσία και λόγο ύπαρξης, λέμε «ΝΑΙ» σε πραγματικούς καλλιτέχνες, μουσικούς και τραγουδιστές! General Complete name :TRAGOYDIA.NAI..S03.EP.01.avi Format : AVI Format/Info : Audio Video Interleave Format profile : OpenDML File size : 2.13 GiB Duration : 3 h 5 min Overall bit rate : 1 646 kb/s Writing application : Lavf56.15.102 Video #0 ID : 0 Format : AVC Format/Info : Advanced Video Codec Format profile : [email protected] Format settings : 2 Ref Frames Format settings, CABAC : No Format settings, ReFrames : 2 frames Codec ID : H264 Duration : 3 h 5 min Bit rate : 1 500 kb/s Width : 854 pixels Height : 480 pixels Display aspect ratio : 16:9 Frame rate mode : Variable Frame rate : 25.000 FPS Color space : YUV Chroma subsampling : 4:2:0 Bit depth : 8 bits Scan type : Progressive Bits/(Pixel*Frame) : 0.146 Stream size : 1.95 GiB (91%) Writing library : x264 core 142 Audio #1 ID : 1 Format : MPEG Audio Format version : Version 1 Format profile : Layer 3 Format settings : Joint stereo / MS Stereo Codec ID : 55 Codec ID/Hint : MP3 Duration : 3 h 5 min Bit rate mode : Constant Bit rate : 128 kb/s Channel(s) : 2 channels Sampling rate : 44.1 kHz Compression mode : Lossy Stream size : 170 MiB (8%) Alignment : Aligned on interleaves Interleave, duration : 26 ms (0.65 video frame) Interleave, preload duration : 26 ms
  4. ΣΤΗΝ ΥΓΕΙΑ ΜΑΣ ΡΕ ΠΑΙΔΙΑ (2019-2020) ΣΚΑΪ WEBRip AVI Και το 2019-2020 μαζι σε καινούργιο κύκλο Οι παρέες γράφουν ιστορία!.. Και όταν περνάνε καλά… γράφουν μουσική. Η μεγαλύτερη παρέα φέτος είναι στον ΣΚΑΪ. Με τα τραγούδια που μας ενώνουν. Τις μελωδίες που μας ταξιδεύουν. Τους στίχους που μπαίνουν στα χείλη όλων μας… General Complete name :YGEIA.EP.01.05.09.10.2019.avi Format : AVI Format/Info : Audio Video Interleave Format profile : OpenDML File size : 1.83 GiB Duration : 2 h 39 min Overall bit rate : 1 644 kb/s Writing application : Lavf56.15.102 Video #0 ID : 0 Format : AVC Format/Info : Advanced Video Codec Format profile : [email protected] Format settings : 2 Ref Frames Format settings, CABAC : No Format settings, ReFrames : 2 frames Codec ID : H264 Duration : 2 h 39 min Bit rate : 1 500 kb/s Width : 1 280 pixels Height : 720 pixels Display aspect ratio : 16:9 Frame rate mode : Variable Frame rate : 25.000 FPS Color space : YUV Chroma subsampling : 4:2:0 Bit depth : 8 bits Scan type : Progressive Bits/(Pixel*Frame) : 0.065 Stream size : 1.68 GiB (91%) Writing library : x264 core 142 Audio #1 ID : 1 Format : MPEG Audio Format version : Version 1 Format profile : Layer 3 Format settings : Joint stereo / MS Stereo Codec ID : 55 Codec ID/Hint : MP3 Duration : 2 h 39 min Bit rate mode : Constant Bit rate : 128 kb/s Channel(s) : 2 channels Sampling rate : 44.1 kHz Compression mode : Lossy Stream size : 146 MiB (8%) Alignment : Aligned on interleaves Interleave, duration : 26 ms (0.65 video frame) Writing library : LAME3.98.4
  5. X FACTOR (2019) OPEN TV WEBRip HD AVI Το μουσικό σόου-παγκόσμιο φαινόμενο, επιστρέφει! To Χ Factor έρχεται πιο συναρπαστικό από κάθε άλλη φορά, αναζητώντας το νέο αστέρι της ελληνικής μουσικής βιομηχανίας. Για περισσότερο από μία δεκαετία, το X Factor, δημιουργεί superstars. Οι καλλιτέχνες που έχουν αναδειχτεί μέσα από τη συμμετοχή τους στο X Factor έχουν κάνει εκατομμύρια πωλήσεις παγκοσμίως, αποκτώντας διεθνή λάμψη και πιστούς fans σε κάθε γωνιά του πλανήτη, γεγονός που το καθιστά το πιο επιτυχημένο show στην ανάδειξη νέων stars. Στην πρώτη φάση του X Factor τον πιο κρίσιμο και δύσκολο ρόλο της επιλογής, τον έχουν οι κριτές: H δυναμική Μελίνα Ασλανίδου, μια από τις πιο αγαπημένες Ελληνίδες ερμηνεύτριες, με μοναδική χροιά φωνής και διαχρονικά τραγούδια. O Γιώργος Θεοφάνους, ο μεγαλύτερος σύγχρονος συνθέτης της γενιάς του, που έχει υπογράψει τις πιο μεγάλες επιτυχίες για κορυφαίους Έλληνες τραγουδιστές. O μοναδικός Χρήστος Μάστορας, ο πολυτάλαντος frontman των Melisses, του πιο δημοφιλούς και πετυχημένου ελληνικού γκρουπ σήμερα. Και ο μετρ των ερτζιανών, ο Μιχάλης Τσαουσόπουλος, ένας από τους διασημότερους ραδιοφωνικούς παραγωγούς στη χώρα μας. Στο «τιμόνι» του X-Factor, η μεγαλύτερη Ελληνίδα superstar! Η αγαπημένη Δέσποινα Βανδή, για πρώτη φορά σε ρόλο παρουσιάστριας, με τη μεγάλη μουσική της εμπειρία, τη μοναδική σκηνική της παρουσία και το ξεχωριστό επικοινωνιακό της χάρισμα, δίνει το ρυθμό στο μεγαλύτερο μουσικό σόου της τηλεόρασης! Στην σκηνή του X Factor θα δώσουν τον καλύτερο εαυτό τους οι υποψήφιοι που πίστεψαν στο ταλέντο τους, ξεπέρασαν τις αναστολές τους και αποφάσισαν να διεκδικήσουν με πάθος το όνειρό τους. Για να φτάσουν μέχρι τη μεγάλη νίκη, θα πρέπει να περάσουν με επιτυχία 4 συναρπαστικά στάδια: τις Auditions, το Bootcamp, τα Chairs και φυσικά τα φαντασμαγορικά live shows. Όλοι έχουν πείσμα, ταλέντο και όνειρα, όμως μόνο ένας διαθέτει το X Factor και θα αναδειχθεί νικητής, κερδίζοντας 50.000 ευρώ και το «χρυσό» συμβόλαιο με μία από τις μεγαλύτερες δισκογραφικές εταιρείες, την Panik Records! Το X Factor έρχεται πιο θεαματικό από ποτέ, με καινοτομίες, μεγάλες εκπλήξεις και ταλέντα που κάνουν τη διαφορά, με τις συμμετοχές από Αθήνα, Θεσσαλονίκη και Κύπρο να σημειώνουν ρεκόρ, έχοντας ξεπεράσει κάθε προσδοκία! Η εκρηκτική κριτική επιτροπή έχει ήδη ξεκινήσει τη διαδικασία των Αuditions και δεκάδες συμμετέχοντες έχουν μαγέψει με τη φωνή και τη σκηνική τους παρουσία, κορυφώνοντας τον ενθουσιασμό, αλλά και την αγωνία για το ποιος θα καταφέρει να πάρει το πολυπόθητο εισιτήριο για την επόμενη φάση! Η αντίστροφη μέτρηση για τη μεγάλη πρεμιέρα έχει αρχίσει! General Complete name :XFactor.EP.01.avi Format : AVI Format/Info : Audio Video Interleave File size : 810 MiB Duration : 1 h 9 min Overall bit rate : 1 618 kb/s Writing application : Lavf56.15.102 Video #0 ID : 0 Format : AVC Format/Info : Advanced Video Codec Format profile : [email protected] Format settings : 2 Ref Frames Format settings, CABAC : No Format settings, ReFrames : 2 frames Codec ID : H264 Duration : 1 h 9 min Bit rate : 1 500 kb/s Width : 1 920 pixels Height : 1 080 pixels Display aspect ratio : 16:9 Frame rate mode : Variable Frame rate : 25.000 FPS Color space : YUV Chroma subsampling : 4:2:0 Bit depth : 8 bits Scan type : Progressive Bits/(Pixel*Frame) : 0.029 Stream size : 740 MiB (91%) Writing library : x264 core 142 Audio #1 ID : 1 Format : MPEG Audio Format version : Version 1 Format profile : Layer 3 Format settings : Joint stereo / MS Stereo Codec ID : 55 Codec ID/Hint : MP3 Duration : 1 h 9 min Bit rate mode : Constant Bit rate : 128 kb/s Channel(s) : 2 channels Sampling rate : 44.1 kHz Compression mode : Lossy Stream size : 64.0 MiB (8%) Alignment : Aligned on interleaves Interleave, duration : 26 ms (0.65 video frame) Interleave, preload duration : 26 ms Writing library : LAME3.98.4 Βοηθήστε εντελώς ανέξοδα τους uploaders, ανανεώνοντας τακτικά την ip σας, με 1 απλή επανεκκίνηση του router.
  6. ΠΡΟΣΕΧΩΣ ΒΟΥΛΓΑΡΕΣ (2013) DVDRip (DVDRip - easybytez - Πανούσης) Πρώτη παράσταση: 2 Απριλίου 1997 στη μουσική σκηνή Μύλος Κείμενα, Στίχοι, Μουσική: Τζίμης Πανούσης Ηλεκτρική κιθάρα: Σπύρος Πάζιος Τύμπανα: Ηλίας Αχλαδιώτης Μπάσο: Αλέκος Παρασκευόπουλος Πλήκτρα: Βασίλης Γκίνος Ηχοληψία: Μάκης Αχλαδιώτης Φωτισμός: Ντίνος Πιτυχούτης Ο συμπαγής καλλιτέχνης ΤΖΙΜΗΣ ΠΑΝΟΥΣΗΣ παρουσιάζει το κοινωνικό δράμα: ΠΡΟΣΕΧΩΣ ΒΟΥΛΓΑΡΕΣ Στο τιμημένο πάλκο του ΜΥΛΟΥ στα Πατήσια. Συμμετέχει το "Ηλεκτρικό Κουαρτέτο" με τούς: Σπύρο Πάζιο, Ηλεκτρική κιθάρα Ηλία Αχλαδιώτη, Τύμπανα Αλέκο Παρασκευόπουλο, Μπάσο Βασίλη Γκίνο, Πλήκτρα κι ένα μικρό δείγμα από ΒΟΥΛΓΑΡΕΣ ΠΡΟΣΕΧΩΣ. Τα φώτα του μας δίνει ο Δρ. Ντίνος Πιτυχούτης. Τον ήχο σενιάρει ο Μάκης Αχλαδιώτης. Η συνέχεια επί του πάλκου... Artist : Τζίμης Πανούσης Album : Προσεχώς Βουλγάρες DVD Released : Real News (03/2013) Genre : Σατυρικό Number Of Tracks : 32 Covers : Full Λίστα κεφαλαίων DVD: 01. Σήμα έναρξης 02. Εντομοκεφαλή Τζιμάκου 03. Είσοδος Βουλγάρας – Ανάποδο στριπτήζ 04. Ήγγικεν γαρ η βασιλεία των ουρανών 05. Τουμπερλέκ 06. Μπατσόφατσες 07. Ο καλός Σαμαρείτης 08. Τηλέφωνο ΠΑΦΟΚ 09. Το παιδί του σωλήνα 10. Κονσομασιόν Α 11. Διαφημίσεις 12. Κονσομασιόν ΑΑ 13. Μάγισσα μανούλα 14. Κονσομασιόν Α 3 15. Jimmy’s jazz 16. Διάλειμμα 17. Τζιμάκος παραλυτικός 18. Τηλεφωνικές φάρσες 19. Το τραύμα 20. Ειδήσεις 21. Νεοέλληνας 22. Λαϊκό πρόγραμμα 23. Είμαι γυφτάκι 24. Κονσομασιόν Α 4 25. Διαφημίσεις 2 26. Ποιηματάκια – Βίντεο φάρσα 27. Ο λάκκος με τα αστεία 28. Ρωσοπόντιοι 29. Άγριο Πνεύμα 30. Παρωδία επιτυχιών (Hit Parade) 31. Παρουσίαση 32. Αλβανικό δείπνο
  7. Ελληνικός Τίτλος:Η Παράσταση Αρχίζει Είδος:Μουσικό Δράμα Φαντασίας Διάρκεια: 123’ Πρεμιέρα: 20 – Δεκ – 1979 (USA) Χώρα: USA Γλώσσα: English | Spanish Υπότιτλοι: Ελληνικοί Ενσωματωμένοι Σκηνοθεσία: Uli Edel Σενάριο:Uli Edel (additional writer), Kai Hermann (book) Ηθοποιοί:Natja Brunckhorst, Thomas Haustein και Jens Kuphal Θεωρείται το καλύτερο μιούζικαλ στην ιστορία του σινεμά - η αμερικάνικη εκδοχή του "Οκτώμιση" - μαζί μετο "Καμπαρέ" και δικαίως απέσπασε τέσσερα Όσκαρ. Ένα φανταστικό αυτοβιογραφικό μιούζικαλ με βασικό ήρωα έναν χορογράφο και σκηνοθέτη τον Τζόι Γκίντεον, το alter ego του σκηνοθέτη Μπομπ Φόσι, ο οποίος υπό την σκιά του επικείμενου θανάτου του, επιδίδεται σ'έναν απολογισμό της μέχρι τώρα ζωής του, των επαγγελματικών επιτυχιών, αλλά και των προσωπικών του αποτυχιών. http://www.imdb.com/title/tt0082176/
  8. THE VOICE GREECE Γ' ΣAIZON (2018) SKAI WEBRip HD AVI Ο πιο δημοφιλής μουσικός διαγωνισμός παγκοσμίως έρχεται για τρίτη χρονιά στον ΣΚΑΪ. Ο μουσικός διαγωνισμός που κατέκτησε το κοινό σε περισσότερες από 50 χώρες σε ολόκληρο τον κόσμο θα αναζητήσει την καλύτερη φωνή της Ελλάδας. Παρουσιάζει o Γιώργος Καπουτζίδης. Κριτές είναι οι: Κωστής Μαραβέγιας, Πάνος Μουζουράκης, Έλενα Παπαρίζου και ο Σάκης Ρουβάς. The Voice of Greece... General Complete name : THE VOICE Γ΄ΚΥΚΛΟΣ\THE.VOICE.S03.EP.01.avi Format : AVI Format/Info : Audio Video Interleave File size : 2.52 GiB Duration : 2 h 51 min Overall bit rate : 2 112 kb/s Video ID : 0 Format : AVC Format/Info : Advanced Video Codec Format profile : [email protected] Format settings : 1 Ref Frames Format settings, CABAC : No Format settings, ReFrames : 1 frame Codec ID : H264 Duration : 2 h 51 min Bit rate : 1 971 kb/s Width : 1 280 pixels Height : 720 pixels Display aspect ratio : 16:9 Frame rate : 25.000 FPS Color space : YUV Chroma subsampling : 4:2:0 Bit depth : 8 bits Scan type : Progressive Bits/(Pixel*Frame) : 0.086 Stream size : 2.35 GiB (93%) Writing library : x264 core 152 r2854 e9a5903 Audio ID : 1 Format : MPEG Audio Format version : Version 1 Format profile : Layer 3 Codec ID : 55 Codec ID/Hint : MP3 Duration : 2 h 51 min Bit rate mode : Constant Bit rate : 128 kb/s Channel(s) : 2 channels Sampling rate : 48.0 kHz Compression mode : Lossy Stream size : 157 MiB (6%) Alignment : Aligned on interleaves Interleave, duration : 24 ms (0.60 video frame) Βοηθήστε εντελώς ανέξοδα τους uploaders, ανανεώνοντας τακτικά την ip σας, με 1 απλή επανεκκίνηση του router.
  9. ΑΚΡΟΠΟΛ (1996) DVDRip Φώτα, Μουσική, Χορός. Νοσταλγία για την Επιθεώρηση (DVDRip - easybytez - worldbytez - filefactory) Είδος: Μιούζικαλ Διάρκεια: 125' Πρεμιέρα στην Ελλάδα: Παρασκευή 12 Ιανουαρίου 1996 Χρώμα: Έγχρωμο Ήχος: Dolby Digital Γλώσσα: Ελληνικά Παραγωγός: Παντελής Βούλγαρης Εταιρία παραγωγής: Eurimages Council Of Europe , Ελληνικό Κέντρο Κινηματογράφου , Alia Film SRL , Alco Films , Ελληνική Ραδιοφωνία Τηλεόραση (ΕΡΤ) , Τονικόν Ε.Π.Ε. , FF Film House Σκηνοθεσία: Παντελής Βούλγαρης Σενάριο: Παντελής Βούλγαρης Φωτογραφία: Ντίνος Κατσουρίδης Μουσική σύνθεση: Γιώργος Μουζάκης Τραγούδουν: Νίκος Πορτοκάλογλου , Μελίνα Κανά Χορεύουν: Μαρία Αναστασιάδου , Βάσω Γιαννακοπούλου , Μίνα Μπατσακούτσα , Δήμητρα Ανδρέου , Τάνια Ρουσσοπούλου , Όλγα Γερογιαννάκη , Χαρά Κάραλη , Έλενα Μιχαηλίδου , Σπυριδούλα Παλατζά , Τζένη Παναγιωτοπούλου , Φωτεινή Παπασωτηρίου , Ιωάννα Πάραλη. Ηθοποιοί: Λευτέρης Βογιατζής (Λάκης Λοΐζος) , Θέμις Μπαζάκα (Ρένα) , Κωνσταντίνος Τζούμας (Πλάτων) , Σωτηρία Λεονάρδου , Σταύρος Παράβας (Αντώνης ο Πρίγκηπας) , Δέσπω Διαμαντίδου (μητέρα Αντώνη) , Ειρήνη Ιγγλέση , Άντζελα Γκερέκου (Ζωζώ) , Μάνος Βακούσης (Φωτεινιάς) , Έκτωρ Καλούδης , Ιωάννα Παπαδοπούλου , Βίκυ Παπαδοπούλου , Νίκος Αλατζάς , Άγγελος Γεωργιάδης , Χάρης Νάζος , Δημήτρης Δρόσος , Κοσμάς Φοντούκης , Αντιγόνη Αλικάκου , Όλγα Δαμάνη (Μαρίκα) , Πόπη Παπαδάκη , Γιάννης Σαμψιάρης , Σταμάτης Γκίκας , Γιώργος Γκίκας , Θόδωρος Παναγόπουλος , Νίκος Καραγιώργος (ηθοποιός θιάσου) , Γεώργιος Λεφεντάριος , Σταύρος Κωνστανταράκος , Μπέσυ Μάλφα (Σάσα) , Κωνσταντίνος Θέμελης , Δημήτρης Ντάσιος , Ξένια Φερεντίνου , Θοδωρής Ευστρατιάδης , Κλεάνθης Τριανταφυλλόπουλος , Tsonko Nicolai Tsonkov , Albena Stavrena , Αγγελική Παπαθεμελή , Ιφιγένεια Παπαδογιάννη , Ορφέας Ζαφειρόπουλος , Αγγελική Κανελλοπούλου , Νίκος Καραγιώργος , Τάκης Αντωνόπουλος , Μέμη Βλασσοπούλου , Έλσα Πελαγίδου , Ελένη Πασσά , Γιώργος Μηνάς , Λίλα Μουτσοπούλου , Ελευθερία Νικολιάδη , Γιώργος Μελισσάρης , Γεράσιμος Μαύρος , Κατερίνα Μανωλέα , Αχιλλέας Κυριακίδης , Νίκος Λύτρας , Αννέτα Κορτσαρίδου , Άλκης Κόλλιας , Αγγελική Γκιργκινούδη , Αντωνία Γκούβη , Θανάσης Γιαννόπουλος , Ηλίας Γιαννακάκης , Δημήτρης Ντάτσιος , Ελένη Δεμερτζή , Petar Dimov Υπόθεση: Το θέατρο Ακροπόλ, το πασίγνωστο και ιστορικό μουσικό θέατρο της Αθήνας, ετοιμάζεται για πρεμιέρα. Λίγο πριν από την έναρξη, ο αυτοδημιούργητος θεατρώνης Πρίγκηψ αναγκάζεται να απολύσει μια από τις πρωταγωνίστριες, η οποία είναι τύφλα στο μεθύσι. Ψάχνοντας για αντικαταστάτρια, σκέπτεται να ρισκάρει προσλαμβάνοντας ένα πρώην παιδί-θαύμα του κινηματογράφου, τον Λάκη Λοϊζο, διακεκριμένο ηθοποιό που ειδικεύεται σε γυναικείους ρόλους, κυρίως κωμικούς, και που τώρα διευθύνει ένα γραφείο κομπάρσων. Η ζαριά είναι καλή, ο Λάκης σημειώνει μεγάλη επιτυχία, προκαλώντας έτσι τον ανείπωτο φθόνο των συναδέλφων του. Του τη στήνουν λοιπόν στην τελευταία παράσταση, τότε που οι ηθοποιοί και οι τεχνικοί κάνουν το κατ’ έθιμον περιβόητο «αλαλούμ», το οποίο προτρέπει σε σκανδαλισμούς και εν γένει τρέλες και ανορθόδοξες συμπεριφορές. Την κρίσιμη αυτή βραδιά, ο Λάκης θα ταπεινωθεί και θα ταπεινώσει, ξεκαθαρίζοντας συνάμα λογαριασμούς και σβήνοντας λεκέδες, για να βρεθεί και πάλι στο κομπαρσάδικο. Σχόλια: Η ταινία προβλήθηκε τη σαιζόν 1995-1996 και έκοψε 20.000 εισιτήρια πανελλαδικά. Ήρθε στην 4η θέση σε 15 ταινίες. Η ταινία είναι Ιταλικής, Γερμανικής, Βουλγαρικής και Ελληνικής παραγωγής.
  10. ΣΤΑ ΤΡΑΓΟΥΔΙΑ ΛΕΜΕ ΝΑΙ ΕΡΤ1 WEBRip AVI Με την Ναταλία Δραγούμη και τον Μιχάλη Μαρίνο. Η μουσική εκπομπή της δημόσιας τηλεόρασης «Στα τραγούδια λέμε ΝΑΙ» συνεχίζει και τη νέα τηλεοπτική σεζόν ανανεωμένη, με σκοπό να ενώσει το τραγούδι με τον πολιτισμό και όσα αφορούν στον σύγχρονο άνθρωπο! Συνεχίζουμε και λέμε «ΝΑΙ» στα τραγούδια που δίνουν χρώμα, παλμό και χαρακτήρα στη ζωή μας, λέμε «ΝΑΙ» σε όσα έχουν ουσία και λόγο ύπαρξης, λέμε «ΝΑΙ» σε πραγματικούς καλλιτέχνες, μουσικούς και τραγουδιστές! General General Complete name : ΣΤΑ ΤΡΑΓΟΥΔΙΑ ΛΕΜΕ ΝΑΙ\TRAGOYDIA.NAI.EP.01.avi Format : AVI Format/Info : Audio Video Interleave File size : 2.37 GiB Duration : 2 h 34 min Overall bit rate : 2 205 kb/s Video ID : 0 Format : AVC Format/Info : Advanced Video Codec Format profile : [email protected] Format settings : 1 Ref Frames Format settings, CABAC : No Format settings, ReFrames : 1 frame Codec ID : H264 Duration : 2 h 34 min Bit rate : 2 064 kb/s Width : 864 pixels Height : 480 pixels Display aspect ratio : 16:9 Frame rate : 25.000 FPS Color space : YUV Chroma subsampling : 4:2:0 Bit depth : 8 bits Scan type : Progressive Bits/(Pixel*Frame) : 0.199 Stream size : 2.22 GiB (94%) Writing library : x264 core 152 r2854 e9a5903 Audio ID : 1 Format : MPEG Audio Format version : Version 1 Format profile : Layer 3 Codec ID : 55 Codec ID/Hint : MP3 Duration : 2 h 34 min Bit rate mode : Constant Bit rate : 128 kb/s Channel(s) : 2 channels Sampling rate : 48.0 kHz Compression mode : Lossy Stream size : 141 MiB (6%) Alignment : Aligned on interleaves Interleave, duration : 24 ms (0.60 video frame)
  11. ΣΤΗΝ ΥΓΕΙΑ ΜΑΣ ΡΕ ΠΑΙΔΙΑ (2018-) ΣΚΑΪ WEBRip AVI HD Και το 2018-2019 μαζι σε καινούργιο κύκλο Οι παρέες γράφουν ιστορία!.. Και όταν περνάνε καλά… γράφουν μουσική. Η μεγαλύτερη παρέα φέτος είναι στον ΣΚΑΪ. Με τα τραγούδια που μας ενώνουν. Τις μελωδίες που μας ταξιδεύουν. Τους στίχους που μπαίνουν στα χείλη όλων μας… General Complete name : F:\ΣΤΗΝ ΥΓΕΙΑ ΜΑΣ ΡΕ ΠΑΙΔΙΑ 2019\YGEIA.6.10.2018.720p.avi Format : AVI Format/Info : Audio Video Interleave File size : 3.13 GiB Duration : 3 h 10 min Overall bit rate : 2 356 kb/s Video ID : 0 Format : AVC Format/Info : Advanced Video Codec Format profile : [email protected] Format settings : 1 Ref Frames Format settings, CABAC : No Format settings, ReFrames : 1 frame Codec ID : H264 Duration : 3 h 10 min Bit rate : 2 215 kb/s Width : 1 280 pixels Height : 720 pixels Display aspect ratio : 16:9 Frame rate : 25.000 FPS Color space : YUV Chroma subsampling : 4:2:0 Bit depth : 8 bits Scan type : Progressive Bits/(Pixel*Frame) : 0.096 Stream size : 2.95 GiB (94%) Writing library : x264 core 152 r2854 e9a5903 Audio ID : 1 Format : MPEG Audio Format version : Version 1 Format profile : Layer 3 Codec ID : 55 Codec ID/Hint : MP3 Duration : 3 h 10 min Bit rate mode : Constant Bit rate : 128 kb/s Channel(s) : 2 channels Sampling rate : 48.0 kHz Compression mode : Lossy Stream size : 174 MiB (5%) Alignment : Aligned on interleaves Interleave, duration : 24 ms (0.60 video frame) Writing library : LAME
  12. THREE FOR THE SHOW (1955) WEBRip - ΞΕΧΩΡΙΣΤΟΙ ΥΠΟΤΙΤΛΟΙ Director: H.C. Potter Writers: Edward Hope (screenplay), Leonard Stern Stars: Betty Grable, Marge Champion, Gower Champion ΥΠΟΤΙΤΛΟΙ: Nanneta Το αστέρι του χορού και τραγουδιού Τζούλι πληροφορείται ότι ο άντρας της Μάρτι θεωρείται αγνοούμενος στον πόλεμο της Κορέας. Μετά από μακρά αναμονή, σχεδιάζει τον καινούργιο γάμο της με τον Βέρνον, που ήταν ο καλύτερος φίλος του Μάρτι. Όταν τελικά παντρεύονται, ο Μάρτι παραδόξως επιστρέφει και η τρέλα ξεκινά! [video]https://www.youtube.com/watch?v=vhaYqOGBEFc[/video] https://www.imdb.com/title/tt0048719/ ΤΕΧΝΙΚΑ ΧΑΡΑΚΤΗΡΙΣΤΙΚΑ General Complete name : Three for the Show (1955).mp4 Format : MPEG-4 Format profile : Base Media Codec ID : isom (isom/iso2/avc1/mp41) File size : 784 MiB Duration : 1 h 28 min Overall bit rate : 1 236 kb/s Movie name : RARBG.COM - Three.for.the.Show.1955.WEBRip.x264-RARBG Encoded date : UTC 2017-03-19 15:20:41 Tagged date : UTC 2017-03-19 15:20:41 Writing application : Lavf56.40.101 Comment : RARBG.COM - Three.for.the.Show.1955.WEBRip.x264-RARBG
  13. ΡΑΝΤΕΒΟΥ ΣΤΟΝ ΑΕΡΑ (1966) DVDrip (DVDrip - Βλαχοπούλου - easybytez - filefactory) Είδος Ταινίας: Μουσικοχορευτική Διάρκεια: 92 λεπτά Χρώμα: Έγχρωμη Ήχος: Dolby Digital Γλώσσα: Ελληνικά Παραγωγή Ταινίας: 31/1/1966 Σκηνοθεσία: Γιάννης Δαλιανίδης Σενάριο: Γιάννης Δαλιανίδης Μουσική: Μίμης Πλέσσας Ηθοποιοί: Ρένα Βλαχοπούλου Κώστας Βουτσάς Ανδρέας Ντούζος Μάρθα Καραγιάννη Ελένη Προκοπίου Χλόη Λιάσκου Αννίτα Δαλέζιου Γιάννης Βογιατζής Γιάννης Βογιατζής Άγγελος Μαυρόπουλος Νίκος Παπαναστασίου Νίκος Νεογέννης Αλέκος Δαρόπουλος Τηλέμαχος Εμμανουήλ Ανδρέας Λάζαρης Γιώργος Ραμσής Υποθεση: Η ζωή μιας ομάδας νέων που υπηρετούν στην αεροπορία και τα αισθηματικά τους μπλεξίματα, που ξεκινούν από την ομοιότητα μιας γυναίκας με μια διάσημη αρτίστα. Το Soundtrack της ταινίας: Πλέσσας Μίμης - Ραντεβού Στον Αέρα (1965) Audio Format: Mp3 256 kbps.
  14. Η ΚΟΜΙΣΣΑ ΤΗΣ ΚΕΡΚΥΡΑΣ (1972) DVDrip [DVDrip-Βλαχοπούλου-easybytez - filefactory] Είδος: Μιούζικαλ Διάρκεια: 90' Ετος παραγωγής: 1972 Πρώτη προβολή: Δευτέρα 7 Φεβρουαρίου 1972 Χρώμα: Έγχρωμο Ήχος: Dolby digital Γλώσσα: Ελληνικά Εισητήρια: 310.583 στην 1η προβολή (9η από 90) Δ/ντής Παραγωγός: Μάρκος Ζερβάς Σενάριο: Αλέκος Σακελάριος Σκηνοθεσία: Αλέκος Σακελλάριος Μουσική: Γιώργος Κατσαρός Χορογραφίες: Φώτης Μεταξόπουλος Χορευτές: Φώτης Μεταξόπουλος Φοντάνα Έστερ Κεννίς Κώστας Ψαρέλλης Μιχάλης Μεταξάς Μπ. Χαριμαδοπούλου Αλέκα Γεωργίου Μ. Χριστοπούλου Θεόδωρος Σούρπης Ελ. Τσατούρα Μάιρη Σουγλέρη Ζωζώ Κουτσούκη Ρένα Παπαδοπούλου Τραγουδά: Ρένα Βλαχοπούλου Ηθοποιοί: Ρένα Βλαχοπούλου Αλέκος Αλεξανδράκης Νόνικα Γαληνέα Μάκης Δεμίρης Βαγγέλης Πλοιός Μπάμπης Ανθόπουλος Μανώλης Δεστούνης Ορφέας Ζάχος Ρία Δελούτση Δ. Παπαγιάννης Ερρίκος Κονταρίνης Τάσος Ραμσής Βασίλης Κολοβός Γιάννης Δόντας Γιώργος Σταμάτης Λευτέρης Κωτσελίδης Νίκος Βλαχόπουλος Ανδρέας Συρογιάννης Νίκη Λινάρδου Υπόθεση: Ο κ. Σωτήρης Καραλής (Αλέκος Αλεξανδράκης) έρχεται στην Κέρκυρα για να φτιάξει ξενοδοχείο. Εκείνο που ξεχωρίζει και του χτυπάει στο μάτι είναι το οικόπεδο πάνω στο οποίο είναι το αρχοντικό της σιόρας Αντζολίνας (Ρένα Βλαχοπούλου). Η Αντζολίνα είναι δύο φορές χήρα και αρραβωνιασμένη με τον Σπύρο Καρέτα (Ορφέας Ζάχος) και για να ζήσει παραδίδει μαθήματα πιάνου σε παιδάκια, όλοι δε γνωρίζουν πως το σπίτι της για κανένα λόγο και με κανένα αντάλλαγμα δεν το δίνει για κατεδάφιση. Ο Σωτήρης όμως για να την πλησιάσει και να γνωρισθούνε, ελπίζοντας έτσι πως θα την μεταπείσει, παρουσιάζεται σαν φίλος του Σπύρου που λείπει στην Ιταλία προσφέροντας της μάλιστα κι ένα κόσμημα που δήθεν το έχει στείλει ο Σπύρος στην αρραβωνιαστικιά του... Στο μεταξύ, στο νησί έχει φτάσει ένα Ιταλικό μουσικοχορευτικό συγκρότημα που από τη μια μεριά δεν βρίσκεται ξενοδοχείο για να μείνει και από την άλλη βρίσκεται χωρίς την τραγουδίστριά του που ματαιώνει την άφιξή της... Έτσι η Αντζολίνα πείθεται έπειτα από πολλά παρακάλια να φιλοξενήσει στο σπίτι της το συγκρότημα και στη συνέχεια να εμφανιστεί στο κέντρο υποδυόμενη την Ιταλίδα τραγουδίστρια. Πραγματικά τα καταφέρνει θαυμάσια ώσπου στο νησί καταφθάνουν ο Σπύρος αλλά και η Ιταλίδα βεντέτα. Πως θα ξεμπλέξει τώρα από όλα αυτά;; Χαρακτηριστική ατάκα : Χτυπάει η πόρτα. Βλαχοπούλου στην Γαληνέα: Μίλα εσύ, εγώ δεν μπορώ. Γαληνέα:Εμπρός; Ο γκρουμ στην Βλαχοπούλου:(μιλάει Ιταλικά). Η Βλαχοπούλου στον γκρουμ:Ωω, γκράτσιε τάντο, τάντο γκράτσιε! Φεύγει ο γκρουμ. Βλαχοπούλου στην Γαληνέα: Πες μου μωρή τι είπε γιατί τα είπε γρήγορα και μπερδεμένα, για πες.
  15. NATALYA MAKAROVA'S SWAN LAKE (1988) DVDRip - ΕΝΣΩΜΑΤΩΜΕΝΟΙ ΥΠΟΤΙΤΛΟΙ Χώρα παραγωγής: Βρετανία Χρονιά παραγωγής: 1989 Κυκλοφορία DVD στην Ευρώπη: 22/4/2003 Κυκλοφορία DVD στις Η.Π.Α.: 22/12/2000 Διάρκεια: 1:55:16 Κατηγορία: Παραστατικές τέχνες Η παράσταση είναι μια παραγωγή του 1988 Η κινηματογράφηση - χωρίς κοινό - έγινε την επόμενη χρονιά Το DVD πρωτοκυκλοφόρησε στην Γερμανία από την Arthaus Musik DVDRip, SubRip: DINOSAUR Πηγή: DVD-R PAL Region 2 Χορεύουν: Evelyn Hart as Odette & Odine Peter Schaufuss as Siegfried Martin James as Benno Elizabeth Anderton as Queen Johnny Eliasen as Rothbart και οι χορευτές του London Festival Ballet, πλέον English National Ballet Σύντομη εισαγωγή από την Natalia Makarova Μουσική: Piotr Ilyich Tchaikovsky Χορογραφία: Natalia Makarova βασισμένη στις χορογραφίες των Sir Frederick Ashton & Marius Petipa Καλλιτεχνική διεύθυνση: Peter Schaufuss Κοστούμια & Σκηνικά: Gunther Schneider-Siemssen Απόδοση μουσικής: The Danish Radio Symphony Orcsestra Διεύθυνση ορχήστρας: Graham Bond Σκηνοθεσία & παραγωγή: Thomas Grimm Η Evelyn Hart και ο Peter Schaufuss χορεύουν τους κορυφαίους ρόλους σ’ αυτή την χωρίς κοινό κινηματογράφηση της επιτυχημένης παραγωγής σε χορογραφία της Natalia Makarova του συγκεκριμένου πολυαγαπημένου μπαλέτου. Η πρωτοποριακή χορογραφία της παρουσιάζει το έργο σαν την ιστορία μιας ιδανικής και αιώνιας αγάπης, διακρίνοντας την στην αγάπη του Siegfried και της Odette για το αγαπημένο τους πρόσωπο. Με την συνοδεία ενός ευαίσθητου και γοργού ρυθμού και τις σκηνογραφικές πινελιές του Gunther Schneider-Siemssen να έχουν θέση νοσταλγικών προβολών, αντί για σκηνικά με αλλαγές τοπίου και διάθεσης. Όλα αυτά τα στοιχεία εμπλουτίζουν ολόκληρη την παραγωγή με μια ατμόσφαιρα μαγείας και μυστηρίου. [video]https://www.youtube.com/watch?v=ecPKZIhUUeI[/video] https://www.imdb.com/title/tt0301654/ ΤΕΧΝΙΚΑ ΧΑΡΑΚΤΗΡΙΣΤΙΚΑ General Complete name : Swan Lake.1988.DVDRip.x264.AC3.mkv Format : Matroska Format version : Version 2 File size : 1.96 GiB Duration : 1 h 55 min Overall bit rate : 2 439 kb/s Writing application : HandBrake 0.9.9 Writing library : libmkv 0.6.5
×