Jump to content

Search the Community

Showing results for tags 'κωμωδία'.



More search options

  • Search By Tags

    Type tags separated by commas.
  • Search By Author

Content Type


Forums

  • ΓΕΝΙΚΑ - GENERAL
    • Γενικές Ανακοινώσεις - General Announcements
    • Κανόνες - Rules
    • Βοηθητικοί Οδηγοί
    • Συζήτηση - Discussion
    • Συστηθείτε - Introduse yourself
    • Γαστρονομικές Οπτασίες - Recipes
    • Το γέλιο είναι μεταδοτικό... Μεταδώστε το!!! - Fun Place
    • Υγεία
  • ΕΛΛΗΝΙΚΗ ΜΟΥΣΙΚΗ - GREEK MUSIC
    • Νέα CDs 2016-2019
    • Promos
    • Single Remix
    • Ελληνικά Ψηφιακά Cds - Greek Digital Cds
    • Ελληνικά CDs 2010-2015
    • Παλαιότερα Ελληνικά CDs μέχρι το 2009
    • Παραδοσιακά CDs
    • Ρεμπέτικο Στέκι
    • Δισκάκια 45 στροφών και γραμμοφώνου
    • Επανεκδόσεις
    • Συλλογές
    • Box Set Collections
    • Ελληνικά Mix - Remix
    • Παιδικά Ελληνικά CDs
    • Δισκογραφίες
  • ΞΕΝΗ ΜΟΥΣΙΚΗ - INTERNATIONAL MUSIC
    • Νέα CDs 2016-2019
    • Παλαιότερα Ξένα CDs
    • Συλλογές
    • Box Set Collections
    • Ξένα Mix - Remix
    • Παιδικά Ξένα CDs
    • Δισκογραφίες
  • ΜΟΥΣΙΚΗ ΣΕ ΠΟΙΟΤΗΤΑ LOSSLESS
    • Ελληνικά CDs
    • Ξένα CDs
  • ΤΑΙΝΙΕΣ - MOVIES
    • Ελληνικές Ταινίες - Greek Movies
    • Ξένες Ταινίες με ελληνικούς υπότιτλους 2016 - 2019
    • Παλαιότερες Κλασσικές Ξένες Ταινίες (μέχρι το 1990)
    • Ξένες Ταινίες με ελληνικούς υπότιτλους 1991 - 2015
    • Ξένες Ταινίες HD 720p BRRIP Avi
    • Ξένες Ταινίες BluRay
    • Ξένες Ταινίες Micro HD
    • Φιλμογραφίες
    • Παιδικές Ταινίες
    • Ντοκιμαντέρ
    • Θεατρικές Παραστάσεις
  • ΕΠΟΧΙΑΚΑ
    • Χριστούγεννα
    • Πάσχα
    • Αποκριές
    • Αγίου Βαλεντίνου
  • ΤΗΛΕΟΠΤΙΚΟ ΠΡΟΓΡΑΜΜΑ
    • Ελληνικές Σειρές
    • Ξένες Σειρές
    • Τούρκικες Σειρές
    • Τηλεοπτικές Eκπομπές
  • ΠΑΙΧΝΙΔΙΑ - GAMES
    • Pc Games
    • Play Station Games
    • XBOX
    • Mac Games
  • ΕΦΑΡΜΟΓΕΣ - ΠΡΟΓΡΑΜΜΑΤΑ
    • Λειτουργικά Προγράμματα
    • Προγράμματα Προστασίας
    • Εργαλεία Συστήματος
    • Εργαλεία Πολυμέσων
    • Portable Προγράμματα
    • Προγράμματα για Mac
    • Internet Tools
    • Tutorials
  • E-BOOKS
    • Έλληνες Συγγραφείς
    • Ξένοι Συγγραφείς
    • Κόμικς
    • Περιοδικά
    • Audio Books
  • ΑΝΑΖΗΤΗΣΗ
    • Μουσική
    • Ταινίες - Σειρές
    • Παιχνίδια
    • Προγράμματα
    • E-Books
  • V.I.P

Find results in...

Find results that contain...


Date Created

  • Start

    End


Last Updated

  • Start

    End


Filter by number of...

Found 1,659 results

  1. ΚΡΑΤΑΣ ΜΥΣΤΙΚΟ (2019) ΑΛΦΑ TV TVrip AVI Η ιστορία θέλει δύο νέους ανθρώπους να είναι καταρρακωμένοι εξαιτίας των άσχημων γεγονότων που συμβαίνουν στην προσωπική τους ζωή. Οι δύο ήρωες συναντιούνται τυχαία σε ένα παγκάκι κι αρχίζουν να έρχονται πιο κοντά. Μέσω των αυτοτελών ιστοριών μας παρουσιάζουν πώς θα διαχειρίζονταν κάποιες καταστάσεις αν είχαν κάνει αυτό που σκέφτονταν και ήθελαν και αν δεν το είχαν κάνει. Δηλαδή τη θετική και την αρνητική κατάληξη. Πέρα από το ζευγάρι, υπάρχουν και άλλοι ήρωες, όχι μόνο από το οικογένειακό τους περιβάλλον, οι οποίοι επηρεάζουν με τον τρόπο τους την εξέλιξη της εκάστοτε ιστορίας, όπως ο παπάς της γειτονιάς, μία νεαρότερη κοπέλα που είναι πιο... ελευθέρων ηθών κ.ά. Το καστ απαρτίζεται από τους Μαρία Καβογιάννη, Ντορέττα Παπαδημητρίου, Δήμητρα Σιγάλα, Τραϊάνα Ανανία κ.ά., ενώ για τον ρόλο του παπά οι ιθύνοντες βρίσκονταν ανάμεσα στους Πέτρο Φιλιππίδη - Αλέξανδρο Αντωνόπουλο. Ωστόσο, οι τελευταίες πληροφορίες θέλουν τον δεύτερο να μην ήρθε σ ε συμφωνία με την παραγωγή λόγω φόρτου εργασίας. Συγκεκριμένα, πέρα από τα απαιτητικά γυρίσματα της κοινωνικής σειράς μυστηρίου «Η επιστροφή», που προβάλλεται στον ΑΝΤ1, φαίνεται να έχει κλείσει να πρωταγωνιστήσει και σε μία κινηματογραφική ταινία. Και μπορεί ακόμα να υπάρχουν κάποιες εκκρεμότητες, όμως οι συντελεστές συγκεντρώνονται σε διάφορους χώρους και διαβάζουν τα πρώτα σενάρια για να μη χάσουν άλλο χρόνο όταν είναι έτοιμοι για τα γυρίσματα. General Complete name :MYSTIKO.EP.01.avi Format : AVI Format/Info : Audio Video Interleave File size : 1.06 GiB Duration : 47 min 56 s Overall bit rate : 3 176 kb/s Video #0 ID : 0 Format : AVC Format/Info : Advanced Video Codec Format profile : [email protected] Format settings : 1 Ref Frames Format settings, CABAC : No Format settings, ReFrames : 1 frame Codec ID : H264 Duration : 47 min 56 s Bit rate : 3 034 kb/s Width : 1 280 pixels Height : 720 pixels Display aspect ratio : 16:9 Frame rate : 25.000 FPS Color space : YUV Chroma subsampling : 4:2:0 Bit depth : 8 bits Scan type : Progressive Bits/(Pixel*Frame) : 0.132 Stream size : 1.02 GiB (96%) Writing library : x264 core 146 r2538 121396c Audio #1 ID : 1 Format : MPEG Audio Format version : Version 1 Format profile : Layer 3 Codec ID : 55 Codec ID/Hint : MP3 Duration : 47 min 56 s Bit rate mode : Constant Bit rate : 128 kb/s Channel(s) : 2 channels Sampling rate : 48.0 kHz Compression mode : Lossy Stream size : 43.9 MiB (4%) Alignment : Aligned on interleaves Interleave, duration : 24 ms (0.60 video frame)
  2. ΑΝ ΗΜΟΥΝ ΠΛΟΥΣΙΟΣ(2019) ΑΝΤ1 TV TVrip AVI Τι κοινό έχουν ένας έντιμος βιοπαλαιστής οικογενειάρχης που χάνει το σπίτι του, μια άτυχη ανύπαντρη μητέρα που της κλέβουν αυτοκίνητο και σκύλο, και δύο ορφανά που μεγαλώνουν με μια φιλόδοξη και κακιά μητριά; Είναι οι κάτοχοι της τριπλέτας ενός λαχείου που μοιράζει το μυθικό ποσό των 9 εκατομμυρίων ευρώ! Οι τρεις υπερτυχεροί μπαίνουν, όμως, στο στόχαστρο ενός διάσημου οικονομικού αναλυτή, ο οποίος βάζει σκοπό της ζωής του να τους αρπάξει τα λεφτά, για να γλιτώσει το… κεφάλι του! Για να το πετύχει, θα επιστρατεύσει την πονηριά του, μια αντρική φιλία από το παρελθόν, αλλά και τον γοητευτικό γιο του... Αναλυτικά, στη σειρα πρωταγωνιστούν: Αλέξανδρος Μπουρδούμης, Κατερίνα Γερονικολού, Σωτήρης Καλυβάτσης, Μπέσυ Μάλφα, Κάρμεν Ρουγγέρη, Φωτεινή Τσακίρη, Κώστας Αποστολάκης, Χάρης Τζωρτζάκης, Γιάννης Ποιμενίδης, Άννα Μενενάκου, Κατερίνα Στικούδη, Τζένη Κάρνου, Νίκη Σκιαδαρέση, Μελίνα Σπετσιέρη, Άρης Αντωνόπουλος, Γεωργία Τσαγκαράκη, Βίκτωρας Πέτσας, Δημήτρης Κολιοδήμος, Χριστόφορος Μπαρμπαγιάννης, Jerome Kaluta, Σπύρος Ντούγιας. Η σκηνοθεσία είναι του Στράτου Μαρκίδη, του Σπύρου Καπώνη και του Αντώνη Σωτηρόπουλου. Το σενάριο υπογράφουν ο Νίκος Παπαδάκης και η Μαντώ Αρβανίτη. General Complete name :PLOYSIOS.EP.01.avi Format : AVI Format/Info : Audio Video Interleave File size : 882 MiB Duration : 53 min 54 s Overall bit rate : 2 288 kb/s Video #0 ID : 0 Format : AVC Format/Info : Advanced Video Codec Format profile : [email protected] Format settings : 1 Ref Frames Format settings, CABAC : No Format settings, ReFrames : 1 frame Codec ID : H264 Duration : 53 min 54 s Bit rate : 2 147 kb/s Width : 640 pixels Height : 360 pixels Display aspect ratio : 16:9 Frame rate : 25.000 FPS Color space : YUV Chroma subsampling : 4:2:0 Bit depth : 8 bits Scan type : Progressive Bits/(Pixel*Frame) : 0.373 Stream size : 828 MiB (94%) Writing library : x264 core 146 r2538 121396c Audio #1 ID : 1 Format : MPEG Audio Format version : Version 1 Format profile : Layer 3 Codec ID : 55 Codec ID/Hint : MP3 Duration : 53 min 54 s Bit rate mode : Constant Bit rate : 128 kb/s Channel(s) : 2 channels Sampling rate : 48.0 kHz Compression mode : Lossy Stream size : 49.4 MiB (6%) Alignment : Aligned on interleaves Interleave, duration : 24 ms (0.60 video frame)
  3. ΑΥΣΤΗΡΩΣ ΚΑΤΑΛΛΗΛΟ (2008) DVDRip (DVDRip - easybytez - worldbytez - filefactory) Είδος: Κωμωδία Διάρκεια: 100' Έτος Παραγωγής: 2008 Χρώμα: Έγχρωμο Ήχος: Dolby Digital Γλώσσα: Ελληνικά Σκηνοθεσία: Μιχάλης Ρέππας, Θανάσης Παπαθανασίου Σενάριο: Μιχάλης Ρέππας, Θανάσης Παπαθανασίου Ηθοποιοί: Χριστίνα Τσάφου, Χριστίνα Μητροπούλου, Χρήστος Τριπόδης, Φώτης Σπύρος, Φωτεινή Ντεμίρη, Τάκης Παπαματθαίου, Σήμητρα Στογιάννη, Σάρα Γανωτή, Πυγμαλίων Δαδακαρίδης, Πηνελόπη Πιτσούλη, Πατρίκιος Κωστής, Όθων Μεταξάς, Οδυσσές Παπασπηλιόπουλος, Μαρία Κατσανδρή, Κώστας Ευριπιώτης, Κατερίνα Λέχου, Ζώγια Σεβαστιανού, Δημήτρης Τζουμάκης, Δημήτρης Καϊκης, Ασπασία Μηλιαράκη, Άννα Παναγιωτοπούλου, Αλέξανδρος Αντωνόπουλος Υπόθεση: Πρωταγωνιστές της ταινίας είναι δυο νέοι Έλληνες σκηνοθέτες, ταλαιπωρημένοι στο κυνήγι της επιχορήγησης, που προσπαθούν να βρουν παραγωγό για την πρώτη μεγάλου μήκους ταινία τους. Ο τίτλος της “το τέλος του πάθους” και το θέμα της οι τραγικοί έρωτες της Φαίδρας, της Μαντάμ Μποβαρύ και της Άννας Καρένινα. Κανένας παραγωγός δεν δέχεται να βάλει χρήματα σε μια τόσο καλλιτεχνική ταινία. Έτσι πέφτουν στα νύχια του Τάκη Πανουργιά, ο οποίος διαθέτει μια μικρή παρακμασμένη εταιρεία παραγωγής και ένα σκοτεινό παρελθόν. Στην δεκαετία του ‘70 ο Πανουργιάς ήταν βασιλιάς της τσόντας. Ο Πανουργιάς δέχεται να βάλει χρήματα αλλά έχει ένα κρυφό σχέδιο. Να γυρίσει την κανονική ταινία μεν, αλλά ταυτόχρονα στα ίδια σκηνικά με άλλους “ηθοποιούς” να γυρίσει την Φαίδρα, την Μποβαρύ και την Καρένινα σε τσόντα. Τολστόι, Φλομπέρ, Ευριπίδης, πορνό, μυστικοί έρωτες, ίντριγκες, φιλοδοξίες, ψέματα και υστερίες μέσα σε ένα χώρο που συγκατοικούν η πιο υψηλή έκφραση διανόησης και η πορνογραφία. Τι συμβαίνει όταν όλα αυτά μπερδεύονται στο ίδιο πλατώ; Ποια είναι τα όρια της τέχνης; Ποια είναι τα όρια της πορνογραφίας; Και εν τέλει ποια είναι τα όρια της ανθρώπινης ηλιθιότητας;
  4. TALL GIRL (2019) WEBRip XviD AC3-FGT | ENΣΩΜΑΤΩΜΕΝΟΙ ΥΠΟΤΙΤΛΟΙ ΣΚΗΝΟΘΕΣΙΑ : Nzingha Stewart ΣΕΝΑΡΙΟ : Sam Wolfson ΗΘΟΠΟΙΟΙ : Ava Michelle, Sabrina Carpenter, Angela Kinsey ΕΙΔΟΣ : Comedy ΠΡΕΜΙΕΡΑ : 13 September 2019 (USA) ΜΕΤΑΦΡΑΣΗ : AGNWSTOS IMDB: https://www.imdb.com/title/tt9252508/ Η Τζόντι, το ψηλότερο κορίτσι στο σχολείο της, ένιωθε πάντοτε άβολα με το σώμα της. Καμπουριάζοντας όλη της τη ζωή, ακούγοντας τα κοροϊδευτικά σχόλια των άλλων και αποφεύγοντας να τραβήξει την προσοχή με κάθε κόστος, η Τζόντι αποφασίζει μετά από πολλά χρόνια να βρει την αυτοπεποίθηση και να σταθεί στο ύψος της...
  5. O PAI TIRANO (1941) BRRip - ΞΕΧΩΡΙΣΤΟΙ ΥΠΟΤΙΤΛΟΙ Είδος Ταινίας: Κωμωδία Έτος: 1941 Διάρκεια: 114 λεπτά Σκηνοθεσία: António Lopes Ribeiro Σενάριο: António Lopes Ribeiro, Vasco Santana, Francisco Ribeiro Πρωταγωνιστές: Vasco Santana, Francisco Ribeiro, Leonor Maia Χρωματισμός Εικόνας: Ασπρόμαυρος Χώρα Παραγωγής: Πορτογαλία Γλώσσα: Πορτογαλικά Ελληνικός Τίτλος: Ο Τύραννος Πατέρας Υπότιτλοι: zachs75 - Πλοκή: Ο Φρανσίσκο, Τσίκο χαϊδευτικά, είναι ένας ντροπαλός και χαμηλών τόνων πωλητής παπουτσιών στο πολυκατάστημα Γκραντέλα. Συμμετέχει στην ερασιτεχνική θεατρική ομάδα «Οι Ατακαδόροι», που αυτή την εποχή κάνει τις τελικές πρόβες για το έργο «Ο Τύραννος Πατέρας», στο οποίο μάλιστα πρωταγωνιστεί. Σκηνοθέτης και συμπρωταγωνιστής του έργου είναι ο κος Σαντάνα, ένας λάτρης του θεάτρου, που όμως έχει καβαλήσει λίγο το καλάμι. Ο Τσίκο είναι τρελά ερωτευμένος με την Τατάου, μια κοπέλα που εργάζεται σε παρακείμενο κατάστημα αρωμάτων και καλλυντικών. Η Τατάου, όμορφη και δροσερή όπως είναι, έχει άλλα σχέδια για το μέλλον της. Αδιαφορεί για τον έρωτα του Τσίκο και επιτρέπει στον Αρτούρ, έναν νεόπλουτο επιδειξία, να την φλερτάρει. Όταν ο Τσίκο μπλέκει τον έρωτά του με το θίασο και την επικείμενη παράσταση, ό,τι θα ακολουθήσει, αποδεικνύεται άκρως τρελό και παλαβό! Το ταξίδι στο αφιέρωμα «EuroMini» των λιγότερο γνωστών στον κινηματογράφο ευρωπαϊκών χωρών επανακάμπτει στην Πορτογαλία, για την ταινία με τίτλο «Ο Τύραννος Πατέρας», από τις πλέον διάσημες της Κομέντια Πορτουγκέζα, της πορτογαλικής κωμωδίας. Όταν η υπόλοιπη Ευρώπη στροβιλιζόταν στη δίνη του Β’ Παγκοσμίου πολέμου, η Πορτογαλία, και ειδικά ο κινηματογράφος της, διήγαγαν τη χρυσή εποχή τους. Η ταινία θεωρείται ακόμα και σήμερα λαϊκός μύθος για το πορτογαλόφωνο κοινό. Έχει δώσει πάμπολλες ατάκες που χρησιμοποιούν έως και σήμερα οι Πορτογάλοι, Αγκολέζοι, Μοζαμβικανοί και Βραζιλιάνοι -άπαντες πορτογαλόφωνοι- στην καθημερινή τους ζωή, όπως η ατάκα προς το τέλος της ταινίας με το «Βάλε τότε δύο ποτήρια λευκό κρασί», που απεικονίζει παραστατικά την ανέμελη και μποέμ κρασοκατάνυξη. Στη χώρα μας η ταινία δεν έχει διατεθεί σε καμία μορφή προβολής. [video]https://www.youtube.com/watch?v=Iwx0JFpI218[/video] https://www.imdb.com/title/tt0033994/ ΤΕΧΝΙΚΑ ΧΑΡΑΚΤΗΡΙΣΤΙΚΑ General Complete name : O Pai Tirano (1941).mkv Format : Matroska Format version : Version 4 File size : 1.91 GiB Duration : 1 h 54 min Overall bit rate : 2 381 kb/s Encoded date : UTC 2019-09-07 10:22:43 Writing application : mkvmerge v37.0.0 ('Leave It') 32-bit Writing library : libebml v1.3.9 + libmatroska v1.5.2
  6. ΜΗΝ ΑΡΧΙΖΕΙΣ ΤΗ ΜΟΥΡΜΟΥΡΑ (2013- ) - ALL SEASONS - TVRip - ΣΥΝΕΧΗΣ ΑΝΑΝΕΩΣΗ Η 7η season ξεκίνησε. Η «Μουρμούρα» ξαναχτυπά για έκτη χρονιά! Με παλιές και καινούργιες αγάπες! Θα ζήσουμε μαζί τους τις χαρές, τα παθήματα και τα… μαθήματα τους. Μια νέα χρονιά, με περισσότερο κέφι, φαντασία, έμπνευση και πολλή καθημερινότητα! Στην αστεία εκδοχή της. Έχει να πάθει πολλά αυτή τη χρονιά ο αξιαγάπητος Μηνάς (Αντώνης Αντωνίου) από την τρελο-Βουλίτσα του (Ελένη Κοκκίδου). Αλλά, εδώ που τα λέμε, τα τραβάει ο οργανισμός του! Πόσο μάλλον τώρα που δεν θα είναι ζευγάρι μόνο στη ζωή αλλά και στη δουλειά, μια που η απόφασή της τώρα που εκπλήρωσε το όνειρο της για το απολυτήριο λυκείου, είναι να μην περιοριστεί στα άχαρα καθήκοντα της συζύγου του προέδρου μιας ερασιτεχνικής ποδοσφαιρικής ομάδας, αλλά να μπει στον κόσμο των… επιχειρήσεων. Και ποιος είναι καλύτερος συνέταιρος από τον Μηνά; Το ότι αρχικά θα το κάνει εν αγνοία του, είναι μια… λεπτομέρεια. Άλλωστε αυτά τα μικρά μυστικά, τρέφουν τη… μουρμούρα! Φέτος μαζί τους θα δούμε και άλλα πρόσωπα της οικογένειας. Τον μεγάλο αδελφό της Βούλας, τον Μανώλη (Γιώργος Κωνσταντίνου) αλλά και την πρώην αρραβωνιαστικιά του Μηνά, την Λιλίκα (Νατάσα Ασίκη). Μεγάλες ανατροπές, όμως, μας επιφυλάσσει και ο αγαπημένος μας Ηλίας (Βλαδίμηρος Κυριακίδης). Η καινούργια σεζόν θα τον βρει μακριά από την Αθήνα, σε μια άλλη πόλη. Διευθυντής εφορίας πλέον, αλλά και φρεσκοχωρισμένος, μια που ο κοινός τους βίος με την Μαρίνα τελείωσε. Δίπλα του και, ίσως όχι και τόσο στενοχωρημένη με τις εξελίξεις, η Ελπινίκη (Ελένη Γερασιμίδου) η μάνα–βράχος, που δεν θ’ αφήσει τον γιο της χωρίς στήριγμα, αλλά και χωρίς μουρμούρα. Φαντάζει αδύνατο να δούμε τον Ηλία χωρίς τη Μαρίνα του, αλλά οι ανατροπές κρατούν άσβεστη αυτή τη φλόγα που λέγεται «Μουρμούρα». Εξάλλου, ο «τυφώνας Καίτη» (Κλέλια Ρένεση) θα μπει δυναμικά στη ζωή του και θα φέρει τα πάνω κάτω. Νέα φάση ζωής για τον Ηλία, που κρύβει πολλές εκπλήξεις και θα γεμίσει με απίθανες καταστάσεις την καθημερινότητά του. Οι απολαυστικοί καρντάσηδες, Μπάμπης (Σπύρος Τσεκούρας) και Ξένια (Άννα Κουτσαφτίκη) και η κόρη τους Σοφία (Κωνσταντίνα Λιναρδάτου) που τους γνωρίσαμε πέρυσι και τους αγαπήσαμε σαν να τους ξέρουμε χρόνια, θα εξακολουθήσουν να μας κρατούν συντροφιά από την Θεσσαλονίκη, που, ευτυχώς, είναι ένα βήμα από την αγαπημένη τους Χαλκιδική, γιατί όπως λέει και ο Μπάμπης «σαν την Χαλκιδική δεν έχει». Μαζί τους, και ο Γιωργάκης (Μιχάλης Προσπαθόπουλος) φίλος και συμμαθητής της Σοφίας, που γίνεται συχνά ο καταλύτης ανάμεσα σε κόρη και μπαμπά. Από την παρέα δεν θα λείψει και η κυρία Σοφία (Ελισάβετ Κωνσταντινίδου) μαμά του Μπάμπη, η οποία φέτος θα αποποιηθεί την ταμπέλα της θλιμμένης χήρας και θα μας συστήσει το νέο της αμόρε. Ο Άγγελος (Σπύρος Χατζηαγγελάκης) και η Βέλη (Μαρία Χάνου), οι δύο μικρότεροι ήρωες της παρέας, που μας κέρδισαν με τη φρεσκάδα τους, θα μας συντροφέψουν και στο φετινό μας ταξίδι. Τόσο διαφορετικοί αλλά και τόσο ταιριαστοί μεταξύ τους, θα βρεθούν σε καινούργια μονοπάτια, με τον Άγγελο να αναλαμβάνει τη νέα του επαγγελματική θέση και τη Βέλη να αναθεωρεί τη δική της στάση ζωής… Το σενάριο υπογράφουν οι: Έλενα Σολωμού, Παναγιώτης Χριστόπουλος, Σάρα Γανωτή, Θέμης Γκυρτής, Φώφη Κώττη, Γιάννης Διακάκης, κ.ά. Σκηνοθετεί ο Διονύσης Φερεντίνος. Μουρμουρίζουν οι: Αντώνης Αντωνίου, Ελένη Κοκκίδου, Βλαδίμηρος Κυριακίδης, Κλέλια Ρένεση, Σπύρος Τσεκούρας, Άννα Κουτσαφτίκη, Σπύρος Χατζηαγγελάκης, Μαρία Χάνου. [video=youtube;nxganCnD8Pk]https://www.youtube.com/watch?v=nxganCnD8Pk[/video] ΤΕΧΝΙΚΑ ΧΑΡΑΚΤΗΡΙΣΤΙΚΑ General Complete name : Min.Arxizeis.Ti.Mourmoura.S06E01.DTB.x264-GrLTv.mkv Format : Matroska Format version : Version 4 / Version 2 File size : 390 MiB Duration : 44 min 45 s Overall bit rate mode : Variable Overall bit rate : 1 218 kb/s Encoded date : UTC 2018-10-03 20:31:42 Writing application : TMPGEnc Video Mastering Works 6 Version. 6.2.8.35 Writing library : TMPGEnc Video Mastering Works 6 Version. 6.2.8.35
  7. LA PASTA POMILΩRI Γ΄ΚΥΚΛΟΣ (2019-) ANT1CY WEBRip Αρχίζει ο Γ΄ΚΥΚΛΟΣ Πόσοι γνωρίζουν ότι η ντομάτα ονομάζεται και «φρούτο του έρωτα» …ναι αλήθεια … και σε αυτή την γλυκιά σειρά με αυτό θα ασχοληθούμε ..με αυτό το ολοκόκκινο φρούτο του πάθους αλλά και με τον .. έρωτα .. Ας μπούμε σε κάποια γειτονιά λοιπόν … φτωχική ,γραφική γειτονιά … που χαρούμενοι άνθρωποι εκεί έχουν πάντα γιορτή και μοιράζουνε φιλιά … που έχει νέες αλλά και γριές που για τον έρωτα μιλούν και άσε που μέρα νύχτα τραγουδούν κλπ κλπ… τι θα γίνει όμως όταν κάποιοι έρθουν για τους πάρουν αυτό τον χαρούμενο κόσμο … Τι θα γίνει; … αντί άσπρες κορδέλες που τα κορίτσια φοράνε θα τα βάψουνε μαύρα και θα σβήσουν το χαμόγελο … ή θα κάνουν τα πάντα για την γειτονιά τη γη και την ζωή τους … ; πάμε να το μάθουμε μαζί τους … πάμε να ζήσουμε εκεί που όλοι κατά βάθος θα θέλαμε … σε μια τέτοια χωριού γειτονιά … πάμε να καλλιεργήσουμε μαζί τους το φρούτο του έρωτα και να φτιάξουμε την ωραιότερη μακαρονάδα με κόκκινη σάλτσα .. la pasta pomilώri λοιπόν … και καλή όρεξη … Ηθοποιοί: Ηράκλης Γιωργαλλής, Κώστας Καζάκας, Μαρούσα Αβρααμίδου, Βαλεντίνα Σοφοκλέους, Λιάνα Χαλκιά, Λώρης Λοϊζίδης, Μάριος Δημητρίου, Φώτης Γιωργίδης, Πανίκος Πιλάλης, Μαριάννα Σάντη, Λουκία Πρωτοπαπά, Μαρία Μαστρίδου, Βίκτωρ Νικολαϊδης, Κωνσταντίνος Σωκράτους, Βιντζέσο Λορούσσο. General Complete name :LA.PASTA.S03.EP.01.avi Format : AVI Format/Info : Audio Video Interleave File size : 1.15 GiB Duration : 43 min 21 s Overall bit rate : 3 800 kb/s Video #0 ID : 0 Format : AVC Format/Info : Advanced Video Codec Format profile : [email protected] Format settings : 1 Ref Frames Format settings, CABAC : No Format settings, ReFrames : 1 frame Codec ID : H264 Duration : 43 min 21 s Bit rate : 3 658 kb/s Width : 1 280 pixels Height : 720 pixels Display aspect ratio : 16:9 Frame rate : 25.000 FPS Color space : YUV Chroma subsampling : 4:2:0 Bit depth : 8 bits Scan type : Progressive Bits/(Pixel*Frame) : 0.159 Stream size : 1.11 GiB (96%) Writing library : x264 core 146 r2538 121396c Audio #1 ID : 1 Format : MPEG Audio Format version : Version 1 Format profile : Layer 3 Codec ID : 55 Codec ID/Hint : MP3 Duration : 43 min 21 s Bit rate mode : Constant Bit rate : 128 kb/s Channel(s) : 2 channels Sampling rate : 48.0 kHz Compression mode : Lossy Stream size : 39.7 MiB (3%) Alignment : Aligned on interleaves Interleave, duration : 24 ms (0.60 video frame)
  8. ΜΗΝ ΨΑΡΩΝΕΙΣ (2019 - ) TVRip ΑΝΤ1 - ΣΥΝΕΧΗΣ ΑΝΑΝΕΩΣΗ Η ΝΕΑ ΚΩΜΙΚΗ ΣΕΙΡΑ ΤΟΥ ΑΝΤ1 ΠΡΩΤΑΓΩΝΙΣΤΟΥΝ: ΘΟΔΩΡΗΣ ΑΘΕΡΙΔΗΣ ΚΑΙ ΜΑΡΙΑ ΛΕΚΑΚΗ! ΠΡΕΜΙΕΡΑ, ΤΕΤΑΡΤΗ 16 ΙΑΝΟΥΑΡΙΟΥ ΣΤΙΣ 21:45 ΣΤΟΝ ΑΝΤ1! Δύο εκ διαμέτρου αντίθετοι κόσμοι. Δύο εντελώς διαφορετικοί άνθρωποι. Εκείνη ήταν πάμπλουτη. Εκείνος είναι άνθρωπος του μόχθου. Πώς θα αντέξουν ο ένας τον άλλον; Μην ψαρώνεις. Όλα θα ανατραπούν και τα λεφτά θα πάψουν να έχουν αξία. Η νέα κωμική σειρά «Μην Ψαρώνεις» με τη Μαρία Λεκάκη και τον Θοδωρή Αθερίδη στους πρωταγωνιστικούς ρόλους έρχεται Τετάρτη 16 Ιανουαρίου στις 21:45 στον ΑΝΤ1! Τη σκηνοθεσία έχει αναλάβει ο Πιέρρος Ανδρακάκος ενώ το σενάριο υπογράφει ο Άγγελος Χασάπογλου. Αυτή είναι πλούσια. Πολύ πλούσια. Ζει σε μια έπαυλη, με υπηρετικό προσωπικό, σοφέρ και τεράστιο κήπο. Αυτός πάλι όχι. Ζει μια κανονική ζωή, σε ένα κανονικό σπίτι χωρίς να του λείπει τίποτε. Αυτή πηγαίνει σε φιλανθρωπικά γκαλά, αυτός πουλάει ψάρια. Όταν αυτή θα χάσει τα πάντα και αναγκαστεί να μετακομίσει στην ίδια γειτονιά με εκείνον, οι δύο κόσμοι τους θα συγκρουστούν… Αυτή είναι η Σάντυ Αγραφιώτη (Μαρία Λεκάκη), μία γυναίκα που δεν έχει εργαστεί ποτέ στη ζωή της και ζει μέσα στα πλούτη και την πολυτέλεια. Μία ημέρα, όμως, χάνει τα πάντα και η παραμυθένια της ζωή αρχίζει να μοιάζει με εφιάλτη, αφού ο σύζυγός της την εγκαταλείπει και διαφεύγει στο εξωτερικό αφήνοντας πίσω του μόνο χρέη. Από τη μία στιγμή στην άλλη, η Σάντυ χάνει τα πάντα. Αναγκάζεται να εγκαταλείψει την παλιά της ζωή και μαζί με τις τρεις κόρες της και τη μητέρα της μετακομίζουν σε μία φτωχογειτονιά. Εκεί, η Σάντυ ανακαλύπτει έναν νέο κόσμο που θα της αποδείξει πως μπορεί να τα καταφέρει τα πάντα όταν γύρω της υπάρχει αγάπη. Αυτός είναι ο Μανώλης Αραποστάθης (Θοδωρής Αθερίδης), ένας άνδρας που ποτέ δεν φοβήθηκε τη ζωή και δεν έπαψε να εργάζεται σκληρά στην ψαραγορά και να υπερασπίζεται τα δικαιώματα των συναδέρφων του. Δεν είναι τυχαίο που στην ψαραγορά τον φωνάζουν «καρχαριομάχο». Από τότε που έχασε τη γυναίκα του δεν ξαναπαντρεύτηκε, αφού προτεραιότητά του είναι μόνο τα παιδιά του. Η ζωή όμως έχει άλλα σχέδια για εκείνον. Η συνάντηση της Σάντυ και του Μανώλη θα είναι επεισοδιακή. Μία λάθος όπισθεν θα αλλάξει τις ζωές τους αλλά και τις ζωές των παιδιών τους για πάντα. Θα μπορέσουν, άραγε, αυτοί οι δύο κόσμοι να συνυπάρξουν; Η νέα κωμική σειρά του ΑΝΤ1 θα μας υπενθυμίσει πως ό,τι κι αν συμβεί, η ζωή είναι ωραία. Γι’ αυτό, «Μην Ψαρώνεις». Τετάρτη16 Ιανουαρίου στις 21:45 στον ΑΝΤ1! Πρωταγωνιστούν: Θοδωρής Αθερίδης, Μαρία Λεκάκη, Φαίδρα Δρούκα, Μαρία Ιωαννίδου, Τάσος Παλαντζίδης, Φιόνα Γεωργιάδη, Ειρήνη Ψυχράμη, Δημήτρης Αριανούτσος, Θανάσης Ζερίτης Ελεάνα Καυκαλά, Θάνος Λέκκας, Γιάννης Σίντος, Σάντυ Χατζηιωάννου. Στο ρόλο του Διονύση Αγραφιώτη ο Δημήτρης Μαυρόπουλος. Σκηνοθεσία: Πιέρρος Ανδρακάκος Διασκευή σεναρίου: Άγγελος Χασάπογλου [video=youtube;IxGo6baOJ_0]https://www.youtube.com/watch?v=IxGo6baOJ_0[/video] ΤΕΧΝΙΚΑ ΧΑΡΑΚΤΗΡΙΣΤΙΚΑ General Complete name : Min.Psarwneis.S01E01.DTB.x264-GrLTv.mkv Format : Matroska Format version : Version 4 File size : 436 MiB Duration : 44 min 11 s Overall bit rate : 1 378 kb/s Encoded date : UTC 2019-01-16T21:08:28Z Writing application : HandBrake 1.1.2 2018090500 Writing library : Lavf57.7.2
  9. SUCCESS STORY (2017) OWN DVDRip ΠΛΗΡΟΦΟΡΙΕΣ Σκηνοθεσία: Νίκος Περάκης Ηθοποιοί: Κωνσταντίνος Μαρκουλάκης, Φιόνα Γεωργιάδη, Πάνος Μουζουράκης, Τόνια Σωτηροπούλου, Τζένη Θεωνά, Κωνσταντίνος Αβαρικιώτης, Βάσω Καβαλιεράτου, Αννίτα Κούλη, Ανδρέας Κωνσταντίνου, Νάσος Παπαργυρόπουλος, Ηλίας Βαλάσης, Πάνος Κρανιδιώτης, Γιάννης Κοκιασμένος Είδος: Κωμωδία Ημερομηνία Εξόδου: 2 Νοεμβρίου 2017 ΥΠΟΘΕΣΗ Σε φίλια κινηματογραφικά ύδατα, ο Περάκης σατιρίζει για άλλη μία φορά τη διαπλεκόμενη νεοελληνική πραγματικότητα, υπογράφοντας –πιο συγκεντρωμένος αφηγηματικά– την καλύτερη ταινία του τα τελευταία χρόνια. Έξι χρόνια μακριά από την κάμερα, ο Νίκος Περάκης επιστρέφει πίσω της για χάρη ενός σεναρίου της Κατερίνας Μπέη (έχουν γράψει μαζί τα «Θηλυκή Εταιρία» και «Η Φούσκα»), το οποίο σατιρίζει με εντελώς… περακικό τρόπο τη νεοελληνική πραγματικότητα. Αυτή της αυταπάτης, της διαπλοκής κι ενός απαστράπτοντος lifestyle, το οποίο ακόμη πουλάει όχι μόνο πρωτοσέλιδα, αλλά και πολιτικό μέλλον. Έτσι στο «Success Story» παρακολουθούμε, από δύο οπτικές γωνίες, την ιστορία του εύπορου ψυχιάτρου και γιου μεγαλοεκδότη Παναγή Πάνδωρα και της όμορφης, φιλόδοξης μα άνεργης ηθοποιού Τζορτζίνας Τσελέπη. Οι δυο τους θα ερωτευτούν αστραπιαία κι εξίσου γρήγορα θα παγιδευτούν σε μια ανθρωποφάγο έγγαμη σχέση. Καθώς η κατάσταση έχει φτάσει και για τους δύο στα άκρα, η ένταση κορυφώνεται την ημέρα που ο Πάνδωρας αναγγέλλει την κάθοδό του στην πολιτική. Οικείες φυσιογνωμίες από το χώρο των media, της showbiz και του κοσμικού κουτσομπολιού αποτελούν τους ήρωες αυτής της μαύρης κωμωδίας, η οποία περιγράφει με ανάλαφρο τόνο μα πικρή και κυνική διάθεση ακόμη ένα εθνικό μας «success story». Ο Περάκης το έχει επιχειρήσει, περισσότερο ή λιγότερο επιτυχημένα, σε μια σειρά ταινιών του («Προστάτης Οικογενείας», «Θηλυκή Εταιρία», «Η Φούσκα», «Ψυχραιμία», «Σειρήνες στη Στεριά»), οι οποίες διακρίνονται για την αφηγηματική ταχύτητα, την πολυπρόσωπη πλοκή και τη σκωπτική τους ματιά απέναντι στο κοινωνικοπολιτικό μας αλαλούμ. Με την ίδια μεθοδολογία και τεχνική, αλλά πολύ πιο συγκεντρωμένος όσον αφορά τους χαρακτήρες και το χτίσιμό τους, ο έμπειρος σκηνοθέτης δομεί τη σάτιρά του σαν αστείο θρίλερ, το σασπένς του οποίου συντηρεί ένα έξυπνο, παράλληλο μοντάζ. Την ιστορία του Παναγή και της Τζορτζίνας τη μαθαίνουμε από συνεχή φλας μπακ, τα οποία παρεμβάλλονται σε μια περιπετειώδη συνέντευξη Τύπου. Αν και πολλές σεκάνς μοιάζουν να επαναλαμβάνουν τον εαυτό τους και οι σατιρικές βολές δεν είναι όλες εύστοχες, η ιστορία έχει ζουμί και ο Περάκης το εκμεταλλεύεται υπογράφοντας την καλύτερη ταινία του τα τελευταία χρόνια. Από Χρήστο Μήτση athinorama.gr https://www.imdb.com/title/tt7320478/ https://www.cine.gr/film.asp?id=723182 ΤΕΧΝΙΚΑ ΧΑΡΑΚΤΗΡΙΣΤΙΚΑ General Complete name : SUCCESS STORY (2017).mkv Format : Matroska Format version : Version 2 File size : 2.17 GiB Duration : 1 h 46 min Overall bit rate : 2 924 kb/s Movie name : SUCCESS_STORY.Title3 Encoded date : UTC 2019-01-23 08:33:36 Writing application : DVDFab 9.1.7.1 Writing library : libebml v0.7.8 + libmatroska v0.8.1
  10. Έτος: 1997 Τηλεοπτική Σειρά Κανάλι: Mega Ημερομηνία προβολής πρώτου επεισοδίου: 27 Φεβρουαρίου 1995 Ημερομηνία προβολής τελευταίου επεισοδίου: 1995 Ημέρα προβολής: Δευτέρα Κύκλοι επεισοδίων: 1 Αριθμός επεισοδίων: 15 Διάρκεια επεισοδίου: 25' Είδος: Κωμική Σκηνοθεσία: Κώστας Κιμούλης , Γιώργος Νικολαϊδης (I) Σενάριο: Δήμητρα Πούλκου , Θέτις Σαμπάνη Ηθοποιοί: Ισαβέλλα Βλασσιάδου (Χριστίνα) , Στάθης Κακαβάς (Παύλος Πετρόπουλος) , Πέρης Μιχαηλίδης (Παντελής Ρίκος) , Μπέττυ Νικολέση (Αλέκα) , Βασίλης Βασιλάκης (I) (Τζόνι) , Σωτήρης Βάγιας (Μαρκήσιος) , Αριάδνη Μακίνου (Τζόρτζια) , Ευτυχία Γιακουμή (Πώλα) , Ντίνος Κωνσταντινίδης , Μάκης Αρβανιτάκης , Λεωνίδας Χρυσομάλλης , Γεωργία Χρηστίδου , Ζανό Ντάνιας (4ο επ.) , Δημήτρης Βέλλιος , Στέφανος Κανιούρας , Βασιλική Αγιαννοπούλου , Αριστοτέλης Αποσκίτης (Βλαδίμηρος) , Αρτό Απαρτιάν (Σάκης) , Θεόφιλος Βανδώρος (Παναγιώτης Παρθένης) , Έλση Μαντζανά Περίληψη: Η Αλέκα και η Χριστίνα είναι φίλες και συγκάτοικοι, μαθηματικός η μία, ζωγράφος με σπουδές στο Παρίσι η άλλη. Αρκετά ιδιόρρυθμοι χαρακτήρες και οι δύο, καταπιέζονται εύκολα..γι' αυτό και εγκαταλείπουν τις μόνιμες δουλειές τους για κάτι το..διαφορετικό. Εκμεταλλεύονται τη γνωριμία τους με τον Παύλο Πετρόπουλο, γνωστό Αθηναίο πλέι μπόι, για να βρουν δουλειά σε πιο "ιν" κυκλώματα. Πώς τα καταφέρνουν όμως και τελικά καταλήγουν..καθαρίστριες στο σπίτι του; Ο Παύλος όμως ξέρει να βοηθά τους φίλους του. Γι' αυτό και τις συστήνει και στην κοπέλα του για να..καθαρίζουν και στο δικό της σπίτι. Έτσι οι υστερίες για το "κάτι άλλο" δίνουν τη θέση τους στις ιστορίες και στα γεγονότα που συμβαίνουν όχι μόνο στη ζωή των δύο κοριτσιών αλλά και στη ζωή των υπολοίπων, γιατί, τελικά, αυτές δε συγυρίζουν, αυτές τα κάνουν όλα άνω-κάτω.
  11. Τίτλος τηλεοπτικής σειράς: Το πιο γλυκό μου ψέμα Έτος: 2002 Τηλεοπτική Σειρά Κανάλι: ΑΝΤ1 Ημερομηνία προβολής πρώτου επεισοδίου: 21 Οκτωβρίου 2002 Ημερομηνία προβολής τελευταίου επεισοδίου: 2004 Ημέρα προβολής: Δευτέρα Κύκλοι επεισοδίων: 2 Αριθμός επεισοδίων: 57 Διάρκεια επεισοδίου: 45' Είδος: Κωμική Εταιρία παραγωγής: Ena Productions Παραγωγός: Κωνσταντίνος Σταρίδας Σκηνοθεσία: Ανδρέας Μορφονιός Σενάριο: Πάνος Έξαρχος Φωτογραφία: Κώστας Καπλάνης Ηθοποιοί: Σοφία Αλιμπέρτη (Μαρίνα Παύλου) , Θανάσης Ευθυμιάδης (Βαγγέλης Παρταλίδης) , Θεοδώρα Σιάρκου (Καίτη) , Κώστας Κρομμύδας (Πέτρος) , Νίκος Ορφανός (Μπάμπης) , Βαλερία Κουρούπη (Ναταλί) , Ναταλία Μίγδου (Ιωάννα) , Μαρίνος Βουρδαμής (Κώστας) , Γιάννης Τσιμιτσέλης (Γιάννης, 2ος κύκλος) , Αγγελική Σπηλιοπούλου (Έλενα, 2ος κύκλος) , Τάκης Γιαννούτσος (άντρας στο ΚΤΕΛ) , Γιάννης Τότσικας (κυρ-Ανέστης) , Δημήτρης Γεροδήμος (Νίκος) , Θόδωρος Ιγνατιάδης (κοσμηματοπώλης/αστυνομικός) , Ιωάννα Γκαρδιακού (Τζέσικα, φωτομοντέλο) , Ηλίας Ζερβός (Τεό, φωτογράφος) , Γιάννης Μπέζος (Αριστείδης Μαμαλούκος) , Μαρία Αντωλινάρη (Σωτήρης) , Γιάννης Τσουνίδης (Σούλα) , Μαρία Μαρτίκα (Συμέλα) , Νίκος Βασιλειάδης (I) (Θωμάς, αδελφός Μαρίνας) , Στέλλα Καπεζάνου (Στέλλα) , Φωτεινή Μπαξεβάνη (Ανδρούτσου) , Σωκράτης Πατσίκας (Πρόδρομος Γαρμπής, σεναριογράφος) , Πρόδρομος Τοσουνίδης (Σωκράτης Βεληγκέκας, σκηνοθέτης) , Δήμητρα Φλουρή (Ξένια Ρούσσου, δημοσιογράφος) , Σύλβια Δεληκούρα (Δήμητρα Παλαιολόγου) , Χρήστος Σπανός (Στάθης) , Θεοδώρα Βουτσά (Σούλα) , Λεμονιά Γιανναρίδου (ρεπόρτερ TV) , Λένα Παπαρηγοπούλου , Άντζελα Ευριπίδη , Κάλλι Τσιλίδου , Ναστάζια , Μιχάλης Ασλάνης , Ελένη Καψάσκη (μητέρα Μαρίνας) , Στέφανος Τραγανός (πατέρας Μαρίνας) , Γιάνκα Αβαγιανού (μητέρα Πέτρου) , Δημήτρης Βεάνος (πρόεδρος δικαστηρίου) , Αλέκος Μάνδυλας (ηθοποιός, πατέρας) , Άμυ Πασσά , Μένια Αναγνωστοπούλου (Μένια, συμμαθήτρια Βαγγέλη) , Βασίλης Σαμαριτάκης (ηθοποιός, γιος) , Νταλ Ρη Αλβιζέ , Βλαδίμηρος Κυριακίδης (Μεμάς Λατσίρης) , Ζωή Ναλμπάντη (Πηνελόπη, δασκάλα) , Κοσμάς Χειράκης (συμμαθητής Βαγγέλη) , Φιλιώ Μπινιάρου (συμμαθήτρια Βαγγέλη) , Δημήτρης Μάνεσης (συμμαθητής Βαγγέλη) , Αθηνά Μερτύρη (Λαμπρινή) , Καίτη Γρηγοράτου (πελάτισσα Μαρίνας) , Χρήστος Πλαϊνης (Δημήτρης) , Γιούλη Καλλιβρετάκη , Ειρήνη Τσιάρη (Σαντάλ) , Γιώργος Χαλεπλής (Διοικητής Αστυνομίας) , Κωνσταντίνος Κακούρης (Κώστας, συμμαθητής Βαγγέλη) , Γιούλη Αγγελή (νοσοκόμα) , Γιολάντα Μπαλαούρα (Ισαβέλλα Μπιμπίδου-Κίντμαν) , Αριάδνη Στάγκου , Δήμητρα Ψαρρού , Σπυριδωνία Κρανιώτη , Στάθης Κόκκορης , Μαρία Γουλά (Άννα Νικολάου) , Στέλιος Κρανιάς , Εύα Γαλάνη (II) , Ευφροσύνη Κόκκορη , Μαρία Αντουλινάκη Περίληψη: Μια δικηγόρος της υψηλής κοινωνίας με λογοτεχνικές φιλοδοξίες και ένας γοητευτικός επαρχιώτης, που σιγά-σιγά μεταμορφώνεται σε διανοούμενο, είναι τα κεντρικά πρόσωπα αυτής της πρωτότυπης, αισθηματικής κωμωδίας. Στην προσπάθειά της να καταξιωθεί ως συγγραφέας, η όμορφη νομικός στέλνει το βιβλίο της σε έναν εκδοτικό οίκο υπογράφοντας με αντρικό όνομα. Η παράτολμη αυτή κίνηση την οδηγεί σε μια σειρά απίστευτων παρεξηγήσεων, αφού η εκδοτική εταιρία εκτός από το βιβλίο, θέλει να "πουλήσει" και την εικόνα ενός άντρα συγγραφέα-sex symbol. Έτσι η συγγραφέας αναγκάζεται να δώσει σάρκα και οστά στο ανύπαρκτο αυτό αρσενικό, με την βοήθεια του επαρχιώτη, που απέχει πολύ από την εικόνα του σέξι διανοούμενου. Όταν μπαίνει στο παιχνίδι και ο έρωτας, όλα μπερδεύονται γλυκά...
  12. Έτος: 2008 Τηλεοπτική Σειρά Κανάλι: Alpha Ημερομηνία προβολής πρώτου επεισοδίου: 6 Οκτωβρίου 2008 Ημερομηνία προβολής τελευταίου επεισοδίου: 27 Δεκεμβρίου 2008 Ημέρα προβολής: Δευτέρα, Σάββατο Κύκλοι επεισοδίων: 1 Αριθμός επεισοδίων: 7 Είδος: Κωμική Παραγωγός: Γιάννης Καραγιάννης Σκηνοθεσία: Βλαδίμηρος Κυριακίδης , Σπύρος Μιχαλόπουλος Σενάριο: Yolanda Garcia Serrano , Juan Luis Iborra , Ignacio del Moral , Joaquin Oristrell , Rocio Picatoste , Μαρία Χατζηγρηγορίου (μετάφραση έργου) Φωτογραφία: Γιώργος Παπαδόπουλος (IX) Σκηνικά: Κική Μήλιου Ηθοποιοί: Βλαδίμηρος Κυριακίδης (Ανδρέας) , Κλέων Γρηγοριάδης (Βασίλης Καρράς) , Κώστας Αποστολάκης (Στράτος) , Μαριλίτα Λαμπροπούλου (Ρένα Πιερρή) , Ανδρομάχη Μαρκοπούλου , Μαρία Μπαγανά (Έφη) , Κατερίνα Σαβράνη , Κατερίνα Τσάβαλου (Χριστίνα) , Χρήστος Μάντακας , Γιάννης Δρακόπουλος , Δημήτρης Πιέτρης , Μαργαρίτα Βαρλάμου , Κατερίνα Κουτά , Δημήτρης Τσακάλας , Κατερίνα Γερονικολού , Αλεξάνδρα Δεμενεοπούλου , Βασίλης Γαλαίος , Δημήτρης Λιάτης , Θόδωρος Ρωμανίδης (δάσκαλος) , Γιώργος Ψάλτου , Άννα Μενενάκου , Βασίλης Μπαξεβάνης , Λορίνα Κατσιώτη , Θοδωρής Μαυρογόνατος , Βίκυ Χαντζή (II) (Έλλη) , Μαρία Καρακίτσου , Στέλλα Χατζημιχελάκη , Νίκος Σκοτίδας , Νίκος Τσεργάς , Όλγα Βούλγαρη-Αδακτύλου (κα Νικηφόρου) , Στέλιος Παύλου , Χρήστος Λιακόπουλος , Χριστίνα Γκορίτσα , Κάρμεν Ρουγγέρη Κοστούμια: Μανώλης Γαλετάκης Βοηθός Σκηνοθέτη: Κωνσταντίνος Ησαϊας Περίληψη: Ο Βασίλης, ο Στράτος και ο Ανδρέας είναι χωρισμένοι με παιδιά και βρίσκονται σε ψυχολογικό αδιέξοδο. Όμως, παρά τα προβλήματα που αντιμετωπίζουν, δε χάνουν ποτέ το κέφι τους και τη δίψα για ζωή και αγάπη. Αποφασίζουν, λοιπόν, να ενώσουν τις δυνάμεις τους και να μείνουν μαζί. Αυτή η συγκατοίκηση θα τους ενώσει και θα τους κάνει για πάντα φίλους, αλλά η ανάγκη τους για μια οικιακή βοηθό θα βάλει στο σπίτι τους μια νέα, ανύπαντρη μητέρα, που προσπαθεί να "χτίσει" από την αρχή τη ζωή της. H Ρένα θα προσπαθήσει να βάλει σε τάξη την αταξία του σπιτιού αλλά και της προσωπικής τους ζωής, επιβεβαιώνοντας για άλλη μία φορά ότι οι άντρες έχουν πάντα ανάγκη από μια γυναικεία παρουσία δίπλα τους. Τρεις άντρες από τη μια πλευρά και μία γυναίκα από την άλλη, που παίρνει σιγά-σιγά στα χέρια της τα ηνία της δικής της ζωής αλλά και αυτής των άλλων.
  13. ΤΡΕΙΣ ΚΑΙ Ο ΚΟΥΚΟΣ (1986) TVRip Τίτλος τηλεοπτικής σειράς: Τρεις και ο... κούκος! a.k.a. And father makes four Έτος: 1986 Τηλεοπτική Σειρά Ημερομηνία προβολής πρώτου επεισοδίου: 14 Μαρτίου 1986 Ημερομηνία προβολής τελευταίου επεισοδίου: 26 Σεπτεμβρίου 1986 Κύκλοι επεισοδίων: 1 Αριθμός επεισοδίων: 26 Διάρκεια επεισοδίου: 30' Είδος: Κωμική Σκηνοθεσία: Γιώργος Κωνσταντίνου (I) , Κώστας Λυχναράς Σενάριο: Γιώργος Κωνσταντίνου (I) Μουσική σύνθεση: Γιώργος Θεοδοσιάδης (II) Ηθοποιοί: Γιώργος Κωνσταντίνου (I) (Αντώνης Αχλάδης) , Τζοβάνα Φραγκούλη (Αννίτα Αχλάδη) , Γιάννης Βούρος (Σούλης Αχλάδης) , Μαίρη Σακέλη (Ειρήνη Αχλάδη) , Τζόλυ Γαρμπή (Θεώνη) , Γιάννης Ευαγγελίδης (Νίκος) , Κώστας Καραγιώργης (Νίκος) , Κώστας Παληός (Χρήστος) , Κάρμεν Ρουγγέρη (δεσποινίς Ασημίνα) , Μαρία Σπαντιδάκη (Αλίκη) , Κική Πέρση (Χαρίκλεια) , Ισμήνη Καλέση (Βάσια) , Ηρώ Μουκίου (Έστερ Καρλόγλου) , Στέλιος Λιονάκης (Καρλόγλου) , Χρήστος Μάντζαρης (Αλέκος (παραγωγός βιντεοταινιών)) , Γιούλη Σταμουλάκη (Χάρις Σισμούνδου (μητέρα Αλίκης)) , Φρύνη Αρβανίτη (Μάγδα) , Γιούλη Μπάρκα , Δημήτρης Βασματζής (Ντίνος Σάψαλης) , Δημήτρης Μπάνος , Γιάννης Σμυρναίος , Σπύρος Μισθός , Τέτα Κωνσταντά , Θόδωρος Κατσαφάδος , Νίκος Λυκομήτρος , Θόδωρος Δημήτριεφ , Παναγιώτης Ζαγανιάρης , Βίκυ Καπετάνη , Λευτέρης Μελέτης , Έλενα Μιχαήλ , Βάνα Μπάρμπα , Μιχάλης Μικαήλος , Γιάννης Χριστόπουλος (I) , Αλέκος Ζαρταλούδης , Γιάννα Κρέζου , Τάσος Πολυχρονόπουλος , Αντώνης Σαραλής , Μαρία Σόκαλη , Ελένη Φωτεινάκη Ο Αντώνης Αχλάδης είναι συγγραφέας αισθηματικών μυθιστορημάτων, χήρος και πατέρας τριών παιδιών, του Σούλη, της Αννίτας και της μικρής Ρηνούλας. Καθώς βρίσκεται σε οικονομική απόγνωση, δέχεται να αναλάβει τη στήλη ενός περιοδικού με θέμα την ερωτική αλληλογραφία, υπογράφοντας με το ψευδώνυμο Νινέτα. Η νέα του δραστηριότητα τον διευκολύνει οικονομικά, αλλά του δημιουργεί δυσκολίες στις προσωπικές και οικογενειακές του σχέσεις, που συν τοις άλλοις ταλανίζονται και από τα ερωτικά σκιρτήματα των δύο μεγαλύτερων παιδιών του και του..κολλητού του Χρήστου. [video]https://www.youtube.com/watch?v=z6VlWcL62uI[/video] ΤΕΧΝΙΚΑ ΧΑΡΑΚΤΗΡΙΣΤΙΚΑ General Complete name : 3KI1PTHNO.S01E01.avi Format : AVI Format/Info : Audio Video Interleave File size : 292 MiB Duration : 30 min 38 s Overall bit rate : 1 332 kb/s Writing application : Lavf57.21.100
  14. Director: Jules Dassein (as Jules Dassin) Writer: Jules Dassein (as Jules Dassin) Stars: Melina Mercouri, Jules Dassein, Giorgos Foundas Official Sites: MGM Country: Greece Language: English | Greek | Russian Release Date: 9 September 1960 (West Germany) Also Known As: Ποτέ την Κυριακή Filming Locations: Athens, Greece Ένας Αμερικάνος τουρίστας, ο Homer Thrace (Jules Dassin), περιφέρεται στα στέκια του λιμανιού. Έχει έρθει στην Ελλάδα γοητευμένος από τον αρχαίο πολιτισμό και τη φιλοσοφία της, αναζητώντας την "Αιώνια Αλήθεια". Όμως στην περιπλάνησή του στον Πειραιά, μια γνωριμία του θα είναι καθοριστική. Θα συναντήσει μία νεαρή πόρνη, την Ίλια (Μελίνα Μερκούρη). Γοητεύεται από το δυναμισμό της, από τη φιλοσοφία ζωής της, από την αγνότητα και καθαρότητα της μορφής της και τέλος από τον ιδιαίτερο τρόπο με τον οποίο ασκεί το επάγγελμά της. Η Ίλια επιλέγει τους εραστές, δεν επιλέγεται απ' αυτούς. Ο Homer, ως άλλος Πυγμαλίωνας, θα επιχειρήσει να "διαπλάσει" το χαρακτήρα της νέας κοπέλας, να τη διδάξει τις υψηλές αξίες του πολιτισμού. Όμως η Ίλια γρήγορα θα αλλάξει προσανατολισμό και θα εγκαταλείψει τα μαθήματα που της προσφέρει ο Αμερικάνος τουρίστας. https://www.imdb.com/title/tt0054198/
  15. Ο ΑΡΧΟΝΤΟΧΩΡΙΑΤΗΣ (1992-93) Βουτσάς TVrip (TVrip-Θεατρικό -Βουτσάς - easybytez - worldbytez - filefactory) Θέατρο: Περοκέ Περίοδος: Χειμώνας ‘92-‘93 Είδος: Κωμωδία Έτος: 1993 Διάρκεια: 104' Μετάφραση: Παρασκεύη Καραγιαννίδου Κανάλι: ΑΝΤ1 Pacific Τελεσκηνοθεσία: Γιώργος Φίλης Σκηνοθέτης: Κώστας Μπάκας Μουσική: Ζαν Μπατιστ Λουλλυ Συγγραφέας: Moliere Σχόλια: Ο Αρχοντοχωριάτης, μία κωμωδία-μπαλέτο, στην οποία ο Μολιέρος σατυρίζει την εμμονή των μεγαλοαστών για αριστοκρατικούς τίτλους ευγενείας. Ηθοποιοί: Κώστας Βουτσάς Πέτρος Φυσσούν Χρυσούλα Διαβάτη Θάνος Καληώρας Θάνος Παπαδόπουλος Έφη Μουρίκη Μανώλης Πουλιάσης Αρετή Ζαχαριάδου (Νικολέτα)
  16. Why Women Kill - Season 1 (2019) WebRip xviD | ΞΕΧΩΡΙΣΤΟΙ ΕΛΛΗΝΙΚΟΙ ΥΠΟΤΙΤΛΟΙ ΠΛΗΡΟΦΟΡΙΕΣ Είδος σειράς: Comedy, Crime, Drama Δημιουργός : Marc Cherry Ηθοποιοι : Lucy Liu, Ginnifer Goodwin, Kirby Howell-Baptiste IMDB : www.imdb.com/title/tt9054904/ Yπότιτλοι: Eλληνικοί Ξεχωριστοί ΥΠΟΘΕΣΗ Γυναίκες τι συμβαίνει όταν αυτές φτάνουν στα όρια τους; Πρωταγωνίστριες είναι τρεις γυναίκες διαφορετικών δεκαετιών, μία νοικοκυρά της δεκαετίας του 1960, μία κοσμική της δεκαετίας του 1980 και μία δικηγόρος της δεκαετίας του 2000, των οποίων τις ζωές παρακολουθούμε παράλληλα. Τις γυναίκες αυτές ενώνουν δύο κοινά στοιχεία: ως παντρεμένες έζησαν στο ίδιο σπίτι και ανακαλύπτουν ότι οι άντρες τους τους απατούν. Το τελευταίο στοιχείο, μάλιστα, δημιουργεί ακόμα ένα κοινό σημείο ανάμεσα τους. Θέλουν και οι τρεις να σκοτώσουν τους άντρες τους. TRAILER EasyBytez
  17. ΣΠΙΤΙ ΕΙΝΑΙ (2019 - ) 720p HDTv x264 - GrLTv Σκηνοθεσία: Ανδρέας Μορφονιός Σενάριο: Δήμητρα Τσόλκα Σεναριογράφοι: Ζωή Κοΐβαρη, Νίκος Μήτσας Παίζουν: Εβελίνα Παπούλια (Ράνια), Αλέξανδρος Λογοθέτης (Σωτήρης), Μπέττυ Μαγγίρα (Αθηνά), Θωμαΐς Ανδρούτσου (Ελένη), Μαρία Κωνσταντάκη (Τζέμα), Αντώνης Φραγκάκης (Νικήτας), Γιώργος Παπαγεωργίου (Ανέστης), Γιάννης Χατζηγεωργίου (Λευτέρης), Ναταλία Καλημερατζή (Σταυρούλα), Γιώργος Παπανδρέου (Βασίλης), Ιάσονας Καστόρης (Αλκίνοος), Αγάπη Πετροπουλέα (Αρσινόη) και η Μαρία Αλιφέρη (Ζωίτσα). Η Ράνια είναι μια γυναίκα αφοσιωμένη στην καριέρα της. Ανεξάρτητη, δυναμική και ελεύθερη… ακόμη και όταν είναι σε σχέση. Μέχρι τώρα δεν έχει συγκατοικήσει ποτέ με κανέναν, αφού συνειδητά δεν θέλει να κάνει οικογένεια. Ο Σωτήρης απ’ την άλλη, πυροσβέστης στο επάγγελμα, είναι ένας άντρας που τον καθορίζει η οικογένεια. Πατέρας και πρώην σύζυγος 24 ώρες το 24ωρο. Στα 18 του απέκτησε παιδί με την τότε κοπέλα του, την οποία και παντρεύτηκε, μπαίνοντας στα βάσανα του γάμου και του χωρισμού από μικρός. Στη συνέχεια είπε να το ξαναδοκιμάσει και ξαναπαντρεύτηκε, έκανε άλλα 2 παιδιά και ξαναχώρισε. Λίγο μετά τα 40 τους αυτοί οι δύο, φαινομενικά τόσο διαφορετικοί, άνθρωποι ερωτεύονται. Ερωτεύονται πολύ. Όχι, ο Σωτήρης αυτή τη φορά δεν σκέφτεται το γάμο, ούτε καν τη συγκατοίκηση. Ούτε φυσικά και η Ράνια. Όμως η ζωή έχει χιούμορ και τους αναγκάζει να ζήσουν στο ίδιο σπίτι, και πιο συγκεκριμένα στο σπίτι της Ράνιας, μιας και του Σωτήρη κάηκε ολοκληρωτικά. Η Ράνια σε αυτή τη συγκατοίκηση δεν είναι μόνη με τον Σωτήρη, καθώς ο Σωτήρης δεν είναι ποτέ μόνος. Με τον έναν ή τον άλλον τρόπο καταφέρνουν παιδιά, πρώην σύζυγοι και πεθερικά, κολλητοί και συγγενείς να εισβάλουν στο σπίτι και τη ζωή τους. Αποτέλεσμα; Χάος! Ή μήπως όχι; Θα καταφέρει η Ράνια να διατηρήσει την τακτοποιημένη ζωή που τόσο αγαπά ή θα αγαπήσει περισσότερο αυτή την εναλλακτική και τεράστια οικογένεια που απέκτησε ξαφνικά χωρίς να το περιμένει; [video=youtube;T8ePoNsMasU]https://www.youtube.com/watch?v=T8ePoNsMasU[/video] ΤΕΧΝΙΚΑ ΧΑΡΑΚΤΗΡΙΣΤΙΚΑ General Complete name : Spiti.Einai.S01Ε01.720p.HDTV.x264-GrLTv.mkv Format : Matroska Format version : Version 4 / Version 2 File size : 803 MiB Duration : 40 min 53 s Overall bit rate mode : Variable Overall bit rate : 2 745 kb/s Writing application : TMPGEnc Video Mastering Works 6 Version. 6.2.10.37 Writing library : TMPGEnc Video Mastering Works 6 Version. 6.2.10.37
  18. ΣΠΙΤΙ ΕΙΝΑΙ...(2019-2020) ALPHATv WEBRip AVI Τι είναι αυτή η καινούργια σειρά, ποιοι οι ήρωές της και ποια η ιστορία στο σενάριο της Δήμητρας Τσόλκα; Όπως αναφέρεται στην ανακοίνωση του σταθμού “Σπίτι είναι… ένας πυροσβέστης, μία εργασιομανής, δύο πρώην σύζυγοι, μία πρώην πεθερά, τρία παιδιά, ένας αδερφός, ένας φίλος, μία γραμματέας και μία κολλητή. Η Ράνια είναι μια γυναίκα αφοσιωμένη στην καριέρα της. Ανεξάρτητη, δυναμική και ελεύθερη… ακόμη και όταν είναι σε σχέση. Μέχρι τώρα δεν έχει συγκατοικήσει ποτέ με κανέναν, αφού συνειδητά δεν θέλει να κάνει οικογένεια. Ο Σωτήρης απ’ την άλλη, πυροσβέστης στο επάγγελμα, είναι ένας άντρας που τον καθορίζει η οικογένεια. Πατέρας και πρώην σύζυγος 24 ώρες το 24ωρο. Στα 18 του απέκτησε παιδί με την τότε κοπέλα του, την οποία και παντρεύτηκε, μπαίνοντας στα βάσανα του γάμου και του χωρισμού από μικρός. Στη συνέχεια είπε να το ξαναδοκιμάσει και ξαναπαντρεύτηκε, έκανε άλλα 2 παιδιά και ξαναχώρισε. Λίγο μετά τα 40 τους αυτοί οι δύο, φαινομενικά τόσο διαφορετικοί, άνθρωποι ερωτεύονται. Ερωτεύονται πολύ. Όχι, ο Σωτήρης αυτή τη φορά δεν σκέφτεται το γάμο, ούτε καν τη συγκατοίκηση. Ούτε φυσικά και η Ράνια. Όμως η ζωή έχει χιούμορ και τους αναγκάζει να ζήσουν στο ίδιο σπίτι, και πιο συγκεκριμένα στο σπίτι της Ράνιας, μιας και του Σωτήρη κάηκε ολοκληρωτικά. Η Ράνια σε αυτή τη συγκατοίκηση δεν είναι μόνη με τον Σωτήρη, καθώς ο Σωτήρης δεν είναι ποτέ μόνος. Με τον έναν ή τον άλλον τρόπο καταφέρνουν παιδιά, πρώην σύζυγοι και πεθερικά, κολλητοί και συγγενείς να εισβάλουν στο σπίτι και τη ζωή τους. Αποτέλεσμα; Χάος! Ή μήπως όχι; Θα καταφέρει η Ράνια να διατηρήσει την τακτοποιημένη ζωή που τόσο αγαπά ή θα αγαπήσει περισσότερο αυτή την εναλλακτική και τεράστια οικογένεια που απέκτησε ξαφνικά χωρίς να το περιμένει;” Η σκηνοθεσία είναι του Ανδρέα Μορφονιού, το σενάριο της Δήμητρας Τσόλκα και μαζί της οι Ζωή Κοΐβαρη και Νίκος Μήτσας. Παίζουν: Εβελίνα Παπούλια (Ράνια), Αλέξανδρος Λογοθέτης (Σωτήρης), Μπέττυ Μαγγίρα (Αθηνά), Θωμαΐς Ανδρούτσου (Ελένη), Μαρία Κωνσταντάκη (Τζέμα), Αντώνης Φραγκάκης (Νικήτας), Γιώργος Παπαγεωργίου (Ανέστης), Γιάννης Χατζηγεωργίου (Λευτέρης), Ναταλία Καλημερατζή (Σταυρούλα), Γιώργος Παπανδρέου (Βασίλης), Ιάσονας Καστόρης (Αλκίνοος), Αγάπη Πετροπουλέα (Αρσινόη) και η Μαρία Αλιφέρη (Ζωίτσα). General Complete name :HOME.EP.01.avi Format : AVI Format/Info : Audio Video Interleave File size : 1.24 GiB Duration : 40 min 54 s Overall bit rate : 4 330 kb/s Video #0 ID : 0 Format : AVC Format/Info : Advanced Video Codec Format profile : [email protected] Format settings : 1 Ref Frames Format settings, CABAC : No Format settings, ReFrames : 1 frame Codec ID : H264 Duration : 40 min 54 s Bit rate : 4 188 kb/s Width : 1 280 pixels Height : 720 pixels Display aspect ratio : 16:9 Frame rate : 25.000 FPS Color space : YUV Chroma subsampling : 4:2:0 Bit depth : 8 bits Scan type : Progressive Bits/(Pixel*Frame) : 0.182 Stream size : 1.20 GiB (97%) Writing library : x264 core 146 r2538 121396c Audio #1 ID : 1 Format : MPEG Audio Format version : Version 1 Format profile : Layer 3 Codec ID : 55 Codec ID/Hint : MP3 Duration : 40 min 54 s Bit rate mode : Constant Bit rate : 128 kb/s Channel(s) : 2 channels Sampling rate : 48.0 kHz Compression mode : Lossy Stream size : 37.4 MiB (3%) Alignment : Aligned on interleaves Interleave, duration : 24 ms (0.60 video frame)
  19. ΠΕΤΑ ΤΗ ΦΡΙΤΕΖΑ (2018 - ) ΑΝΤ1 - ΣΥΝΕΧΗΣ ΑΝΑΝΕΩΣΗ Ένας διάσημος σεφ με τις συνταγές του να υπακούουν ευλαβικά στις επιταγές της υψηλής γαστρονομίας και όχι στην παράδοση, και ένας ταπεινός ιδιοκτήτης ταβέρνας που ορκίζεται στη δύναμη της… φριτέζας. Δύο διαφορετικοί κόσμοι, δύο διαφορετικοί μάγειρες με το ίδιο, όμως, μεράκι για το φαγητό και τις γεύσεις ετοιμάζονται να σερβίρουν την πιο νόστιμη συνταγή, εκείνη της ευτυχίας! Η ΙΣΤΟΡΙΑ O ελληνικής καταγωγής Κίμωνας Ορλώφ (Φάνης Μουρατίδης) είναι ένας διεθνούς φήμης σεφ, βραβευμένος με πολλά αστέρια Michelin. Αυστηρός, υπερόπτης και χωρίς φίλους έχει επιλέξει τη μοναχική ζωή. Ξαφνικά, θα ανακαλύψει ότι πραγματικός του πατέρας δεν είναι ο άνδρας που τον μεγάλωσε αλλά, ο ιδιοκτήτης της ταβέρνας, «Η Λαγουδέρα», η οποία βρίσκεται σε ένα γραφικό παραθαλάσσιο χωριό, το Φτασμένο. Ο Ανδρέας Μπασκιάς (Γιάννης Μπέζος) ο ξεροκέφαλος αλλά καλόψυχος ιδιοκτήτης της «Λαγουδέρας» αντιμετωπίζει σοβαρά οικονομικά προβλήματα και η ταβέρνα του κινδυνεύει να κλείσει. Τότε, εμφανίζεται ο Κίμωνας που θα του προτείνει να εξαγοράσει την ταβέρνα του αλλά δεν του αποκαλύπτει πως είναι γιος του. Οι δυο τους θα πρέπει να συνεργαστούν αν ο Ανδρέας θέλει να σώσει την επιχείρησή του. Οι συγκρούσεις τους θα είναι μεγάλες και κάθε επεισόδιο συναρπαστικά απολαυστικό! Άλλωστε ποιος είπε ότι είναι εύκολη η προσαρμογή από τα sous vide στις φριτέζες και τις γάστρες; Η σειρά «Πέτα τη Φριτέζα», βασισμένη στο τηλεοπτικό σίριαλ «El Chiringuito de Pepe», που έκανε θραύση στην Ισπανία, έρχεται στην Ελλάδα με σπαρταριστούς διαλόγους και ένα δυναμικό καστ καταξιωμένων και νέων ηθοποιών. Σκηνοθεσία: Ανδρέας Μορφονιός Σενάριο: Γιώργος Κρητικός – Μάκης Πιτταράς Εκτέλεση παραγωγής: J.K Productions Πρωταγωνιστούν: Γιάννης Μπέζος, Φάνης Μουρατίδης, Γεράσιμος Σκιαδαρέσης, Τζένη Μπότση, Ελένη Ουζουνίδου, Νικολέτα Κοτσαηλίδου, Πηνελόπη Πλάκα, Ηλίας Μουλάς, Λεωνίδας Μαράκης, Παύλος Πιέρρος, Στέφανος Μουαγκιέ, Κυριάκος Σαλής, Νεφέλη Κουλούρη [video=youtube;IkwCza68umI]https://www.youtube.com/watch?v=IkwCza68umI[/video] ΤΕΧΝΙΚΑ ΧΑΡΑΚΤΗΡΙΣΤΙΚΑ General Complete name : Peta.ti.Friteza.S01E01.DTB.x264-GrLTv.mkv Format : Matroska Format version : Version 4 / Version 2 File size : 393 MiB Duration : 44 min 35 s Overall bit rate mode : Variable Overall bit rate : 1 231 kb/s Encoded date : UTC 2018-09-24 21:50:36 Writing application : TMPGEnc Video Mastering Works 6 Version. 6.2.9.36 Writing library : TMPGEnc Video Mastering Works 6 Version. 6.2.9.36
  20. ΕΝΑΣ ΚΟΝΤΟΣ ΘΑ ΜΑΣ ΣΩΣΕΙ (1981) DVDRip (DVDRip - easybytez - worldbytez) Είδος: Κωμωδία Διάρκεια: 100' Έτος: 1981 Χρώμα: Έγχρωμο Ήχος: Dolby Digital Γλώσσα: Ελληνικά Εταιρία παραγωγής: Καραγιάννης-Καρατζόπουλος Σκηνοθεσία: Κώστας Καραγιάννης Σενάριο: Λάκης Μιχαηλίδης , Πολύβιος Βασιλειάδης Μουσική σύνθεση: Τάκης Μουσαφίρης Τραγουδούν: Ρίτα Σακελλαρίου , Αρετή Κυπραίου , Μάριος Κυπραίος Ηθοποιοί: Νίκος Ρίζος (Φώντας Τσακίρης) , Έλενα Ναθαναήλ (Φλώρα) , Έλσα Ρίζου (Μάρθα) , Κώστας Καραγιώργης (Λουκάς Παπατρέξης) , Καίτη Λαμπροπούλου (Μίρβα) , Νίκος Βερλέκης , Έφη Κοσμά (γραμματέας) , Δημήτρης Ιωακειμίδης (Παναγής, αδελφός Μάρθας) , Άλκης Ζερβός (Χάρης Μπελόκας) , Πάνος Μιχαλόπουλος (γύφτος) , Ντίνος Ηλιόπουλος (Σπύρος Αποστόλου) , Ανθή Γούναρη (Φρόσω) , Δημήτρης Μπάνος , Αλέκος Ζαρταλούδης , Μάρκος Λεζές (τροχονόμος) , Θανάσης Λιάμης , Ηλίας Κακλαμάνης , Απόστολος Σουγκλάκος (Σουγκλάκος) , Άννα Τσώνη (Μαριάννα) Υπόθεση: Ο Φώντας Τσακίρης είναι οδηγός νταλίκας και φανατικός τηλεθεατής. Το όνειρό του είναι να αποκτήσει δικό του ταξί, αλλά χάνει τη δουλειά του και έτσι αναγκάζεται να αναζητήσει αλλού εργασία. Προσφεύγει σε μια εταιρεία τηλεοπτικών παραγωγών, την οποία διευθύνει η Φλώρα, η δυναμική κόρη του ντελικάτου Σπύρου Αποστόλου. Εκεί, ο σκηνοθέτης των μεγάλων επιτυχιών Χάρης Μπελόκας ανακαλύπτει το ταλέντο του και ο Φώντας δέχεται να πρωταγωνιστήσει στο νέο σίριαλ, με τον όρο να κρατήσει κρυφό το γάμο του με τη Μάρθα, η οποία αναγκάζεται να παριστάνει την αδελφή του, τη Χριστίνα. Στη συνέχεια, τον ερωτεύεται η συμπρωταγωνίστριά του, μια παλιά πριμαντόνα της όπερας και ερωμένη του Αποστόλου, η Μίρβα. Ακολουθεί η γραμματέας της Φλώρας, που κι αυτή ξετρελαίνεται με τον Φώντα που τώρα κινδυνεύει να χάσει τη γυναίκα του και να διαλύσει το σπίτι του. Η άφιξη όμως στην Αθήνα του Μανιάτη αδελφού της Μάρθας, του σκληροτράχηλου Παναγή, αποκαθιστά την τάξη, καθώς ο τελευταίος βάζει τα πράγματα στη θέση τους. Σχόλια: Η ταινία προβλήθηκε τη σαιζόν 1981-1982 και έκοψε 53.994 εισιτήρια. Ήρθε στην 26η θέση σε 45 ταινίες. Ελληνική παρωδία του δημοφιλούς εκείνη την εποχή αμερικάνικου σήριαλ "Ντάλας". Ο Πάνος Μιχαλόπουλος αναγράφεται στους τίτλους σαν "Παύλος Μιχαλόπουλος", ενώ ο Απόστολος Σουγκλάκος δεν αναφέρεται στους τίτλους. Η Άννα Τσώνη επίσης δεν αναγράφεται
  21. LAST CALL FOR NOWHERE / DEBARQUEMENT IMMEDIAT (2016)FRENCH DVDRiP XViDAC3 NOTAG | ENΣΩΜΑΤΩΜΕΝΟΙ ΥΠΟΤΙΤΛΟΙ ΣΚΗΝΟΘΕΣΙΑ : Philippe de Chauveron ΣΕΝΑΡΙΟ : Philippe de Chauveron (scenario), Philippe de Chauveron ΗΘΟΠΟΙΟΙ : Ary Abittan, Medi Sadoun, Cyril Lecomte ΕΙΔΟΣ : Comedy ΠΡΕΜΙΕΡΑ : 2 February 2017 (Greece) ΜΕΤΑΦΡΑΣΗ : DVD IMDB: https://www.imdb.com/title/tt5597946/ Ο σκηνοθέτης/σεναριογράφος και δύο εκ των πρωταγωνιστών του «Θεέ μου, τι σου Κάναμε;» επιστρέφει με μια ακόμη ξεκαρδιστική, αιχμηρή κωμωδία! Ο Χοσέ έχει μία τελευταία έκδοση κρατούμενου πριν την πολυπόθητη προαγωγή του. Όμως, ο κρατούμενός του, Ακίμ, εξοργίζεται όταν αντιλαμβάνεται ότι του έχουν φορτώσει κατά λάθος την ταμπέλα του υποψήφιου τρομοκράτη και τον στέλνουν πίσω στην Καμπούλ. Αυτό που ξεκινά σαν ταξίδι ρουτίνας καταλήγει σε μπελά, αφού το αεροπλάνο τους προσγειώνεται στη Μάλτα και ο Ακίμ διαφεύγει, αναγκάζοντας τον Χοσέ να ξεκινήσει το πιο τρελό ανθρωποκυνηγητό με αναπάντεχες και εκρηκτικές επιπλοκές...
  22. Είδος Ταινίας: Comedy, Music, Musical Πρεμιέρα: 4 May 2017 (Australia) Σκηνοθέτης: Neil Triffett Σενάριο: Neil Triffett Ηθοποιοί: Benson Jack Anthony, Jordan Hare, Rahart Adams Υπότιτλοι: Ελληνικοί Ενσωματωμένοι & Σε Ξεχωριστό Αρχείο Ελληνικός Τίτλος: Emo το Μιούζικαλ Μετάφραση: Κατερίνα Τσιρέκα Διάρκεια: 94' Καταλληλότητα: -encoder: .:Sexmeup:. Πηγή: 1080p.NF.WEBRip.DD5.1.x264-SiGMA Υπόθεση: Αφού αποβάλλεται από ένα ιδιωτικό ύστερα από μια απόπειρα αυτοκτονίας, ο emo Ίθαν μπαίνει στο Σέιμορ Χάι και γνωρίζει μια γλυκιά Χριστιανή που θέλει να τον αλλάξει. https://www.imdb.com/title/tt5460068/ [video=youtube;gys5KPHOirs]https://www.youtube.com/watch?v=gys5KPHOirs ΑΝ ΘΕΛΕΤΕ ΝΑ ΣΤΗΡΙΞΕΤΕ ΤΗΝ ΔΟΥΛΕΙΑ ΜΟΥ ΚΑΝΤΕ ΕΥΚΟΛΑ ΚΑΙ ΓΡΗΓΟΡΑ ΛΟΓΑΡΙΑΣΜΟ ΣΤΟ EASYBYTEZ KAI KATEΒΑΣΤΕ ΣΑΝ PREMIUM AΠO 20HOST!! http://www.easybytez.com/free2771.html
  23. Είδος Ταινίας: Comedy, Music, Musical Πρεμιέρα: 4 May 2017 (Australia) Σκηνοθέτης: Neil Triffett Σενάριο: Neil Triffett Ηθοποιοί: Benson Jack Anthony, Jordan Hare, Rahart Adams Υπότιτλοι: Ελληνικοί Ενσωματωμένοι & Σε Ξεχωριστό Αρχείο Ελληνικός Τίτλος: Emo το Μιούζικαλ Μετάφραση: Κατερίνα Τσιρέκα Διάρκεια: 94' Καταλληλότητα: -encoder: .:Sexmeup:. Πηγή: 1080p.NF.WEBRip.DD5.1.x264-SiGMA Υπόθεση: Αφού αποβάλλεται από ένα ιδιωτικό ύστερα από μια απόπειρα αυτοκτονίας, ο emo Ίθαν μπαίνει στο Σέιμορ Χάι και γνωρίζει μια γλυκιά Χριστιανή που θέλει να τον αλλάξει. https://www.imdb.com/title/tt5460068/ [video=youtube;gys5KPHOirs]https://www.youtube.com/watch?v=gys5KPHOirs ΑΝ ΘΕΛΕΤΕ ΝΑ ΣΤΗΡΙΞΕΤΕ ΤΗΝ ΔΟΥΛΕΙΑ ΜΟΥ ΚΑΝΤΕ ΕΥΚΟΛΑ ΚΑΙ ΓΡΗΓΟΡΑ ΛΟΓΑΡΙΑΣΜΟ ΣΤΟ EASYBYTEZ KAI KATEΒΑΣΤΕ ΣΑΝ PREMIUM AΠO 20HOST!! http://www.easybytez.com/free2771.html
  24. Director: Bob Fosse Writers: Neil Simon (from the New York stage production book by), Federico Fellini (based upon the screenplay by: "Nights of Cabiria") Stars: Shirley MacLaine, John McMartin, Ricardo Montalban Country: USA Language: English Release Date: 17 May 1969 (Japan) Also Known As: Σουήτ Τσάριτυ Filming Locations: New York Port Authority Bus Terminal Rooftop Parking Lot - Corner of W 42nd Street and 8th Avenue, Manhattan, New York City, New York, USA https://www.imdb.com/title/tt0065054/ Υπότιτλοι Μετάφραση :spapan1992
  25. Είδος Ταινίας: Comedy, Family Πρεμιέρα: 22 January 2016 (Turkey) Σκηνοθέτης: Meltem Bozoflu Σενάριο: Eray Akyamaner (screenplay), Sila Cetindag (screenplay) (as Sila Cetindag) Ηθοποιοί: Aziz Aslan, Kivanc Baran Aslan, Onur Atilla Υπότιτλοι: Ελληνικοί Ενσωματωμένοι & Σε Ξεχωριστό Αρχείο Ελληνικός Τίτλος: Τράβα την Πρίζα Μετάφραση: Δημήτρης Λεμονής Διάρκεια: 100' Καταλληλότητα: -encoder: .:Sexmeup:. Πηγή: 1080p.NF.WEB-DL.x264-SEXMEUP Υπόθεση: Ο πατέρας μιας οικογένειας είναι κλινικά νεκρός και σύντομα θα αποδιασωληνωθεί. Η πολυμελής οικογένειά του τον περιτριγυρίζει και σφετερίζεται την κληρονομιά. https://www.imdb.com/title/tt5191238/ [video=youtube;Enz1CaM1qaM]https://www.youtube.com/watch?v=Enz1CaM1qaM ΑΝ ΘΕΛΕΤΕ ΝΑ ΣΤΗΡΙΞΕΤΕ ΤΗΝ ΔΟΥΛΕΙΑ ΜΟΥ ΚΑΝΤΕ ΕΥΚΟΛΑ ΚΑΙ ΓΡΗΓΟΡΑ ΛΟΓΑΡΙΑΣΜΟ ΣΤΟ EASYBYTEZ KAI KATEΒΑΣΤΕ ΣΑΝ PREMIUM AΠO 20HOST!! http://www.easybytez.com/free2771.html
×