Search the Community

Showing results for tags 'κωμωδία'.



More search options

  • Search By Tags

    Type tags separated by commas.
  • Search By Author

Content Type


Forums

  • ΓΕΝΙΚΑ - GENERAL
    • Γενικές Ανακοινώσεις - General Announcements
    • Κανόνες - Rules
    • Βοηθητικοί Οδηγοί
    • Συζήτηση - Discussion
    • Συστηθείτε - Introduse yourself
    • Γαστρονομικές Οπτασίες - Recipes
    • Το γέλιο είναι μεταδοτικό... Μεταδώστε το!!! - Fun Place
  • ΕΛΛΗΝΙΚΗ ΜΟΥΣΙΚΗ - GREEK MUSIC
    • Νέα CDs 2016-2019
    • Promos
    • Ελληνικά Ψηφιακά Cds - Greek Digital Cds
    • Ελληνικά CDs 2010-2015
    • Παλαιότερα Ελληνικά CDs μέχρι το 2009
    • Παραδοσιακά CDs
    • Ρεμπέτικο Στέκι
    • Δισκάκια 45 στροφών και γραμμοφώνου
    • Επανεκδόσεις
    • Συλλογές
    • Box Set Collections
    • Ελληνικά Mix - Remix
    • Παιδικά Ελληνικά CDs
    • Δισκογραφίες
  • ΞΕΝΗ ΜΟΥΣΙΚΗ - INTERNATIONAL MUSIC
    • Νέα CDs 2016-2019
    • Παλαιότερα Ξένα CDs
    • Συλλογές
    • Box Set Collections
    • Ξένα Mix - Remix
    • Παιδικά Ξένα CDs
    • Δισκογραφίες
  • ΜΟΥΣΙΚΗ ΣΕ ΠΟΙΟΤΗΤΑ LOSSLESS
    • Ελληνικά CDs
    • Ξένα CDs
  • ΤΑΙΝΙΕΣ - MOVIES
    • Ελληνικές Ταινίες - Greek Movies
    • Ξένες Ταινίες με ελληνικούς υπότιτλους 2016 - 2019
    • Ξένες Ταινίες με ελληνικούς υπότιτλους 1991 - 2015
    • Παλαιότερες Κλασσικές Ξένες Ταινίες (μέχρι το 1990)
    • Ξένες Ταινίες Micro HD
    • Ξένες Ταινίες HD 720p BRRIP Avi
    • Ξένες Ταινίες BluRay
    • Φιλμογραφίες
    • Παιδικές Ταινίες
    • Ντοκιμαντέρ
  • ΕΠΟΧΙΑΚΑ
    • Χριστούγεννα
    • Πάσχα
    • Αποκριές
    • Αγίου Βαλεντίνου
  • ΤΗΛΕΟΠΤΙΚΟ ΠΡΟΓΡΑΜΜΑ
    • Ελληνικές Σειρές
    • Ξένες Σειρές
    • Τούρκικες Σειρές
    • Τηλεοπτικές Eκπομπές
  • ΠΑΙΧΝΙΔΙΑ - GAMES
    • Pc Games
    • Play Station Games
    • XBOX
    • Mac Games
  • ΕΦΑΡΜΟΓΕΣ - ΠΡΟΓΡΑΜΜΑΤΑ
    • Λειτουργικά Προγράμματα
    • Προγράμματα Προστασίας
    • Εργαλεία Συστήματος
    • Εργαλεία Πολυμέσων
    • Portable Προγράμματα
    • Προγράμματα για Mac
    • Internet Tools
    • Tutorials
  • E-BOOKS
    • Έλληνες Συγγραφείς
    • Ξένοι Συγγραφείς
    • Κόμικς
    • Περιοδικά
  • ΑΝΑΖΗΤΗΣΗ
    • Μουσική
    • Ταινίες - Σειρές
    • Παιχνίδια
    • Προγράμματα
    • E-Books
  • V.I.P

Find results in...

Find results that contain...


Date Created

  • Start

    End


Last Updated

  • Start

    End


Filter by number of...

Found 1,316 results

  1. ΜΑΖΙ ΤΑ ΦΑΓΑΜΕ (2018) TVRip (TVRip - easybytez - worldbytez - filefactory) Είδος: Κωμωδία Διάρκεια: 101' Πρεμιέρα (Ελλάδα): 22 Φεβρουαρίου 2018 Χώρα Παραγωγής: Ελλάδα Ήχος: Dolby Digital Χρώμα: Έγχρωμο Γλώσσα: Ελληνικά Σενάριο: Μάνος Ψιστάκης Σκηνοθεσία: Στράτος Μαρκίδης Ηθοποιοί: Κώστας Αποστολάκης, Μπέσυ Μάλφα, Σωτήρης Καλυβάτσης, Αντώνης Καφετζόπουλος, Γεράσιμος Σκιαδαρέσης, Δημήτρης Μαυρόπουλος, Κώστας Ευριπιώτης, Γιώργος Γιαννόπουλος, Θωμαϊς Ανδρούτσου, Κατερίνα Στικούδη. Υπόθεση: Ο Σωτήρης Παπακώστας εργάζεται ως υπεύθυνος προμηθειών σε έναν γνωστό και μεγάλο Δημόσιο Οργανισμό. Είναι απόλυτα έντιμος και ευσυνείδητος υπάλληλος, συνεπής σε όλα του τα καθήκοντα. Η γυναίκα του Γκέλλυ έχει συμβιβαστεί με τις αρχές του άντρα της αλλά ταυτόχρονα η καθημερινότητά της είναι δύσκολη αφού τα οικονομικά της οικογενείας της πάνε από το κακό στο χειρότερο.. Μία μέρα έρχονται σε επαφή μαζί της οι προϊστάμενοι του άντρας της και την πείθουν να υποδείξει εμμέσως στον Σωτήρη έναν δικό τους προμηθευτή, με το αζημίωτο φυσικά. Η Γκέλλυ τα καταφέρνει και από εκείνη την στιγμή αναλαμβάνει με διάφορα γυναικεία κόλπα να επηρεάζει τον Σωτήρη προκειμένου αυτή να εισπράττει πλούσιες μίζες εν αγνοία του.
  2. ΜΙΑ ΤΡΕΛΛΗ ΤΡΕΛΛΗ ΟΙΚΟΓΕΝΕΙΑ (1965) DVDrip [DVDrip - Καρέζη - easybytez - worldbytez - filefactory] Είδος Ταινίας: Κωμωδία Διάρκεια: 105 λεπτά Χρώμα: Έγχρωμο Ήχος: Dolby Digital Γλώσσα: Ελληνικά Παραγωγή:Φίνος Φιλμ 'Α Προβολή: 25 Οκτωβρίου 1965 Έτος Παραγωγής: 1965 Σενάριο: Νίκος Τσιφόρος Σκηνοθεσία: Ντίνος Δημόπουλος Μουσική: Μίμης Πλέσσας Τραγούδι: Γιάννης Βογιατζής Ηθοποιοί: Αλέκος Αλεξανδράκης Τζένη Καρέζη Αθηνόδωρος Προύσαλης Αλέκος Αλεξανδράκης Αλέκος Τζανετάκος Γιώργος Γαβριηλίδης Δημήτρης Καλλιβωκάς Μαίρη Αρώνη Διονύσης Παπαγιαννόπουλος Κατερίνα Γώγου Λίλη Παπαγιάννη Νικήτας Πλατής Νίτσα Μαρούδα Τασσώ Καββαδία Νάσος Κεδράκας Ελένη Κριτή Μαρία Μαρτίκα Αρετή Ανδρέου Μπάμπης Ανθόπουλος Γιώργος Γρηγορίου Άγγελος Μαυρόπουλος Μιχάλης Μπαλής Ε Τραϊφόρος Υπόθεση: Η μεγάλη κόρη μιας οικογένειας επιστρέφει παντρεμένη μετά από ένα σύντομο ταξίδι στη Βενετία, ενώ ήταν αρραβωνιασμένη με άλλον και επρόκειτο να παντρευτούν σύντομα. Τώρα, ο νέος της σύζυγος θα αναλάβει να βάλει σε τάξη τα πράγματα, συνεργαζόμενος με τον πατέρα της οικογένειας, ο οποίος είχε διωχθεί από το σπίτι. Σχόλια: Η ταινία προβλήθηκε τη σαιζόν 1965-1966 και έκοψε 521.134 εισιτήρια. Ήρθε στην 5η θέση σε 101 ταινίες. Πρόκειται για κινηματογραφική διασκευή του θεατρικού έργου του Νίκου Τσιφόρου και του Πολύβιου Βασιλειάδη με τίτλο "Οι Γυναίκες Προτιμούν Τους Σκληρούς".
  3. ΤΑ ΚΙΤΡΙΝΑ ΓΑΝΤΙΑ (1960) DVDrip (DVDrip - Σταυρίδης - easybytez - worldbytez - filefactory) Είδος:Κωμωδία Διάρκεια Ταινίας:79λεπτά Έτος Παραγωγής: Δευτέρα 12 Δεκεμβρίου 1960 Χρώμα: Ασπρόμαυρο Ήχος: Dolby Digital Γλώσσα: Ελληνικά Παραγωγή: Δαμασκηνός - Μιχαηλίδης, Φίνος Φιλμς Σκηνοθεσία:Αλέκος Σακελλάριος Σενάριο:Χρήστος Γιαννακόπουλος Αλέκος Σακελλάριος Μουσική:Τάκης Μωράκης Τραγούδι: Μίμης Φωτόπουλος Υπόθεση: Η τακτική παρουσία του μουστακαλή εραστή της υπηρέτριας του έξω από το σπίτι, ένα ζευγάρι κίτρινα γάντια και μια σειρά συμπτώσεων σ’ ένα καφενεδάκι στους Αγίους Θεοδώρους, οδηγούν έναν παθολογικά ζηλιάρη σύζυγο στη βεβαιότητα πως η γυναίκα του τον απατά. Ηθοποιοί: Νίκος Σταυρίδης Μάρω Κοντού Μίμης Φωτόπουλος Μάρθα Βούρτση Παντελής Ζερβός Υβόνη Βλαδίμηρου Μπέμπη Κούλα Γιάννης Γκιωνάκης Κώστας Δούκας Γιώργος Μπέλλος Πόπη Λάζου Παναγιώτης Καραβουσιάνος Γιώργος Τζιφός Μαίρη Φορμόζη Μαργαρίτα Αθανασίου Θόδωρος Καμενίδης Στέλλα Σπυροπούλου Δημήτρης Σημηριώτης Παντελής Παλιεράκης
  4. ΤΗΣ ΚΑΚΟΜΟΙΡΑΣ (1963) «Ο ΜΠΑΚΑΛΟΓΑΤΟΣ» DVDrip [DVDrip- Χατζηχρήστος - easybytez - worldbytez - filefactory] Είδος Ταινίας: Κωμωδία Διάρκεια: 90 λεπτά Έτος Παραγωγής: 1963 Γλώσσες: Ελληνικά 'Ηχος: Dolby Digital Ελληνική Πρεμιέρα: 18 Ιουνίου 1963 Σκηνοθέτης: Ντίνος Κατσουρίδης Σενάριο: Ντίνος Κατσουρίδης Μουσική:Γιώργος Μουζάκης Τραγουδά: Χρ. Βαμβακάς Ηθοποιοί: Κώστας Χατζηχρήστος Κώστας Δούκας Μαρίκα Νέζερ Νίκος Ρίζος Ντίνα Τριάντη Θανάσης Μυλωνάς Νέλλη Παππά Νίκος Φέρμας Β Κορμού Γιώργος Ολύμπιος Υβόνη Βλαδίμηρου Γιώργος Βελέντζας Κώστας Μεντής Χρήστος Βαμβακάς Υπόθεση: Ο Ζήκος, ένας επαρχιώτης μπακαλόγατος, δουλεύει στην επιχείρηση του Κυρ Παντελή και είναι τρελά ερωτευμένος με τη γειτόνισσά του τη Φιφίκα. Το αφεντικό του είναι ερωτευμένος με τη φίλη της Φιφίκας, τη Λίτσα και για να την πλησιάσει βάζει προξενήτρα να τακτοποιήσει την υπόθεση και να τη ζητήσει από τον πατέρα της. Τη στιγμή που όλα είναι έτοιμα για την ανακοίνωση της πρότασης και το μεγάλο βήμα, εμφανίζονται δύo υποψήφιοι γαμπροί για τις κοπέλες καταστρέφοντας τα σχέδια του Ζήκου και του κυρ Παντελή. Σχόλια - Κριτικές Αν ο Κώστας Χατζηχρήστος θα μπορούσε να υπερηφανευτεί για κάποιες ταινίες που έχει κάνει, είναι οι εξής τρεις: «Μακρυκωσταίοι και Κοντογιώργηδες» (1960), «Ο Ηλίας του 16ου» (1959) και «Της κακομοίρας» (1963). Οι δύο πρώτες ήταν σε σκηνοθεσία του Αλέκου Σακελάριου, η τρίτη του Ντίνου Κατσουρίδη. Θα ασχοληθούμε με αυτή την ταινία του Κατσουρίδη, η οποία για πολλά χρόνια είχε παραμεληθεί από την προσοχή των κριτικών και του κόσμου. Η ταινία ξεκινά με ένα σχετικά μεγάλο τράβελινγκ όπου βλέπουμε το Χατζηχρήστο πάνω στο ποδήλατο να τραγουδά, με ένα σχεδόν θεατρικό τρόπο, κινδυνεύοντας ανά πάσα στιγμή να πέσει κάτω. Πότε πλάγια, πότε από μπρος, η κάμερα έ χει αποκλειστικό και μόνο θέμα ένα «μπακαλόγατο» που λέει τον πόνο του, τραγουδώντας, με μια αρκετά παράφωνη φωνή και μια βλάχικη προφορά. Τα πρώτα δεδομένα που εισπράττουμε είναι ότι έχουμε να κάνουμε με έναν ιδιόρρυθμο υπάλληλο μπακάλικου, ο οποίος «έχει σπίρτο» και είναι φιλόδοξος. Επίσης, από τα πρώτα λεπτά μας δηλώνεται ότι έχουμε να κάνουμε με μια φαρσοκωμωδία. Μεταφερόμαστε, σχεδόν αμέσως στο μπακάλικο. Εκεί, αφεντικό και υπάλληλος κοντράρονται, μπροστά στα μάτια των πελατών. Άρα πρόκειται για μια γειτονιά και πολύ πιθανόν φτωχογειτονιά, όπου κάποιοι παροξυσμοί και παρεξηγήσεις συγχωρούνται διότι ο ένας ξέρει τον άλλον πολύ καλά. Το αφεντικό, με μια προσεχτική ματιά, θα δούμε ότι δεν ήταν και τόσο καταπιεστικός, άρα η οικονομική επιφάνειά του ήταν σχετικά χαμηλή, δεν τον έπαιρνε να απολύσει τον υπάλληλό του και να πάρει άλλον. Με μια πρόχειρη, λοιπόν, ανάλυση βλέπουμε ότι από την εισαγωγή της ταινίας μπαίνουμε μέσα στην έννοια της ταξικής διαστρωμάτωσης. Ατάκες: Κώστας Δούκας: Πού ήσουνα; Κώστας Χατζηχρήστος: Πού με έστειλες; Κώστας Δούκας: Πού σε έστειλα; Να πας κάτι πράγματα της κυρά Παναγιώτας και κάτι λουμίνια της κυρά Θοδώρας! Κώστας Χατζηχρήστος: Ε, τα λουμίνια! Μου πέσανε! Κώστας Δούκας: Γι' αυτό άργησες; Κώστας Χατζηχρήστος: Ώσπου να τα μαζώξω, τι να κάνω; Κώστας Δούκας: Να σου κοπανήσω μία...! Κώστας Χατζηχρήστος: Μην κάνεις χειραψίες γιατί... Πού είσαι; Σε κολλάω μια κουτουλιά στο ψωμοσάκουλο και θα κάνεις δέκα μέρες να φας! Τ' ακούς; Δεν μπορείς να μου συμπεριφέρεσαι έτσι! Κώστας Δούκας: Τι 'ν' αυτά που μου λες ρε; Κώστας Χατζηχρήστος: (Κορδώνεται) Τι με κοιτάς; Έτσι και ξετυλιχτώ θα γίνω ένα κι ενενήντα και δε θα σε γλυτώνει άνθρωπος!
  5. Angie Tribeca - Seasons 1-3 (2016-2017) Hdtv X264 | ΞΕΧΩΡΙΣΤΟΙ ΕΛΛΗΝΙΚΟΙ ΥΠΟΤΙΤΛΟΙ Είδος σειράς: Comedy, Crime, Mystery Δημιουργός: Nancy Carell, Steve Carell Ηθοποιοί: Rashida Jones, Hayes MacArthur, Jere Burns IMDB : www.imdb.com/title/tt3597790/ Υπότιτλοι: Ξεχωριστοί Ελληνικόι Η υπόθεση αφορά την ζωή της Angie Tribeca η οποία είναι αστυνομικός σε μια ειδική ομάδα (RHCU-Really Heinous Crimes Unit) του αστυνομικού τμήματος του Los Angeles. Η ΣΕΙΡΑ ΑΝΑΝΕΩΘΗΚΕ ΓΙΑ 4η SEASON
  6. The Big Bang Theory - Seasons 1-12 (2007-2019) Hdtv XviD | ΞΕΧΩΡΙΣΤΟΙ ΕΛΛΗΝΙΚΟΙ ΥΠΟΤΙΤΛΟΙ Είδος Σειράς: Comedy Σκηνοθέτης: Chuck Lorre,Bill Prady Πρωταγωνιστές: Johnny Galecki,Jim Parsons,Kaley Cuoco,Simon Helberg imdb : www.imdb.com/title/tt0898266/ Υπότιτλοι: Ελληνικοί, Ξεχωριστό αρχείο (Subs.tv) Το The Big Bang Theory είναι μια κωμική σειρά που μας παρουσιάζει τι συμβαίνει όταν 2 υπερ-έξυπνοι Φυσικοί/συγκάτοικοι,ο Σέλντον και ο Λέοναρντ, συναντούν την Πένυ, μια όμορφη γυναίκα, η οποία μετακομίζει στο απέναντι διαμέρισμα και συνειδητοποιούν ότι δεν γνωρίζουν τίποτα για τη ζωή εκτός του εργαστηρίου. Στην παρέα τους βρίσκεται ο Γουόλοβιτς, ο οποίος πιστεύει ότι είναι τόσο σέξυ όσο και έξυπνος και ο Κουθροπάλι, ο οποίος δεν μπορεί να μιλήσει όταν βρίσκεται στο χώρο κάποια γυναίκα.
  7. ΜΠΡΑΖΙΛΕΡΟ (2001) DVDRip ΠΛΗΡΟΦΟΡΙΕΣ Είδος Ταινίας : .Κωμωδία Διάρκεια : .91 λεπτά Σκηνοθεσία : .Σωτήρης Γκορίτσας Σενάριο : .Σωτήρης Γκορίτσας Ηθοποιοί : . Στέλιος Μάινας Μαρία Κεχαγιόγλου Γεράσιμος Σκιαδαρέσης Νίκος Κούρος Άννα Μάσχα Ελισάβετ Μουτάφη Θανάσης Βισκαδουράκης Λαέρτης Μαλκότσης ΥΠΟΘΕΣΗ - Κριτική από το Cine.gr: Κυριακή 15 Οκτωβρίου 2006 Ο Βασίλης Αρβανιτάκης, σημαντικός τοπικός παράγοντας μιας επαρχιακής πόλης, έχει λάβει ένα κοινοτικό δάνειο για την ανέγερση ενός ‘Ελληνικού Πολιτιστικού Κέντρου’. Εκείνος όμως ξοδεύει τα χρήματα για να εξασφαλίσει μια πιο άνετη ζωή στην οικογένειά του, ενώ προβαίνει και στην αγορά ενός Βραζιλιάνου ποδοσφαιριστή που θα σώσει την τοπική ομάδα από τον υποβιβασμό. Η παράνομία του κινδυνεύει να αποκαλυφθεί όταν απρόσμενα καταφθάνουν στην πόλη δύο Ευρωπαίοι οικονομικοί ελεγκτές. Η ελληνική πονηριά νικάει την Ευρωπαϊκή νοοτροπιία, η Ευρωπαϊκή εντιμότητα νικάει την Ελληνική υποκρισία, ενώ η ευαισθησία και των δύο κερδίζει τον πόλεμο εναντίον της έλλειψης επικοινωνίας στις σύγχρονες ευρωπαικές κοινωνίες. Η κοινωνική ταινία - σάτιρα του Σωτήρη Γκόριτσα αφηγείται μια κωμικοτραγική ιστορία με ρητή κριτική της σύγχρονης πραγματικότητας (2001). Μια σύγκρουση ενός Νεο-Ελληνα με δύο Ευρωπαίους, με μότο το ‘Η Ελλάδα Ποτέ Δεν Πεθαίνει’, προβάλλει τα βαθύτερα προβλήματα των διαπροσωπικών σχέσεων σε μια Ελλάδα που προσπαθεί να γίνει ‘Ευρώπη’. Ο Γκόριτσας παρουσιάζει το ελληνικό τοπίο μέσα από χιουμοριστικές καταστάσεις και το πολιτισμικό χάος που επικρατεί στην Ευρώπη μέσα από σουρεαλιστικές περιγραφές. Οι χαρακτήρες είναι στερεοτυπικοί αλλά έχουν ένα φιλοσοφημένο στυλ που ξεχωρίζει μέσα στην σεναριακή προσκόλληση της εγχώριας κινηματογραφίας για τραγελαφικούς χαρακτήρες της ελληνικής επαρχίας. Το ‘Μπραζιλέρο’ αγγίζει αλλά ξεπερνά την κοινότυπη θεματική των μικρομεσαίων επιχειρηματιών με την υπέρμετρη φιλοδοξία και τη λατρεία για το γρήγορο και εύκολο χρήμα. Η σκηνοθετική άποψη, οι ερμηνείες και η μουσική επένδυση συμβάλλουν σε ένα πολύ καλό δημιουργικό και πρωτότυπο αποτέλεσμα. Ο Στέλιος Μάινας είναι ξεχωριστός στον δύσκολο- κατά τ’άλλα- ρόλο του, ο μικρός Παναγιώτης Σαπουνάκης εκπλήσσει, ενώ η μουσική του Νίκου Πορτοκάλογλου συμβαδίζει με την πλοκή αποκτώντας μια ιδιαίτερη αφηγηματική χροιά. Βαθμολογία: 6/10 http://www.cine.gr/film.asp?id=2310&page=1 ΤΕΧΝΙΚΑ ΧΑΡΑΚΤΗΡΙΣΤΙΚΑ General Complete name : ΜΠΡΑΖΙΛΕΡΟ DVDRIP(2001).mkv Format : Matroska Format version : Version 4 File size : 1.75 GiB Duration : 1 h 31 min Overall bit rate : 2 743 kb/s Writing application : Lavf57.71.100 Writing library : Lavf57.71.100 ErrorDetectionType : Per level 1
  8. ΓΙΑ ΠΑΝΤΑ ΠΑΙΔΙΑ (2018-2019) OPENTV TVRip AVI Η νέα κωμική σειρά «Για Πάντα Παιδιά», με πρωταγωνιστές τον Αποστόλη Τότσικα, την Τζένη Θεωνά, το Νίκο Πουρσανίδη, την Έλενα Ασημακοπούλου και το Λεωνίδα Καλφαγιάννη έρχεται τη νέα τηλεοπτική σεζόν στο Epsilon tv. Η σειρά «Για Πάντα Παιδιά» είναι το format της επιτυχημένης κωμωδίας “Traffic Light” της Keshet και θα προβάλλεται δύο φορές την εβδομάδα από τη νέα σεζόν, στη συχνότητα του Εpsilon tv. Το σενάριο για την ελληνική εκδοχή υπογράφει η Κωνσταντίνα Γιαχαλή ενώ σκηνοθετεί ο Βασίλης Κεχαγιάς. Τι συμβαίνει στη ζωή ενός άντρα μετά τα τριάντα; Η ζωή μετά τα τριάντα είναι λίγο σαν τα φανάρια. Όταν είσαι ελεύθερος είσαι το πράσινο, όλοι οι δρόμοι είναι ανοιχτοί για σένα. Μπορείς να πας παντού και να κάνεις ό,τι θέλεις χωρίς να σε σταματήσει κανείς. Τα πάντα μπορούν να συμβούν. Όταν είσαι σε σχέση είσαι το πορτοκαλί. Μπορείς ακόμα να πατήσεις γκάζι και να φύγεις, σκέφτεσαι όμως ότι μάλλον έχει έρθει η στιγμή που πρέπει να σταματήσεις. Όταν είσαι παντρεμένος είσαι σίγουρα στο κόκκινο. Σταματημένος… Το πόδι είναι στο φρένο και για γκάζι ούτε λόγος. Η οικογένεια έρχεται πρώτη και εσύ πάντα ακολουθείς. Η ιστορία μας έχει να κάνει με τρεις άντρες τον Σταμάτη, τον Γρηγόρη κι τον Λευτέρη. Είναι 34 χρονών και είναι φίλοι από παιδιά. Ξέρουν ο ένας τον άλλον απ’ την καλή κι απ’ την ανάποδη κι η τριανδρία τους έχει αντέξει σχολείο, πανελλήνιες, σπουδές, στρατό, γυναίκες, αφραγκιές, ξενύχτια, τσακωμούς, εξομολογήσεις και πολλά πολλά ακόμα. Σήμερα τους βρίσκουμε σε διαφορετικές φάσεις της ζωής τους, αλλά πάντα κολλητούς. Ο Σταμάτης (Νίκος Πουρσανίδης) είναι ο πιο μαζεμένος, ο πιο ντροπαλός, ίσως ο πιο αδικημένος απ’ τους τρεις. Ο πατέρας του δεν ήθελε να ακούσει για σπουδές, αφού υπήρχε στρωμένη δουλειά. Έχει παντρευτεί την αγαπημένη του απ’ το Λύκειο Πέρσα (Έλενα Ασημακοπούλου), αμέσως μόλις εκείνη τέλειωσε την Νομική κι άρχισε να δουλεύει ως δημοσιογράφος. Μετά από οκτώ χρόνια γάμου και ένα παιδί, η σχέση τους έχει βαλτώσει. Η Πέρσα είναι πολύ απασχολημένη με τη δουλειά, φέρνει πιο πολλά λεφτά στο σπίτι αλλά έχει απορροφήσει όλη της την ενέργεια η καθημερινότητα, το παιδί και όλα όσα καταπιέζει μέσα του ο Σταμάτης. Κάτι λείπει απ’ τη ζωή του Σταμάτη, αλλά δεν ξέρει ακριβώς τι. Ώρες ώρες θα ήθελε να τα διαλύσει όλα, αρκεί η άλλη μέρα να μην είναι εργάσιμη, ώστε να έχει χρόνο να τα ξαναμαζέψει! Ο Γρηγόρης (Αποστόλης Τότσικας) είναι ο πιο συγκροτημένος, ο πιο τυχερός, ο πιο «απροβλημάτιστος» απ’ τους τρεις. Με πατέρα που τους παράτησε όταν ήταν πέντε χρονών (τον οποίον δεν τον πολυθυμάται) μια μητέρα ανισόρροπη και μια αδερφή τρία χρόνια μικρότερη, έγινε γρήγορα ο άντρας του σπιτιού. Και του άρεσε. Υπεύθυνος, αποτελεσματικός, μπορείς να βασιστείς πάνω του, αισιόδοξος, αλλά και λίγο εγωιστής στη φιλία του. Φυσικά και να βοηθήσει, να συμπαρασταθεί, αλλά μόνο αν ευκαιρεί. Δουλεύει σε μια εταιρεία εκδηλώσεων και εννοείται είναι ο καλύτερος. Βγάζει πιο πολλά λεφτά απ’ τους φίλους του, αγαπάει τη δουλειά του και είναι τελειομανής. Τα πάει πολύ καλά με τις γυναίκες, ξέρει να τις χειρίζεται και μπορεί να γίνει χαλί να τον πατήσουν. Δίνει πολύ καλές συμβουλές στους φίλους του, αλλά τις ξεχνάει όταν ερωτεύεται. Και τώρα είναι πολύ ερωτευμένος. Η Ειρήνη (Τζένη Θεωνά) είναι η ωραιότερη γυναίκα που έχει γυρίσει να τον κοιτάξει κι ακόμα δεν καταλαβαίνει τι του βρήκε και πότε θα ξεστραβωθεί και θα τον παρατήσει. Αυτό είναι το αδύνατο σημείο του και το μόνο που δεν μπορεί να κουμαντάρει στη ζωή του. Αυτό κι ο Βαγγέλης. Ο σκύλος της Ειρήνης που αντιπάθησαν ο ένας τον άλλον με την πρώτη ματιά. Το ότι η Ειρήνη λατρεύει το Μάρκο είναι το μόνο ελάττωμα που βλέπει πάνω της ο Γρηγόρης. Κατά τα άλλα είναι η τέλεια γυναίκα και δεν της χαλάει χατίρι ακόμα και αν καμιά φορά παραμελεί τους φίλους του για χάρη της. Ο Λευτέρης (Λεωνίδας Καλφαγιάννης) δεν έχει ούτε γυναίκα, ούτε παιδιά, ούτε σκυλιά. Και κάνει τα πάντα για να μην αποκτήσει ποτέ. Είναι ο τύπος του άντρα που είναι όπου «φυσάει ο άνεμος», δε νοιάζεται για τίποτα και για κανένα, και που παρόλα αυτά δε μπορείς να του κρατήσεις κακία αντίθετα τον συμπαθείς και θες να κάνεις παρέα μαζί του. Μοναχογιός, καλοκακομαθημένος, όμορφος. Η ζωή του τα ‘χει φέρει και συνεχίζει να του τα φέρνει όμορφα κι ωραία. Με δύο γονείς π ου τον λατρεύουν κι έβαλαν σκοπό της ζωής τους να του μη λείψει ποτέ τίποτα. Ο Λευτέρης μεγάλωσε χωρίς ποτέ κανένας να του πει «μη» και «όχι». Πήγε στο Ναυτικό, επειδή οι γονείς του έβαλαν μέσο και την έβγαζε στο σπίτι. Δεν πέρασε πανελλήνιες, αλλά «το παιδί να ‘ναι καλά», έκανε σεμινάρια κινηματογράφου γιατί «πέρναγε μια φάση», για να καταλήξει στα 34 να εισπράττει δύο ενοίκια και να ζει χωρίς να δουλεύει . Άλλωστε παιδί είναι ακόμα έχει καιρό! Οι γυναίκες τον κυνηγούσαν από μικρό και συνεχίζουν να τον κυνηγάνε. Δεν ξέρει τι σημαίνει «μόνιμη σχέση», δεν θέλει να ξέρει τι σημαίνει «δέσμευση» και δε χρειάζεται να ξέρει τι σημαίνει «απόρριψη». Πλακατζής, γοητευτικός, ανεύθυνος, ανώριμος, καλοπερασάκιας, το μόνο σοβαρό που έχει κάνει στη ζωή του κι ότι πιο αξιόλογο έχει δημιουργήσει είναι η φιλία του με τους άλλους δύο. Η φιλία των τριών πρωταγωνιστών δοκιμάζεται από τις σχέσεις τους, τις διαφορετικές ζωές τους, αλλά κι απ’ τους χαρακτήρες τους. Δεν είναι πια παιδιά να παραβλέπουν πράγματα και τώρα τους απασχολούν πιο σοβαρά θέματα απ’ το ποιος θα πάρει την μπάλα και ποιος θα κεράσει καφέ. Στις ζωές τους όμως που αλλάζουν συνεχώς, που είναι τελείως διαφορετικές μεταξύ τους και που επηρεάζονται και από τις γυναίκες της ζωής τους, η φιλία τους είναι η μόνη σταθερά, το μόνο σημείο αναφοράς. Η περιπέτειά τους που ξεκίνησε στην πρώτη δημοτικού, συνεχίζεται χωρίς να χτυπάει κουδούνι για διάλειμμα, μ ε νέες ιστορίες, νίκες και χασούρες, αλλά πάντα με γέλιο… πολύ γέλιο…. Κι όχι απαραίτητα το δικό τους….. General Complete name : F:\ΓΙΑ ΠΑΝΤΑ ΠΑΙΔΙΑ\PAIDIA.EP.01.avi Format : AVI Format/Info : Audio Video Interleave File size : 1.15 GiB Duration : 42 min 14 s Overall bit rate : 3 896 kb/s Video ID : 0 Format : AVC Format/Info : Advanced Video Codec Format profile : [email protected] Format settings : 1 Ref Frames Format settings, CABAC : No Format settings, ReFrames : 1 frame Codec ID : H264 Duration : 42 min 14 s Bit rate : 3 755 kb/s Width : 1 280 pixels Height : 720 pixels Display aspect ratio : 16:9 Frame rate : 25.000 FPS Color space : YUV Chroma subsampling : 4:2:0 Bit depth : 8 bits Scan type : Progressive Bits/(Pixel*Frame) : 0.163 Stream size : 1.11 GiB (96%) Writing library : x264 core 152 r2854 e9a5903 Audio ID : 1 Format : MPEG Audio Format version : Version 1 Format profile : Layer 3 Codec ID : 55 Codec ID/Hint : MP3 Duration : 42 min 14 s Bit rate mode : Constant Bit rate : 128 kb/s Channel(s) : 2 channels Sampling rate : 44.1 kHz Compression mode : Lossy Stream size : 38.7 MiB (3%) Alignment : Aligned on interleaves Interleave, duration : 26 ms (0.65 video frame)
  9. ΓΙΑ ΠΑΝΤΑ ΠΑΙΔΙΑ (2018 - ) TVRip - ΣΥΝΕΧΗΣ ΑΝΑΝΕΩΣΗ Τα επεισόδια 43 & 44 προβλήθηκαν ανάποδα. Στις 20/3 μπήκε το 44 και στις 26/3 το 43. Πρωταγωνιστές της συγκεκριμένης σειράς είναι ο ΣΤΑΜΑΤΗΣ, ο ΓΡΗΓΟΡΗΣ και ο ΛΕΥΤΕΡΗΣ. Τριανδρία από τα γεννοφάσκια τους, έχοντας φάει «ψωμί και αλάτι» μαζί, το story μας, τους βρίσκει σε διαφορετικές φάσεις στη ζωή τους αλλά πάντα κολλητούς. Ο Σταμάτης, παντρεμένος με τη ΠΕΡΣΑ, έχουν μία κόρη Αϊνστάιν τη ΣΟΦΙΑ. Ο Γρηγόρης βρίσκεται σε σχέση με την ΕΙΡΗΝΗ που έχει ένα σκύλο, το ΒΑΓΓΕΛΗ, μεγάλος βραχνάς για τον Γρηγόρη. Τελευταίος και καταϊδρωμένος ο Λευτέρης ο οποίος ζει «ελεύθερος και ωραίος» και σκαρφίζεται τα πάντα για να μείνει έτσι στη ζωή του εσαεί. Στη νέα, δροσερή κωμωδία στο Open πρωταγωνιστούν οι πολύ επιτυχημένοι ηθοποιοί, Νίκος Πουρσανίδης (Σταμάτης), Έλενα Ασημακοπούλου (Πέρσα), Αποστόλης Τότσικας (Γρηγόρης), Τζένη Θεωνά (Ειρήνη) και Λεωνίδας Καλφαγιάννης (Λευτέρης). [video=youtube;2S-8c7AgCbo]https://www.youtube.com/watch?v=2S-8c7AgCbo[/video] ΤΕΧΝΙΚΑ ΧΑΡΑΚΤΗΡΙΣΤΙΚΑ General Complete name : Gia.Panta.Paidia.S01E01.DTB.x264-GrLTv.mkv Format : Matroska Format version : Version 4 / Version 2 File size : 383 MiB Duration : 41 min 55 s Overall bit rate : 1 278 kb/s Encoded date : UTC 2018-10-25T20:31:02Z Writing application : HandBrake 1.0.7 2017040900 Writing library : Lavf57.7.2
  10. CRAZY RICH ASIANS (2018) Ελληνικός Τίτλος: Τρελοί, πλούσιοι Ασιάτες Είδος Ταινίας: Comedy, Romance Σκηνοθέτης: Jon M. Chu Σεναριογράφος: Peter Chiarelli (screenplay by), Adele Lim (screenplay by) Ηθοποιοί: Constance Wu, Henry Golding, Michelle Yeoh Πρεμιέρα: 15 August 2018 (USA) Μετάφραση: ORiGiNAL ΥπόθεΣη: Αυτή η σύγχρονη ρομαντική κωμωδία, βασισμένη σε παγκόσμιο μπεστ σέλερ, ακολουθεί την γεννημένη στη Νέα Υόρκη, καθηγήτρια Οικονομικών Ρέιτσελ Τσου η οποία ταξιδεύει στον τόπο καταγωγής της, στη Σιγκαπούρη με σκοπό να γνωρίσει την οικογένεια του φίλου της και να παραβρεθεί στον γάμο του καλύτερου φίλου του... Τεχνικά Χαρακτηριστικά: https://www.youtube.com/watch?v=tiQkKmGNz6k Για να κατεβάζεις αρχεία μεγέθους έως 510 ΜΒ κάντε απλά μια εγγραφή!! Αγοράζοντας Λογαριασμό ή κάνετε Ανανέωση τον ήδη υπάρχων λογαριασμό που έχετε μπορείτε να κατεβάζετε από 5+ Filehost σαν Premium User !!!! Πατήστε έπανω στον αντιστοίχο Host που επιθυμείτε !!!
  11. Είδος Ταινίας: Comedy Πρεμιέρα: 14 December 2018 (Nigeria) Σκηνοθέτης: Niyi Akinmolayan Σενάριο: Bode Asiyanbi Ηθοποιοί: Aiyeola Bisola, Dakore Egbuson, Funke Akindele Υπότιτλοι: Ελληνικοί Ενσωματωμένοι & Σε Ξεχωριστό Αρχείο Μετάφραση: Μάχη Μαυρίκη Διάρκεια: 99' Καταλληλότητα: - encoder: .:Sexmeup:. Πηγή: 1080p.NF.WEB-DL.x264-OWNRiP Υπόθεση: Όταν ένας πλούσιος πατριάρχης πεθαίνει απροσδόκητα, η διψασμένη για χρήμα οικογένειά του, οι φίλοι και το προσωπικό σπεύδουν για την περιουσία δισεκατομμυρίων του. https://www.imdb.com/title/tt9652322/ ΑΝ ΘΕΛΕΤΕ ΝΑ ΣΤΗΡΙΞΕΤΕ ΤΗΝ ΔΟΥΛΕΙΑ ΜΟΥ ΚΑΝΤΕ ΕΥΚΟΛΑ ΚΑΙ ΓΡΗΓΟΡΑ ΛΟΓΑΡΙΑΣΜΟ ΣΤΟ EASYBYTEZ KAI KATEΒΑΣΤΕ ΣΑΝ PREMIUM AΠO 20 HOST!! http://www.easybytez.com/free2771.html
  12. Ελληνικός Τίτλος: Η θετική πλευρά της ζωής Είδος Ταινίας: Comedy, Drama Σκηνοθέτης: Neil Burger Σεναριογράφος: Jon Hartmere (screenplay by), Eric Toledano (based on the motion picture "Les Intouchables" by) Ηθοποιοί: Kevin Hart, Bryan Cranston, Nicole Kidman Πρεμιέρα: 31 January 2019 (Greece) Μετάφραση: Άγνωστος IMDb: https://www.imdb.com/title/tt1987680/ Η κωμική πλευρά της σχέσης μεταξύ ενός πλούσιου τετραπληγικού άντρα με ένα πρώην κατάδκο, ο οποίος έχει αναλάβει να τον φροντίζει.
  13. SMUGGLING HENDRIX - ΑΝΑΖΗΤΩΝΤΑΣ ΤΟΝ ΧΕΝΤΡΙΞ (2018) WEBRip x264 AC3 - DROOPY - ΕΝΣΩΜΑΤΩΜΕΝΟΙ ΥΠΟΤΙΤΛΟΙ ΠΛΗΡΟΦΟΡΙΕΣ Είδος Ταινίας: Comedy, Drama Πρεμιέρα στην Ελλάδα: Πεμ 30 Μαϊ 2019 Σκηνοθέτης: Marios Piperides Σενάριο: Marios Piperides Ηθοποιοί: Adam Bousdoukos, Fatih Al, Vicky Papadopoulou Μετάφραση: J' aime le noir ΥΠΟΘΕΣΗ Το σχέδιο του Γιάννη για να φύγει από την Κύπρο ανατρέπεται, όταν ο σκύλος του, ο Τζίμυ, διασχίζει την Νεκρή Ζώνη, που χωρίζει τις ελεύθερες περιοχές από τα κατεχόμενα. Επειδή η μεταφορά ζώων από τα κατεχόμενα απαγορεύεται, ο Γιάννης αναγκάζεται να ζητήσει την βοήθεια κάποιον “εκλεκτών” χαρακτήρων για να τον φέρει πίσω. [video]https://www.youtube.com/watch?v=9ACqXDktph0[/video] https://www.imdb.com/title/tt4974616/ http://www.cine.gr/film.asp?id=723902 ΤΕΧΝΙΚΑ ΧΑΡΑΚΤΗΡΙΣΤΙΚΑ General Complete name : Smuggling.Hendrix.2018.WEBRip.x264.AC3-DROOPY.mkv Format : Matroska Format version : Version 4 File size : 1.43 GiB Duration : 1 h 32 min Overall bit rate : 2 206 kb/s Encoded date : UTC 2019-05-18 09:37:42 Writing application : mkvmerge v7.8.0 ('River Man') 32bit built on Mar 27 2015 16:18:02 Writing library : libebml v1.3.1 + libmatroska v1.4.2
  14. MODERN FAMILY (2009-) SEASONS 1-10 | HDTv | ΕΒΔΟΜΑΔΙΑΙΑ ΑΝΑΝΕΩΣΗ | ΞΕΧΩΡΙΣΤΟΙ ΥΠΟΤΙΤΛΟΙ Ολοκληρώθηκε η season 10. http://www.imdb.com/title/tt1442437/?ref_=nv_sr_1[/CODE] Είδος: Comedy Σκηνοθεσία: Steven Levitan, Christopher Lloyd Κανάλι: ABC Πρεμιέρα: 2009 Ηθοποιοί: Ed O'Neill, Sofia Vergara, Julie Bowen, Ty Burrell, Jesse Tyler Ferguson, Eric Stonestreet, Rico Rodriguez, Nolan Gould, Sarah Hyland, Ariel Winter, Aubrey Anderson-Emmons Επεισόδια: 120 (Seasons 5) Ratings: 8,7/10 Υπόθεση: Μια μεγάλη (straight, gay, πολυεθνική) χαρούμενη οικογένεια. Modern Family η κωμωδία της χρονιάς! Προβάλλεται από το κανάλι του ABC, απέσπασε πολλά βραβεία EMMY στην κατηγορία κωμική σειρά και έχει αποκτήσει τεράστιο και φανατικό κοινό σε ολόκληρο τον κόσμο! Η υπόθεση της σειράς αναφέρεται σε μια σύγχρονη έκδοση της Αμερικάνικης – χαρούμενης οικογένειας με πρωταγωνιστή τον Ed O’ Neill (Al Bundy στο Married with Children) και τη Shelley Long , όπου gay , διεθνικά, ηλικιακά αταίριαστα ζευγάρια αντιμετωπίζουν τα γνωστά σε όλους οικογενειακά θέματα με πολύ διαφορετικό τρόπο. Γυρισμένο σε στυλ mockumentary (παρωδία ντοκιμαντέρ), το Modern Family παρακολουθεί τη ζωή ενός gay ζευγαριού, της κόρης τους, ενός straight ζευγαριού και των τριών παιδιών τους, και ενός διεθνικού ζευγαριού και τους γιού τους, καθώς η ζωή τους καταγράφεται από ένα τηλεοπτικό συνεργείο που θα δείξει την καθημερινότητά τους σαν reality στην Ολλανδία… Πολύ γέλιο και φοβερές ατάκες! Η σειρά τα σπάει! [img=http://i.imgur.com/WekAlpnh.jpg] [video=youtube;U7dLXjZfXV8]https://www.youtube.com/watch?v=U7dLXjZfXV8[/video] ΤΕΧΝΙΚΑ ΧΑΡΑΚΤΗΡΙΣΤΙΚΑ [spoiler] General Complete name : Modern.Family.S07E01.XviD-AFG.avi Format : AVI Format/Info : Audio Video Interleave File size : 340 MiB Duration : 21mn 5s Overall bit rate : 2 256 Kbps Writing application : Lavf56.36.100 Video ID : 0 Format : xvid Codec ID : xvid Duration : 21mn 5s Bit rate : 2 115 Kbps Width : 640 pixels Height : 360 pixels Display aspect ratio : 16:9 Frame rate : 23.976 fps Bits/(Pixel*Frame) : 0.383 Stream size : 319 MiB (94%) Audio ID : 1 Format : MPEG Audio Format version : Version 1 Format profile : Layer 3 Mode : Joint stereo Mode extension : MS Stereo Codec ID : 55 Codec ID/Hint : MP3 Duration : 21mn 5s Bit rate mode : Constant Bit rate : 128 Kbps Channel(s) : 2 channels Sampling rate : 48.0 KHz Compression mode : Lossy Stream size : 19.3 MiB (6%) Alignment : Aligned on interleaves Interleave, duration : 24 ms (0.58 video frame) Interleave, preload duration : 24 ms [/spoiler] Αν βρείτε password [COLOR="#009999"][SIZE=6]MARIAGIORGOS[/SIZE][/COLOR] [img=http://i.imgur.com/qO4Dexcl.png]
  15. Είδος Ταινίας: Comedy Πρεμιέρα: 14 December 2018 (Nigeria) Σκηνοθέτης: Niyi Akinmolayan Σενάριο: Bode Asiyanbi Ηθοποιοί: Aiyeola Bisola, Dakore Egbuson, Funke Akindele Υπότιτλοι: Ελληνικοί Ενσωματωμένοι & Σε Ξεχωριστό Αρχείο Μετάφραση: Μάχη Μαυρίκη Διάρκεια: 99' Καταλληλότητα: - encoder: .:Sexmeup:. Πηγή: 1080p.NF.WEB-DL.x264-OWNRiP Υπόθεση: Όταν ένας πλούσιος πατριάρχης πεθαίνει απροσδόκητα, η διψασμένη για χρήμα οικογένειά του, οι φίλοι και το προσωπικό σπεύδουν για την περιουσία δισεκατομμυρίων του. https://www.imdb.com/title/tt9652322/ ΑΝ ΘΕΛΕΤΕ ΝΑ ΣΤΗΡΙΞΕΤΕ ΤΗΝ ΔΟΥΛΕΙΑ ΜΟΥ ΚΑΝΤΕ ΕΥΚΟΛΑ ΚΑΙ ΓΡΗΓΟΡΑ ΛΟΓΑΡΙΑΣΜΟ ΣΤΟ EASYBYTEZ KAI KATEΒΑΣΤΕ ΣΑΝ PREMIUM AΠO 20 HOST!! http://www.easybytez.com/free2771.html
  16. ΜΗΝ ΨΑΡΩΝΕΙΣ (2019 - ) TVRip ΑΝΤ1 - ΣΥΝΕΧΗΣ ΑΝΑΝΕΩΣΗ Η ΝΕΑ ΚΩΜΙΚΗ ΣΕΙΡΑ ΤΟΥ ΑΝΤ1 ΠΡΩΤΑΓΩΝΙΣΤΟΥΝ: ΘΟΔΩΡΗΣ ΑΘΕΡΙΔΗΣ ΚΑΙ ΜΑΡΙΑ ΛΕΚΑΚΗ! ΠΡΕΜΙΕΡΑ, ΤΕΤΑΡΤΗ 16 ΙΑΝΟΥΑΡΙΟΥ ΣΤΙΣ 21:45 ΣΤΟΝ ΑΝΤ1! Δύο εκ διαμέτρου αντίθετοι κόσμοι. Δύο εντελώς διαφορετικοί άνθρωποι. Εκείνη ήταν πάμπλουτη. Εκείνος είναι άνθρωπος του μόχθου. Πώς θα αντέξουν ο ένας τον άλλον; Μην ψαρώνεις. Όλα θα ανατραπούν και τα λεφτά θα πάψουν να έχουν αξία. Η νέα κωμική σειρά «Μην Ψαρώνεις» με τη Μαρία Λεκάκη και τον Θοδωρή Αθερίδη στους πρωταγωνιστικούς ρόλους έρχεται Τετάρτη 16 Ιανουαρίου στις 21:45 στον ΑΝΤ1! Τη σκηνοθεσία έχει αναλάβει ο Πιέρρος Ανδρακάκος ενώ το σενάριο υπογράφει ο Άγγελος Χασάπογλου. Αυτή είναι πλούσια. Πολύ πλούσια. Ζει σε μια έπαυλη, με υπηρετικό προσωπικό, σοφέρ και τεράστιο κήπο. Αυτός πάλι όχι. Ζει μια κανονική ζωή, σε ένα κανονικό σπίτι χωρίς να του λείπει τίποτε. Αυτή πηγαίνει σε φιλανθρωπικά γκαλά, αυτός πουλάει ψάρια. Όταν αυτή θα χάσει τα πάντα και αναγκαστεί να μετακομίσει στην ίδια γειτονιά με εκείνον, οι δύο κόσμοι τους θα συγκρουστούν… Αυτή είναι η Σάντυ Αγραφιώτη (Μαρία Λεκάκη), μία γυναίκα που δεν έχει εργαστεί ποτέ στη ζωή της και ζει μέσα στα πλούτη και την πολυτέλεια. Μία ημέρα, όμως, χάνει τα πάντα και η παραμυθένια της ζωή αρχίζει να μοιάζει με εφιάλτη, αφού ο σύζυγός της την εγκαταλείπει και διαφεύγει στο εξωτερικό αφήνοντας πίσω του μόνο χρέη. Από τη μία στιγμή στην άλλη, η Σάντυ χάνει τα πάντα. Αναγκάζεται να εγκαταλείψει την παλιά της ζωή και μαζί με τις τρεις κόρες της και τη μητέρα της μετακομίζουν σε μία φτωχογειτονιά. Εκεί, η Σάντυ ανακαλύπτει έναν νέο κόσμο που θα της αποδείξει πως μπορεί να τα καταφέρει τα πάντα όταν γύρω της υπάρχει αγάπη. Αυτός είναι ο Μανώλης Αραποστάθης (Θοδωρής Αθερίδης), ένας άνδρας που ποτέ δεν φοβήθηκε τη ζωή και δεν έπαψε να εργάζεται σκληρά στην ψαραγορά και να υπερασπίζεται τα δικαιώματα των συναδέρφων του. Δεν είναι τυχαίο που στην ψαραγορά τον φωνάζουν «καρχαριομάχο». Από τότε που έχασε τη γυναίκα του δεν ξαναπαντρεύτηκε, αφού προτεραιότητά του είναι μόνο τα παιδιά του. Η ζωή όμως έχει άλλα σχέδια για εκείνον. Η συνάντηση της Σάντυ και του Μανώλη θα είναι επεισοδιακή. Μία λάθος όπισθεν θα αλλάξει τις ζωές τους αλλά και τις ζωές των παιδιών τους για πάντα. Θα μπορέσουν, άραγε, αυτοί οι δύο κόσμοι να συνυπάρξουν; Η νέα κωμική σειρά του ΑΝΤ1 θα μας υπενθυμίσει πως ό,τι κι αν συμβεί, η ζωή είναι ωραία. Γι’ αυτό, «Μην Ψαρώνεις». Τετάρτη16 Ιανουαρίου στις 21:45 στον ΑΝΤ1! Πρωταγωνιστούν: Θοδωρής Αθερίδης, Μαρία Λεκάκη, Φαίδρα Δρούκα, Μαρία Ιωαννίδου, Τάσος Παλαντζίδης, Φιόνα Γεωργιάδη, Ειρήνη Ψυχράμη, Δημήτρης Αριανούτσος, Θανάσης Ζερίτης Ελεάνα Καυκαλά, Θάνος Λέκκας, Γιάννης Σίντος, Σάντυ Χατζηιωάννου. Στο ρόλο του Διονύση Αγραφιώτη ο Δημήτρης Μαυρόπουλος. Σκηνοθεσία: Πιέρρος Ανδρακάκος Διασκευή σεναρίου: Άγγελος Χασάπογλου [video=youtube;IxGo6baOJ_0]https://www.youtube.com/watch?v=IxGo6baOJ_0[/video] ΤΕΧΝΙΚΑ ΧΑΡΑΚΤΗΡΙΣΤΙΚΑ General Complete name : Min.Psarwneis.S01E01.DTB.x264-GrLTv.mkv Format : Matroska Format version : Version 4 File size : 436 MiB Duration : 44 min 11 s Overall bit rate : 1 378 kb/s Encoded date : UTC 2019-01-16T21:08:28Z Writing application : HandBrake 1.1.2 2018090500 Writing library : Lavf57.7.2
  17. POWER OF LOVE (2019) ΣΚΑΪ WEBRip AVI Power of Love, το νέο ανατρεπτικό show σχέσεων τώρα στο για δευτερη χρονια στο ΣΚΑΪ 6 γυναίκες και 6 άντρες προσπαθούν να βρουν το κατάλληλο ταίρι. Σε ένα σπίτι φιλοξενούνται οι δυο ομάδες, σε ξεχωριστούς όμως χώρους. Μέσα από αυτές τις συναντήσεις με το αντίθετο φύλο, τα μέλη και των 2 ομάδων προσπαθούν να ξεχωρίσουν τον ιδανικό σύντροφο. Ολο το show είναι γυρισμένο στην Κωνσταντινούπολη Παρουσίαση: Μαρία Μπακοδήμου General Complete name : Power.S02.EP.01.avi Format : AVI Format/Info : Audio Video Interleave File size : 2.78 GiB Duration : 2 h 34 min Overall bit rate : 2 579 kb/s Video ID : 0 Format : AVC Format/Info : Advanced Video Codec Format profile : [email protected] Format settings : 1 Ref Frames Format settings, CABAC : No Format settings, ReFrames : 1 frame Codec ID : H264 Duration : 2 h 34 min Bit rate : 2 438 kb/s Width : 1 280 pixels Height : 720 pixels Display aspect ratio : 16:9 Frame rate : 25.000 FPS Color space : YUV Chroma subsampling : 4:2:0 Bit depth : 8 bits Scan type : Progressive Bits/(Pixel*Frame) : 0.106 Stream size : 2.63 GiB (95%) Writing library : x264 core 152 r2854 e9a5903 Audio ID : 1 Format : MPEG Audio Format version : Version 1 Format profile : Layer 3 Codec ID : 55 Codec ID/Hint : MP3 Duration : 2 h 34 min Bit rate mode : Constant Bit rate : 128 kb/s Channel(s) : 2 channels Sampling rate : 48.0 kHz Compression mode : Lossy Stream size : 141 MiB (5%) Alignment : Aligned on interleaves Interleave, duration : 24 ms (0.60 video frame)
  18. ΕΛΑ ΣΤΗ ΘΕΣΗ ΜΟΥ Γ΄ΚΥΚΛΟΣ - ALPHA (2018-2019) TVRip AVI Ο τρίτος κύκλος αρχίζει Κάνει εικασίες για αυτό το όνομα. Η Φλωρέτα Σοφοκλέους είναι ένα ακόμα νέο πρόσωπο που θα μπει του χρόνου στη σειρά. Εικάζουν ότι είναι η σύζυγος του Ανδρέα ή μία ακόμα κόρη του. Μένει, λοιπόν, να το δούμε! Πρόκειται για έναν χαρακτήρα που θα φέρει αλλαγές και ανακατατάξεις στις σχέσεις των ηρώων, θα τη βρει; Το σενάριο υπογράφει ο Γιώργος Κρητικός και τη σκηνοθεσία ο Γιάννης Βασιλειάδης, ο Σπύρος Ρασιδάκης και ο Βασίλης Τσελεμέγκος. Στους πρωταγωνιστικούς ρόλους οι: Γιάννης Τσιμιτσέλης, Αθηνά Οικονομάκου, Μιχάλης Μαρίνος, Μαρίνος Κόνσολος, Ευαγγελία Συριοπούλου, Ναταλία Δραγούμη, Άνδρη Θεοδότου, Χάρης Γρηγορόπουλος, Μαρία Ανδρούτσου, Αναστάσης Κολοβός, Πάνος Σταθακόπουλος, Ερμόλαος Ματθαίου, Εύα Δαελή, Νικόλας Απέργης, Καλή Δάβρη, Αναστασία Παντούση, Ορέστης Καρύδας, Βασιλική Αγγέλη κ.α. Στο ρόλο της Αιμιλίας, η Μαρία Φιλίππου Στο ρόλο του Λεωνίδα, ο Παύλος Ευαγγελόπουλος Εκτέλεση παραγωγής J.K. Productions - ΚΑΡΑΓΙΑΝΝΗΣ General Complete name :ΕΛΑ ΣΤΗ ΘΕΣΗ ΜΟΥ Γ΄ΚΥΚΛΟΣ\STH.THESH.MOY.S03.EP.01.avi Format : AVI Format/Info : Audio Video Interleave File size : 1.27 GiB Duration : 46 min 38 s Overall bit rate : 3 909 kb/s Video ID : 0 Format : AVC Format/Info : Advanced Video Codec Format profile : [email protected] Format settings : 1 Ref Frames Format settings, CABAC : No Format settings, ReFrames : 1 frame Codec ID : H264 Duration : 46 min 38 s Bit rate : 3 768 kb/s Width : 1 280 pixels Height : 720 pixels Display aspect ratio : 16:9 Frame rate : 25.000 FPS Color space : YUV Chroma subsampling : 4:2:0 Bit depth : 8 bits Scan type : Progressive Bits/(Pixel*Frame) : 0.164 Stream size : 1.23 GiB (96%) Writing library : x264 core 152 r2854 e9a5903 Audio ID : 1 Format : MPEG Audio Format version : Version 1 Format profile : Layer 3 Codec ID : 55 Codec ID/Hint : MP3 Duration : 46 min 38 s Bit rate mode : Constant Bit rate : 128 kb/s Channel(s) : 2 channels Sampling rate : 44.1 kHz Compression mode : Lossy Stream size : 42.7 MiB (3%) Alignment : Aligned on interleaves Interleave, duration : 26 ms (0.65 video frame)
  19. L'AUBERGE ROUGE (1951) DVDRip - ΞΕΧΩΡΙΣΤΟΙ ΥΠΟΤΙΤΛΟΙ Σκηνοθεσία: Claude Autant-Lara Σενάριο: Jean Aurenche Ηθοποιοί: Fernandel, Francoise Rosay, Marie-Claire Olivia ΥΠΟΤΙΤΛΟΙ: Άγνωστος Μια ομάδα ταξιδιωτών, συμπεριλαμβανομένου και ενός μοναχού, πηγαίνουν σε ένα μοναχικό πανδοχείο στα βουνά. Ο ιδιοκτήτης του πανδοχείου ομολογεί στον μοναχό τη συνήθεια του να σερβίρει δηλητηριασμένη σούπα στους φιλοξενούμενους, με σκοπό να κλέβει τα υπάρχοντά τους... [video]https://www.youtube.com/watch?v=TNXPNXyJtEc[/video] https://www.imdb.com/title/tt0043303/ ΤΕΧΝΙΚΑ ΧΑΡΑΚΤΗΡΙΣΤΙΚΑ General Complete name : L'auberge rouge (1951).avi Format : AVI Format/Info : Audio Video Interleave Format profile : OpenDML File size : 1.15 GiB Duration : 1 h 40 min Overall bit rate : 1 640 kb/s Writing application : Lavf55.22.102
  20. GOOD SAM (2019) HDRip AC3 x264-CMRG | ENΣΩΜΑΤΩΜΕΝΟΙ ΥΠΟΤΙΤΛΟΙ ΣΚΗΝΟΘΕΣΙΑ : Kate Melville ΣΕΝΑΡΙΟ : Teena Booth, Dete Meserve ΗΘΟΠΟΙΟΙ : Tiya Sircar, Chad Connell, Marco Grazzini ΕΙΔΟΣ : Comedy ΠΡΕΜΙΕΡΑ : 16 May 2019 (USA) ΜΕΤΑΦΡΑΣΗ : DVD IMDB: https://www.imdb.com/title/tt9032888/ Η όλη πλοκή εστιάζει στην ‘Bradley’, μία ρεπόρτερ η οποία ζει στην Νέα Υόρκη και καλύπτει ειδήσεις που αφορούν πυρκαγιές, αυτοκινητιστικά δυστυχήματα, βίαια επεισόδια και άλλα παρόμοιου τύπου συμβάντα. Η ίδια εντούτοις θα ξεκινήσει δημοσιογραφική έρευνα προκειμένου να ανακαλύψει ποιος είναι αυτός που μοίρασε ανώνυμα $100,000 στο κατώφλι τυχαίων σπιτιών μέσα στην πόλη. Σύντομα, οι κάτοικοι ως ένδειξη ευγνωμοσύνης δίνουν στο άτομο αυτό το προσωνύμιο «Ο Καλός Σαμαρείτης» (“Good Sam”). Αλλά σταδιακά όλοι αρχίζουν να αναρωτιούνται για την ταυτότητα του παραπάνω άγνωστου σωτήρα, αλλά και το ποια τα κίνητρά του ή αν σκοπεύει να χαρίσει και πάλι ένα τόσο μεγάλο χρηματικό ποσό. Αποφασισμένη να μάθει την αλήθεια και παραμένοντας πιστή στις αξίες της έγκυρης πληροφόρησης, η ‘Bradley’ θα βγει στους δρόμους του Manhattan για να βρει τα ίχνη του αινιγματικού αυτού ελεήμονα. Το θέμα είναι αν όντως οι πράξεις του είναι αποτέλεσμα καλών προθέσεων.
  21. ΜΗΝ ΑΡΧΙΖΕΙΣ ΤΗ ΜΟΥΡΜΟΥΡΑ (2013- ) - ALL SEASONS - TVRip - ΣΥΝΕΧΗΣ ΑΝΑΝΕΩΣΗ Η «Μουρμούρα» ξαναχτυπά για έκτη χρονιά! Με παλιές και καινούργιες αγάπες! Θα ζήσουμε μαζί τους τις χαρές, τα παθήματα και τα… μαθήματα τους. Μια νέα χρονιά, με περισσότερο κέφι, φαντασία, έμπνευση και πολλή καθημερινότητα! Στην αστεία εκδοχή της. Έχει να πάθει πολλά αυτή τη χρονιά ο αξιαγάπητος Μηνάς (Αντώνης Αντωνίου) από την τρελο-Βουλίτσα του (Ελένη Κοκκίδου). Αλλά, εδώ που τα λέμε, τα τραβάει ο οργανισμός του! Πόσο μάλλον τώρα που δεν θα είναι ζευγάρι μόνο στη ζωή αλλά και στη δουλειά, μια που η απόφασή της τώρα που εκπλήρωσε το όνειρο της για το απολυτήριο λυκείου, είναι να μην περιοριστεί στα άχαρα καθήκοντα της συζύγου του προέδρου μιας ερασιτεχνικής ποδοσφαιρικής ομάδας, αλλά να μπει στον κόσμο των… επιχειρήσεων. Και ποιος είναι καλύτερος συνέταιρος από τον Μηνά; Το ότι αρχικά θα το κάνει εν αγνοία του, είναι μια… λεπτομέρεια. Άλλωστε αυτά τα μικρά μυστικά, τρέφουν τη… μουρμούρα! Φέτος μαζί τους θα δούμε και άλλα πρόσωπα της οικογένειας. Τον μεγάλο αδελφό της Βούλας, τον Μανώλη (Γιώργος Κωνσταντίνου) αλλά και την πρώην αρραβωνιαστικιά του Μηνά, την Λιλίκα (Νατάσα Ασίκη). Μεγάλες ανατροπές, όμως, μας επιφυλάσσει και ο αγαπημένος μας Ηλίας (Βλαδίμηρος Κυριακίδης). Η καινούργια σεζόν θα τον βρει μακριά από την Αθήνα, σε μια άλλη πόλη. Διευθυντής εφορίας πλέον, αλλά και φρεσκοχωρισμένος, μια που ο κοινός τους βίος με την Μαρίνα τελείωσε. Δίπλα του και, ίσως όχι και τόσο στενοχωρημένη με τις εξελίξεις, η Ελπινίκη (Ελένη Γερασιμίδου) η μάνα–βράχος, που δεν θ’ αφήσει τον γιο της χωρίς στήριγμα, αλλά και χωρίς μουρμούρα. Φαντάζει αδύνατο να δούμε τον Ηλία χωρίς τη Μαρίνα του, αλλά οι ανατροπές κρατούν άσβεστη αυτή τη φλόγα που λέγεται «Μουρμούρα». Εξάλλου, ο «τυφώνας Καίτη» (Κλέλια Ρένεση) θα μπει δυναμικά στη ζωή του και θα φέρει τα πάνω κάτω. Νέα φάση ζωής για τον Ηλία, που κρύβει πολλές εκπλήξεις και θα γεμίσει με απίθανες καταστάσεις την καθημερινότητά του. Οι απολαυστικοί καρντάσηδες, Μπάμπης (Σπύρος Τσεκούρας) και Ξένια (Άννα Κουτσαφτίκη) και η κόρη τους Σοφία (Κωνσταντίνα Λιναρδάτου) που τους γνωρίσαμε πέρυσι και τους αγαπήσαμε σαν να τους ξέρουμε χρόνια, θα εξακολουθήσουν να μας κρατούν συντροφιά από την Θεσσαλονίκη, που, ευτυχώς, είναι ένα βήμα από την αγαπημένη τους Χαλκιδική, γιατί όπως λέει και ο Μπάμπης «σαν την Χαλκιδική δεν έχει». Μαζί τους, και ο Γιωργάκης (Μιχάλης Προσπαθόπουλος) φίλος και συμμαθητής της Σοφίας, που γίνεται συχνά ο καταλύτης ανάμεσα σε κόρη και μπαμπά. Από την παρέα δεν θα λείψει και η κυρία Σοφία (Ελισάβετ Κωνσταντινίδου) μαμά του Μπάμπη, η οποία φέτος θα αποποιηθεί την ταμπέλα της θλιμμένης χήρας και θα μας συστήσει το νέο της αμόρε. Ο Άγγελος (Σπύρος Χατζηαγγελάκης) και η Βέλη (Μαρία Χάνου), οι δύο μικρότεροι ήρωες της παρέας, που μας κέρδισαν με τη φρεσκάδα τους, θα μας συντροφέψουν και στο φετινό μας ταξίδι. Τόσο διαφορετικοί αλλά και τόσο ταιριαστοί μεταξύ τους, θα βρεθούν σε καινούργια μονοπάτια, με τον Άγγελο να αναλαμβάνει τη νέα του επαγγελματική θέση και τη Βέλη να αναθεωρεί τη δική της στάση ζωής… Το σενάριο υπογράφουν οι: Έλενα Σολωμού, Παναγιώτης Χριστόπουλος, Σάρα Γανωτή, Θέμης Γκυρτής, Φώφη Κώττη, Γιάννης Διακάκης, κ.ά. Σκηνοθετεί ο Διονύσης Φερεντίνος. Μουρμουρίζουν οι: Αντώνης Αντωνίου, Ελένη Κοκκίδου, Βλαδίμηρος Κυριακίδης, Κλέλια Ρένεση, Σπύρος Τσεκούρας, Άννα Κουτσαφτίκη, Σπύρος Χατζηαγγελάκης, Μαρία Χάνου. [video=youtube;nxganCnD8Pk]https://www.youtube.com/watch?v=nxganCnD8Pk[/video] ΤΕΧΝΙΚΑ ΧΑΡΑΚΤΗΡΙΣΤΙΚΑ General Complete name : Min.Arxizeis.Ti.Mourmoura.S06E01.DTB.x264-GrLTv.mkv Format : Matroska Format version : Version 4 / Version 2 File size : 390 MiB Duration : 44 min 45 s Overall bit rate mode : Variable Overall bit rate : 1 218 kb/s Encoded date : UTC 2018-10-03 20:31:42 Writing application : TMPGEnc Video Mastering Works 6 Version. 6.2.8.35 Writing library : TMPGEnc Video Mastering Works 6 Version. 6.2.8.35
  22. ΜΗΝ ΨΑΡΩΝΕΙΣ (2019) ΑΝΤ1TV WEBRip AVI Αυτή είναι πλούσια. Πολύ πλούσια. Ζει σε μια έπαυλη, με υπηρετικό προσωπικό, σοφέρ και τεράστιο κήπο. Αυτός πάλι όχι. Ζει μια κανονική ζωή, σε ένα κανονικό σπίτι χωρίς να του λείπει τίποτε. Αυτή πηγαίνει σε φιλανθρωπικά γκαλά, αυτός πουλάει ψάρια. Όταν αυτή θα χάσει τα πάντα και αναγκαστεί να μετακομίσει στην ίδια γειτονιά με εκείνον, οι δύο κόσμοι τους θα συγκρουστούν… Αυτή είναι η Σάντυ Αγραφιώτη (Μαρία Λεκάκη), μία γυναίκα που δεν έχει εργαστεί ποτέ στη ζωή της και ζει μέσα στα πλούτη και την πολυτέλεια. Μία ημέρα, όμως, χάνει τα πάντα και η παραμυθένια της ζωή αρχίζει να μοιάζει με εφιάλτη, αφού ο σύζυγός της την εγκαταλείπει και διαφεύγει στο εξωτερικό αφήνοντας πίσω του μόνο χρέη. Από τη μία στιγμή στην άλλη, η Σάντυ χάνει τα πάντα. Αναγκάζεται να εγκαταλείψει την παλιά της ζωή και μαζί με τις τρεις κόρες της και τη μητέρα της μετακομίζουν σε μία φτωχογειτονιά. Εκεί, η Σάντυ ανακαλύπτει έναν νέο κόσμο που θα της αποδείξει πως μπορεί να τα καταφέρει τα πάντα όταν γύρω της υπάρχει αγάπη. Αυτός είναι ο Μανώλης Αραποστάθης (Θοδωρής Αθερίδης), ένας άνδρας που ποτέ δεν φοβήθηκε τη ζωή και δεν έπαψε να εργάζεται σκληρά στην ψαραγορά και να υπερασπίζεται τα δικαιώματα των συναδέρφων του. Δεν είναι τυχαίο που στην ψαραγορά τον φωνάζουν «καρχαριομάχο». Από τότε που έχασε τη γυναίκα του δεν ξαναπαντρεύτηκε, αφού προτεραιότητά του είναι μόνο τα παιδιά του. Η ζωή όμως έχει άλλα σχέδια για εκείνον. Η συνάντηση της Σάντυ και του Μανώλη θα είναι επεισοδιακή. Μία λάθος όπισθεν θα αλλάξει τις ζωές τους αλλά και τις ζωές των παιδιών τους για πάντα. Θα μπορέσουν, άραγε, αυτοί οι δύο κόσμοι να συνυπάρξουν; Η νέα κωμική σειρά του ΑΝΤ1 θα μας υπενθυμίσει πως ό,τι κι αν συμβεί, η ζωή είναι ωραία. Γι’ αυτό, «Μην Ψαρώνεις». General Complete name : ΜΗΝ ΨΑΡΩΝΕΙΣ\PSARI.EP.01.avi Format : AVI Format/Info : Audio Video Interleave File size : 1 020 MiB Duration : 44 min 12 s Overall bit rate : 3 227 kb/s Video ID : 0 Format : AVC Format/Info : Advanced Video Codec Format profile : [email protected] Format settings : 1 Ref Frames Format settings, CABAC : No Format settings, ReFrames : 1 frame Codec ID : H264 Duration : 44 min 12 s Bit rate : 3 086 kb/s Width : 1 280 pixels Height : 720 pixels Display aspect ratio : 16:9 Frame rate : 25.000 FPS Color space : YUV Chroma subsampling : 4:2:0 Bit depth : 8 bits Scan type : Progressive Bits/(Pixel*Frame) : 0.134 Stream size : 976 MiB (96%) Writing library : x264 core 152 r2854 e9a5903 Audio ID : 1 Format : MPEG Audio Format version : Version 1 Format profile : Layer 3 Codec ID : 55 Codec ID/Hint : MP3 Duration : 44 min 12 s Bit rate mode : Constant Bit rate : 128 kb/s Channel(s) : 2 channels Sampling rate : 44.1 kHz Compression mode : Lossy Stream size : 40.5 MiB (4%) Alignment : Aligned on interleaves Interleave, duration : 26 ms (0.65 video frame)
  23. ΕΣΥ... ΣΤΟ ΚΟΣΜΟ ΣΟΥ (2018-2019) ΑΝΤ1CY TVRip AVI HD Σ΄ ένα φοιτητικό πάρτι στον Πρωταρά, ο Δημήτρης, φοιτητής της ιατρικής, γνωρίζει τη Μαρία, φοιτήτρια της Νομικής, που μπαίνει στη ζωή του κυριολεκτικά σαν σίφουνας. Η Μαρία του ζητά να παριστάνει το αγόρι της, για να σταματήσει να την ενοχλεί κάποιος άλλος. Όμως με τις διαχύσεις της Μαρίας ο ντροπαλός με τις γυναίκες Δημήτρης παθαίνει κεραυνοβόλο έρωτα. Απογοητεύεται όμως σφόδρα όταν μαθαίνει πως τελικά ο άλλος, ο Τάσος, είναι στην πραγματικότητα το αγόρι της κι ότι ουσιαστικά η Μαρία χρησιμοποίησε τον Δημήτρη για να τον εκδικηθεί για τα τσιλημπουρδήματά του με άλλες. Παρόλα αυτά, τις επόμενες ημέρες η Μαρία με μηνύματα, τηλεφωνήματα αλλά και μέσα από κάποιες άλλες, περίεργες συγκυρίες διατηρεί επαφή με τον Δημήτρη, με μια ωστόσο αινιγματική συμπεριφορά απέναντί του. Την ίδια στιγμή μια αδελφική φίλη του Δημήτρη προσπαθεί να τον φέρει κοντά με τη Βίκη, μια φίλη της που είναι ταυτόχρονα και κολλητή της Μαρίας. Η Βίκη θέλει πολύ τον Δημήτρη, γιατί τον θεωρεί σοβαρό παιδί, με στόχους και διαφορετικό από τους άλλους. Όμως κάθε φορά που προσπαθεί να τον προσεγγίσει μπλέκεται η Μαρία μέσα στα πόδια της. Ένα μεγάλο μυστικό, κρυμμένο στο παρελθόν σύντομα θα περιπλέξει ακόμη περισσότερα τα πράγματα στον κυοφορούμενο έρωτα ανάμεσα στον Δημήτρη και τη Μαρία. Το μυστικό αφορά τον βιολογικό πατέρα του Δημήτρη, που ήταν για 28 ολόκληρα χρόνια χαμένος και ξαφνικά είναι πάλι εδώ τριγύρω. Η κυρία Σταυρούλα γέννησε τον Δημήτρη το 1990. Ήταν τότε σε δεσμό με ένα Αθηναίο φαντάρο της ΕΛΔΥΚ. Ο Ντίνος, έτσι τον έλεγαν, αγαπούσε την Σταυρούλα κι όταν αυτή έμεινε έγκυος κι αποφάσισε να κρατήσει το παιδί, ο Ντίνος ήταν έτοιμος να μείνει μαζί της. Όμως δέχτηκε τρομερή πίεση από τους γονείς του και τελικά την εγκατέλειψε την ημέρα της γέννας. Από τότε η Σταυρούλα αφοσιώθηκε στο γιο της και δεν παντρεύτηκε ποτέ. Τον μικρό Δημήτρη τον υιοθέτησε ο θείος του, ο Λοΐζος, έπειτα από επιθυμία της γυναίκας του, της Χρυσάνθης, που ήταν αδελφή της Σταυρούλας κι ήθελε με τον τρόπο αυτό να προστατέψει την αδελφή της και το μωρό της. Ωστόσο η Χρυσάνθη πέθανε από την ανίατη ασθένεια λίγα χρόνια αργότερα, τη μέρα που έφερε στον κόσμο το δεύτερό της παιδί, τον Άγγελο. Είχε ήδη τότε ένα μεγαλύτερο γιο, τον Χρίστο. Τα δυο αγόρια της Χρυσάνθης, μαζί με τον εξάδελφό τους τον Δημήτρη, τα μεγάλωσαν η Σταυρούλα και ο Λοΐζος, μέσα σε μια ιδιότυπη οικογένεια, στην οποία οι γονείς δεν είναι σύζυγοι, αλλά κουνιάδα και γαμπρός. Από την άλλη, η Μαρία μεγάλωσε σε μια ευκατάστατη οικογένεια. Ο πατέρας της είναι ο Κώστας Αθανασιάδης, χειρούργος – καρδιολόγος, από την Αθήνα. Η μητέρα της είναι η Άννα Αθανασιάδη, δικηγόρος, γόνος πλούσιας οικογένειας από τη Λεμεσό. Μόνο που η Μαρία δεν είναι βιολογική κόρη του Κώστα, αλλά καρπός μιας επιπόλαιης σχέσης που είχε στα 18 της, με ένα παλιόπαιδο, τον Μελή, τον οποίο ο γονείς της Άννας, ο Μιχαλάκης και η Άλμα (Μαρία) Χρυσοχού, κατάφεραν με τη μεγάλη τους δύναμη και με τη μέθοδο της απειλής, να τον απομακρύνουν από τη ζωή της. Ωστόσο η Άννα κράτησε το μωρό της, έπειτα από απαίτηση των γονιών της, οι οποίοι ήταν θεοσεβούμενοι και θεωρούσαν μεγάλη αμαρτία το να κάνει η κόρη τους άμβλωση. Μάλιστα μεγάλωναν αυτοί για μερικά χρόνια το παιδί, όταν η Άννα πήγε για σπουδές στο Λονδίνο, εκεί όπου γνώρισε και τον έπειτα σύζυγό της, τον Κώστα. Να όμως που το παλιόπαιδο εκείνο, ο Μελής, μεγάλος και τρανός πια σήμερα στα κυκλώματα του εύκολου κέρδους, έρχεται να διεκδικήσει ξανά την πατρότητα της Μαρίας, με ένα τρόπο παραπάνω από εκβιαστικό. Κοντά του δουλεύει και ο Χρίστος, ο γιος του Λοΐζου και εξάδελφος του Δημήτρη. Αυτός ξέρει πως ο εξάδελφός του αγαπά τη Μαρία και τον βοηθά να την κερδίσει, όμως την ίδια στιγμή τον βλέπουμε να παίζει και το παιχνίδι του κακού Μελή. Ή μήπως τελικά όχι; Μήπως «παίζει» κάτι άλλο που θα το μάθουμε πολύ αργότερα; Στο μπλέξιμο αυτό προστίθεται και η πολύ καλή σχέση που έχει αναπτύξει ως ασκούμενος γιατρός ο Δημήτρης με τον πατέρα της Μαρίας, τον γιατρό Κώστα Αθανασιάδη. Ο Κώστας αντιμετωπίζει τον Δημήτρη σαν ένας πολύ καλός, μεγαλύτερος σε ηλικία, φίλος. Μάλιστα τον συμβουλεύει κι αυτός πώς θα καταφέρει να κατακτήσει την κοπέλα που αγαπά, χωρίς ωστόσο να ξέρει ότι η κοπέλα που αγαπά ο Δημήτρης είναι η θετή κόρη του… Ο έρωτας του Άγγελου, ξαδέλφου του Δημήτρη, με μια κοπέλα από την Ελλάδα, που τράκαρε μαζί της και παραλίγο να τη σκοτώσει, η πρόταση γάμου που κάνει στην Σταυρούλα ο κύριος Αδάμος, το αφεντικό της και η θλίψη που αυτή η πρόταση προκαλεί στον Λοΐζο, τα ατέλειωτα φλερτ του Νίκου, που είναι ο καλύτερος φίλος του Δημήτρη καθώς και αρκετές άλλες αληθινές και οικίες στον καθένα μας καταστάσεις ζωής, είναι τα στοιχεία που έρχονται να συμπληρώσουν τις λεπτομέρειες του σκηνικού, σε μια κοινωνική κομεντί, που με πολλή αγάπη θα προσπαθήσει να ντύσει με χαμόγελα και γλυκά συναισθήματα την καθημερινότητά μας. Σενάριο: Κωνσταντίνος Οδυσσέως Σκηνοθεσία: Κωνσταντίνος Πατσαλίδης Καλλιτεχνική επιμέλεια: Σταύρος Ποταμάρης Σεναριογραφική ομάδα:Χρήστος Γρηγοριάδης, Μαρίνα Βρόντη, Χριστίνα Κωνσταντίνου, Άρης Κυπριανού Πρωταγωνιστούν: Δώρα Κακουράτου, Ανδρέας Τσουρής, Αχιλλέας Γραμματικόπουλος, Έλενα Χριστοφή, Μαρία Μιχαήλ, Γιώργος Τζωρτζής, Κωνσταντίνος Τσιολής, Γρηγόρης Γεωργίου, Πέτρος Γιωρκάτζης, Άλκης Χρίστου, Μαρίλια Χαριδήμου, Σκεύη Παπαμιλτιάδους, Σαββίνα Γεωργίου, Ευφροσύνη Κουτσουβέρη, Γιώργος Ευαγόρου, Ντόρα Μακρυγιάννη, Χρίστος Κυριάκου, Βασίλης Χαραλάμπους, Δέσποινα Χρυσάνθου, Άντρεα Δημητρίου. General Complete name : F:\ΕΣΥ...ΣΤΟ ΚΟΣΜΟ ΣΟΥ\KOSMOS.EP.01.avi Format : AVI Format/Info : Audio Video Interleave File size : 884 MiB Duration : 43 min 44 s Overall bit rate : 2 826 kb/s Video ID : 0 Format : AVC Format/Info : Advanced Video Codec Format profile : [email protected] Format settings : 1 Ref Frames Format settings, CABAC : No Format settings, ReFrames : 1 frame Codec ID : H264 Duration : 43 min 44 s Bit rate : 2 679 kb/s Width : 1 280 pixels Height : 720 pixels Display aspect ratio : 16:9 Frame rate : 50.000 FPS Color space : YUV Chroma subsampling : 4:2:0 Bit depth : 8 bits Scan type : Progressive Bits/(Pixel*Frame) : 0.058 Stream size : 838 MiB (95%) Writing library : x264 core 152 r2854 e9a5903 Audio ID : 1 Format : MPEG Audio Format version : Version 1 Format profile : Layer 3 Codec ID : 55 Codec ID/Hint : MP3 Duration : 43 min 44 s Bit rate mode : Constant Bit rate : 128 kb/s Channel(s) : 2 channels Sampling rate : 48.0 kHz Compression mode : Lossy Stream size : 40.0 MiB (5%) Alignment : Aligned on interleaves Interleave, duration : 24 ms (1.20 video frame)
  24. Inside No9 - Seasons 1-4 (2014-2018) - Hdtv x264| ΞΕΧΩΡΙΣΤΟΙ ΕΛΛΗΝΙΚΟΙ ΥΠΟΤΙΤΛΟΙ Είδος: Comedy | Mystery Σκηνοθέτης: David Kerr Ηθοποιοί: Reece Shearsmith, Steve Pemberton, Rosie Cavaliero imdb : www.imdb.com/title/tt2674806/ Yπότιτλοι: Eλληνικοί Ξεχωριστοί Πρόκειται για μια σκοτεινή κωμική σειρά ανθολογίας, με αυτοτελή, άσχετα μεταξύ τους επεισόδια, με μοναδικό κοινό παρονομαστή ότι όλα διαδραματίζονται σε κάποιο χώρο/σπίτι/δωμάτιο με τον αριθμό 9. Ο περιορισμός των επεισοδίων σε έναν συγκεκριμένο χώρο εντείνει την αίσθηση κλειστοφοβίας, απομόνωσης, και ψυχολογικής έντασης πίσω από κάθε ιστορία, ενώ ευνοεί και κάνει ακόμα πιο ευχάριστες τις (αστείες και μη) ανατροπές στην πλοκή, αλλά και τις απρόβλεπτες χιουμοριστικές εξάρσεις που το χαρακτηρίζουν. Η ΣΕΙΡΑ ΑΝΑΝΕΩΘΗΚΕ ΓΙΑ 5η SEASON
  25. Crashing - Season 1 (2016) Hdtv X264| ΞΕΧΩΡΙΣΤΟΙ ΕΛΛΗΝΙΚΟΙ ΥΠΟΤΙΤΛΟΙ Είδος σειράς: Comedy Σκηνοθέτης : George Kane Ηθοποιοί: Phoebe Waller-Bridge, Jonathan Bailey, Julie Dray IMDB : www.imdb.com/title/tt5295524/ Yπότιτλοι: Eλληνικοί Ξεχωριστοί Μια κωμική σειρά που ακολουθεί τις ζωές έξι ατόμων ηλικίας 20 έως 30 χρονών τα οποία έχουν υπό την "προστασία" τους ένα μεγάλο αχρησιμοποίητο νοσοκομείου...