Jump to content

Search the Community

Showing results for tags 'κοινωνικό'.



More search options

  • Search By Tags

    Type tags separated by commas.
  • Search By Author

Content Type


Forums

  • ΓΕΝΙΚΑ - GENERAL
    • Γενικές Ανακοινώσεις - General Announcements
    • Κανόνες - Rules
    • Βοηθητικοί Οδηγοί
    • Συζήτηση - Discussion
    • Συστηθείτε - Introduse yourself
    • Γαστρονομικές Οπτασίες - Recipes
    • Το γέλιο είναι μεταδοτικό... Μεταδώστε το!!! - Fun Place
    • Υγεία
  • ΕΛΛΗΝΙΚΗ ΜΟΥΣΙΚΗ - GREEK MUSIC
    • Νέα CDs 2016-2019
    • Promos
    • Single Remix
    • Ελληνικά Ψηφιακά Cds - Greek Digital Cds
    • Ελληνικά CDs 2010-2015
    • Παλαιότερα Ελληνικά CDs μέχρι το 2009
    • Παραδοσιακά CDs
    • Ρεμπέτικο Στέκι
    • Δισκάκια 45 στροφών και γραμμοφώνου
    • Επανεκδόσεις
    • Συλλογές
    • Box Set Collections
    • Ελληνικά Mix - Remix
    • Παιδικά Ελληνικά CDs
    • Δισκογραφίες
  • ΞΕΝΗ ΜΟΥΣΙΚΗ - INTERNATIONAL MUSIC
    • Νέα CDs 2016-2019
    • Παλαιότερα Ξένα CDs
    • Συλλογές
    • Box Set Collections
    • Ξένα Mix - Remix
    • Παιδικά Ξένα CDs
    • Δισκογραφίες
  • ΜΟΥΣΙΚΗ ΣΕ ΠΟΙΟΤΗΤΑ LOSSLESS
    • Ελληνικά CDs
    • Ξένα CDs
  • ΤΑΙΝΙΕΣ - MOVIES
    • Ελληνικές Ταινίες - Greek Movies
    • Ξένες Ταινίες με ελληνικούς υπότιτλους 2016 - 2019
    • Παλαιότερες Κλασσικές Ξένες Ταινίες (μέχρι το 1990)
    • Ξένες Ταινίες με ελληνικούς υπότιτλους 1991 - 2015
    • Ξένες Ταινίες HD 720p BRRIP Avi
    • Ξένες Ταινίες BluRay
    • Ξένες Ταινίες Micro HD
    • Φιλμογραφίες
    • Παιδικές Ταινίες
    • Ντοκιμαντέρ
    • Θεατρικές Παραστάσεις
  • ΕΠΟΧΙΑΚΑ
    • Χριστούγεννα
    • Πάσχα
    • Αποκριές
    • Αγίου Βαλεντίνου
  • ΤΗΛΕΟΠΤΙΚΟ ΠΡΟΓΡΑΜΜΑ
    • Ελληνικές Σειρές
    • Ξένες Σειρές
    • Τούρκικες Σειρές
    • Τηλεοπτικές Eκπομπές
  • ΠΑΙΧΝΙΔΙΑ - GAMES
    • Pc Games
    • Play Station Games
    • XBOX
    • Mac Games
  • ΕΦΑΡΜΟΓΕΣ - ΠΡΟΓΡΑΜΜΑΤΑ
    • Λειτουργικά Προγράμματα
    • Προγράμματα Προστασίας
    • Εργαλεία Συστήματος
    • Εργαλεία Πολυμέσων
    • Portable Προγράμματα
    • Προγράμματα για Mac
    • Internet Tools
    • Tutorials
  • E-BOOKS
    • Έλληνες Συγγραφείς
    • Ξένοι Συγγραφείς
    • Κόμικς
    • Περιοδικά
    • Audio Books
  • ΑΝΑΖΗΤΗΣΗ
    • Μουσική
    • Ταινίες - Σειρές
    • Παιχνίδια
    • Προγράμματα
    • E-Books
  • V.I.P

Find results in...

Find results that contain...


Date Created

  • Start

    End


Last Updated

  • Start

    End


Filter by number of...

Found 772 results

  1. Είδος Ταινίας: Drama Πρεμιέρα: 27 December 2017 (South Korea) Σκηνοθέτης: Joon-Hwan Jang Σενάριο: Kyung-chan Kim Ηθοποιοί: Yoon-seok Kim, Jung-woo Ha, Hae-jin Yoo Υπότιτλοι: Ελληνικοί Ενσωματωμένοι & Σε Ξεχωριστό Αρχείο Μετάφραση: Άγνωστος Διάρκεια: 129' Καταλληλότητα: -encoder: .:Sexmeup:. Πηγή: 1080p.BluRay.x264-JRP Υπόθεση: Το 1987, η Κορέα, κάτω από ένα καταπιεστικό στρατιωτικό καθεστώς, η παράνομη ανάκριση και ο θάνατος ενός φοιτητή, πυροδοτούν τους απλούς πολίτες να αγωνιστούν για την αλήθεια και να επιφέρουν δικαιοσύνη. https://www.imdb.com/title/tt6493286/ [video=youtube;19hvVaeJ4tI]https://www.youtube.com/watch?v=19hvVaeJ4tI ΑΝ ΘΕΛΕΤΕ ΝΑ ΣΤΗΡΙΞΕΤΕ ΤΗΝ ΔΟΥΛΕΙΑ ΜΟΥ ΚΑΝΤΕ ΕΥΚΟΛΑ ΚΑΙ ΓΡΗΓΟΡΑ ΛΟΓΑΡΙΑΣΜΟ ΣΤΟ EASYBYTEZ KAI KATEΒΑΣΤΕ ΣΑΝ PREMIUM AΠO 20HOST!! http://www.easybytez.com/free2771.html
  2. Είδος Ταινίας: Drama Πρεμιέρα: 27 December 2017 (South Korea) Σκηνοθέτης: Joon-Hwan Jang Σενάριο: Kyung-chan Kim Ηθοποιοί: Yoon-seok Kim, Jung-woo Ha, Hae-jin Yoo Υπότιτλοι: Ελληνικοί Ενσωματωμένοι & Σε Ξεχωριστό Αρχείο Μετάφραση: Άγνωστος Διάρκεια: 129' Καταλληλότητα: -encoder: .:Sexmeup:. Πηγή: 1080p.BluRay.x264-JRP Υπόθεση: Το 1987, η Κορέα, κάτω από ένα καταπιεστικό στρατιωτικό καθεστώς, η παράνομη ανάκριση και ο θάνατος ενός φοιτητή, πυροδοτούν τους απλούς πολίτες να αγωνιστούν για την αλήθεια και να επιφέρουν δικαιοσύνη. https://www.imdb.com/title/tt6493286/ [video=youtube;19hvVaeJ4tI]https://www.youtube.com/watch?v=19hvVaeJ4tI ΑΝ ΘΕΛΕΤΕ ΝΑ ΣΤΗΡΙΞΕΤΕ ΤΗΝ ΔΟΥΛΕΙΑ ΜΟΥ ΚΑΝΤΕ ΕΥΚΟΛΑ ΚΑΙ ΓΡΗΓΟΡΑ ΛΟΓΑΡΙΑΣΜΟ ΣΤΟ EASYBYTEZ KAI KATEΒΑΣΤΕ ΣΑΝ PREMIUM AΠO 20HOST!! http://www.easybytez.com/free2771.html
  3. ΛΟΓΩ ΤΙΜΗΣ. 20 ΧΡΟΝΙΑ ΜΕΤΑ (2019) ΣΚΑΪ TV WEBrip AVI Οι αχώριστοι φίλοι συναντώνται στο μπαρ του Βασίλη για να κάνουν ένα πάρτι- έκπληξη στον Μάνο, μετά από την περιπέτειά του. Ο Βασίλης έχει φροντίσει να βρει ένα μικρό διαμέρισμα για τον φίλο του Μάνο και του έχει δώσει και τα πρώτα λεφτά για να μπορεί να κινηθεί ώσπου να ενταχθεί και πάλι στην κανονικότητα. Η Ηρώ έρχεται από τα Κύθηρα όπου ζει με τον επιχειρηματία σύζυγό της Θανάση και τα δύο τους παιδιά. Ο Βασίλης είναι παντρεμένος με τη Δέσποινα που έχει μια σχολή χορού. Ο Άρης έχει μια ηλεκτρονική εφημερίδα και έχει δεσμό με τη Ζωή. Η Μάνια έχει προ πολλού χωρίσει με τον Φώτη και είναι παντρεμένη με τον Παύλο, έναν φιλήσυχο ψυχίατρο. Η Μάνια έχει μια κόρη από τον πρώτο της γάμο, την Άννα και είναι έγκυος στο δεύτερο παιδί της. Η Αθηνά έχει ένα μαγαζί με γυναικεία ρούχα. Τέλος, ο Μιχάλης διαπρέπει ως μεγαλοδικηγόρος και είναι παντρεμένος με την Αλεξάνδρα. Μαζί έχουν έναν γιο, τον Φοίβο. Το βράδυ του πάρτι, η παρέα ξεφαντώνει ως την στιγμή που… General Complete name :TIMH.EP.01.avi Format : AVI Format/Info : Audio Video Interleave File size : 1.18 GiB Duration : 44 min 27 s Overall bit rate : 3 787 kb/s Video #0 ID : 0 Format : AVC Format/Info : Advanced Video Codec Format profile : [email protected] Format settings : 1 Ref Frames Format settings, CABAC : No Format settings, ReFrames : 1 frame Codec ID : H264 Duration : 44 min 27 s Bit rate : 3 646 kb/s Width : 1 280 pixels Height : 720 pixels Display aspect ratio : 16:9 Frame rate : 25.000 FPS Color space : YUV Chroma subsampling : 4:2:0 Bit depth : 8 bits Scan type : Progressive Bits/(Pixel*Frame) : 0.158 Stream size : 1.13 GiB (96%) Writing library : x264 core 146 r2538 121396c Audio #1 ID : 1 Format : MPEG Audio Format version : Version 1 Format profile : Layer 3 Codec ID : 55 Codec ID/Hint : MP3 Duration : 44 min 27 s Bit rate mode : Constant Bit rate : 128 kb/s Channel(s) : 2 channels Sampling rate : 48.0 kHz Compression mode : Lossy Stream size : 40.7 MiB (3%) Alignment : Aligned on interleaves Interleave, duration : 24 ms (0.60 video frame)
  4. THROUGH THE FIRE / SAUVER OU PERIR (2018) FRENCH BDRip XviD AC3-EXTREME | ENΣΩΜΑΤΩΜΕΝΟΙ ΥΠΟΤΙΤΛΟΙ ΣΚΗΝΟΘΕΣΙΑ : Frédéric Tellier ΣΕΝΑΡΙΟ : David Oelhoffen (adaptation), David Oelhoffen (dialogue) ΗΘΟΠΟΙΟΙ : Pierre Niney, AnaΓ―s Demoustier, Vincent Rottiers ΕΙΔΟΣ : Drama ΠΡΕΜΙΕΡΑ : 28 November 2018 (France) ΜΕΤΑΦΡΑΣΗ : CRS IMDB: https://www.imdb.com/title/tt7210426/ Ο Frank είναι ένας πυροσβέστης από το Παρίσι. Σώζει ζωές. Ζει σε ένα στρατόπεδο, ευτυχισμένος, μαζί με τη γυναίκα του. Κατά τη διάρκεια μιας πυρκαγιάς, θυσιάζεται για να σώσει τους άντρες του. Όταν συνέρχεται σε ένα κέντρο αποκατάστασης, στο Les Grands Brules, συνειδητοποιεί ότι το πρόσωπό του έχει αλλοιωθεί από τις φλόγες. Τώρα πια θα πρέπει να μάθει να ζεί με αυτό και να αποδεκτεί ότι αυτός τώρα είναι που πρέπει να σωθεί...
  5. ΧΑΛΚΙΝΑ ΧΡΟΝΙΑ Γ΄ΚΥΚΛΟΣ (2019-2020) ΡΙΚ WEBRip Ο τρίτος κυκλος της δραματικής καθημερινής σειράς εποχής του ΡΙΚ που θα ξεκινήσει το Σεπτέμβριο και θα καλύπτει την prime timeζώνη του σταθμού ονομάζεται «Χάλκινα Χρόνια». Η υπόθεση της σειράς τοποθετείται μετά το Β’ Παγκόσμιο Πόλεμο και επικεντρώνεται σε διάφορες ιστορίες καθημερινών ανρθώπων, που έχουν, μέσα στις πολιτικές και κοινωνικές αλλαγές της εποχής, τα δικά τους πάθη, ανάγκες και όνειρα. Σεναριογράφοι αυτής της σειράς είναι η Δέσποινα Πυρκετή και η Σοφία Σοφοκλέους, στο σκηνοθετικό τιμόνι βρίσκεται η Κόριννα Αβρααμίδου και ο Χρίστος Νικολάου, ενώ στην παραγωγή βρίσκεται η Galinis Productions. Το πρωταγωνιστικό καστ αποτελείται από τους: Λένια Σορόκου, Αντρέα Τσέλεπο, Αντωνία Χαραλάμπους, Κύνθια Παυλίδου, Άννα Γιαγκιόζη, Γιάννα Λευκάτη, Σοφοκλή Κασκαούνια, Πανίκο Πιλάλη, Αντρέα Παπαμιχαλόπουλο, Αστέριο Πελτέκη, Μαρία Φιακά, Νάτια Χαραλάμπους, Νίκη Δραγούμη και τον Σίμο Τσιάκκα. O Κώστας Κακογιάννης επιμελείται για άλλη μια φορά τη μουσική επένδυση, ενώ τα σκηνικά και τα κοστούμια ο Λάκης Γενεθλής. General Complete name :XALKINA.S03.01.avi Format : AVI Format/Info : Audio Video Interleave File size : 1.13 GiB Duration : 54 min 46 s Overall bit rate : 2 952 kb/s Video #0 ID : 0 Format : AVC Format/Info : Advanced Video Codec Format profile : [email protected] Format settings : 1 Ref Frames Format settings, CABAC : No Format settings, ReFrames : 1 frame Codec ID : H264 Duration : 54 min 46 s Bit rate : 2 811 kb/s Width : 768 pixels Height : 432 pixels Display aspect ratio : 16:9 Frame rate : 25.000 FPS Color space : YUV Chroma subsampling : 4:2:0 Bit depth : 8 bits Scan type : Progressive Bits/(Pixel*Frame) : 0.339 Stream size : 1.08 GiB (95%) Writing library : x264 core 146 r2538 121396c Audio #1 ID : 1 Format : MPEG Audio Format version : Version 1 Format profile : Layer 3 Codec ID : 55 Codec ID/Hint : MP3 Duration : 54 min 46 s Bit rate mode : Constant Bit rate : 128 kb/s Channel(s) : 2 channels Sampling rate : 48.0 kHz Compression mode : Lossy Stream size : 50.1 MiB (4%) Alignment : Aligned on interleaves Interleave, duration : 24 ms (0.60 video frame)
  6. ΓΥΝΑΙΚΑ ΧΩΡΙΣ ΟΝΟΜΑ Β΄ΚΥΚΛΟΣ (2019-2020) ΑΝΤ1 TVRip AVI HD Ο δεύτερος κύκλος της σειράς «Γυναίκα Χωρίς Όνομα», δύο γυναίκες πολεμούν μέχρι τέλους για τη ζωή που τους έκλεψαν: τη ζωή των παιδιών τους. Σε αυτή τη μάχη όμως, δεν υπάρχει βέβαιος νικητής… Θα καταλάβουν ότι η αληθινή εκδίκηση, είναι η συγχώρεση; Η ΙΣΤΟΡΙΑ Η Κάτια (Μαριάννα Τουμασάτου) ψάχνει απεγνωσμένα έναν συμβατό δότη για να σωθεί ο 10χρονος γιος της. Η Μαρίνα (Ντόρα Μακρυγιάννη) είναι η μοναδική συμβατή δότρια αλλά ανακαλύπτει ότι είναι έγκυος και ότι είναι αδύνατον να βοηθήσει την Κάτια η οποία χρησιμοποιεί κάθε μέσο για να την αναγκάσει. Προκειμένου να ξεφύγει και να σώσει το μωρό της, η Μαρίνα προδομένη πλέον από τον έρωτά της, Κωστή (Πάνος Νάτσης) κατασκευάζει την ενοχή της και καταδικάζεται ως «Γυναίκα Χωρίς Όνομα» για ένα φόνο που δεν διέπραξε ποτέ! Γεννά την κόρη της με ασφάλεια στη φυλακή και την ονομάζει Ελπίδα… Η Κάτια, τελικά, θα χάσει το παιδί της και βάζει σκοπό της ζωή της να βρει τη Μαρίνα και να την κάνει να πληρώσει με το ίδιο νόμισμα, να στερηθεί και εκείνη για πάντα το ίδιο της το παιδί. Και το καταφέρνει. Τότε, η Μαρίνα με τη βοήθεια της συγκρατούμενής της, Μάρθας (Ταμίλα Κουλίεβα), θα καταφέρει να βγει από τη φυλακή. Αποφασισμένη να φτάσει μέχρι τέλους μεταμορφώνεται σε μία ισότιμη αντίπαλο. Με άλλο όνομα και εμφάνιση επιστρέφει στη ζωή της Κάτιας και όλων εκείνων που την πλήγωσαν για να τους καταστρέψει. Οι δύο γυναίκες, η Μαρίνα και η Κάτια, θα βρεθούν αντιμέτωπες η μία με την άλλη και το μίσος τους θα τις οδηγήσει στα πιο επικίνδυνα και σκληρά μονοπάτια. Αυτό που δεν γνωρίζουν είναι ότι το αόρατο χέρι της μοίρας που τις έδεσε μαζί, κρύβει μια συγκλονιστική αλήθεια… ΟΙ ΧΑΡΑΚΤΗΡΕΣ Η Κάτια (Μαριάννα Τουμασάτου) Η Μαρίνα (Ντόρα Μακρυγιάννη) Η Έλλη (Αλεξάνδρα Ταβουλάρη) Ο Δημήτρης (Κώστας Καζανάς) Ο Κωστής (Πάνος Νάτσης) Η Μάρθα (Ταμίλα Κουλίεβα) General Complete name :GYNH.S02.EP.01.avi Format : AVI Format/Info : Audio Video Interleave File size : 943 MiB Duration : 48 min 36 s Overall bit rate : 2 713 kb/s Video #0 ID : 0 Format : AVC Format/Info : Advanced Video Codec Format profile : [email protected] Format settings : 1 Ref Frames Format settings, CABAC : No Format settings, ReFrames : 1 frame Codec ID : H264 Duration : 48 min 36 s Bit rate : 2 572 kb/s Width : 640 pixels Height : 360 pixels Display aspect ratio : 16:9 Frame rate : 25.000 FPS Color space : YUV Chroma subsampling : 4:2:0 Bit depth : 8 bits Scan type : Progressive Bits/(Pixel*Frame) : 0.447 Stream size : 894 MiB (95%) Writing library : x264 core 146 r2538 121396c Audio #1 ID : 1 Format : MPEG Audio Format version : Version 1 Format profile : Layer 3 Codec ID : 55 Codec ID/Hint : MP3 Duration : 48 min 36 s Bit rate mode : Constant Bit rate : 128 kb/s Channel(s) : 2 channels Sampling rate : 44.1 kHz Compression mode : Lossy Stream size : 44.5 MiB (5%) Alignment : Aligned on interleaves Interleave, duration : 26 ms (0.65 video frame)
  7. ΕΛΑ ΣΤΗ ΘΕΣΗ ΜΟΥ Δ΄ΚΥΚΛΟΣ - ALPHA (2019-2020) TVRip AVI Ο τέταρτος κύκλος αρχίζει Κάνει εικασίες για αυτό το όνομα. Η Φλωρέτα Σοφοκλέους είναι ένα ακόμα νέο πρόσωπο που θα μπει του χρόνου στη σειρά. Εικάζουν ότι είναι η σύζυγος του Ανδρέα ή μία ακόμα κόρη του. Μένει, λοιπόν, να το δούμε! Πρόκειται για έναν χαρακτήρα που θα φέρει αλλαγές και ανακατατάξεις στις σχέσεις των ηρώων, θα τη βρει; Το σενάριο υπογράφει ο Γιώργος Κρητικός και τη σκηνοθεσία ο Γιάννης Βασιλειάδης, ο Σπύρος Ρασιδάκης και ο Βασίλης Τσελεμέγκος. Στους πρωταγωνιστικούς ρόλους οι: Γιάννης Τσιμιτσέλης, Αθηνά Οικονομάκου, Μιχάλης Μαρίνος, Μαρίνος Κόνσολος, Ευαγγελία Συριοπούλου, Ναταλία Δραγούμη, Άνδρη Θεοδότου, Χάρης Γρηγορόπουλος, Μαρία Ανδρούτσου, Αναστάσης Κολοβός, Πάνος Σταθακόπουλος, Ερμόλαος Ματθαίου, Εύα Δαελή, Νικόλας Απέργης, Καλή Δάβρη, Αναστασία Παντούση, Ορέστης Καρύδας, Βασιλική Αγγέλη κ.α. Στο ρόλο της Αιμιλίας, η Μαρία Φιλίππου Στο ρόλο του Λεωνίδα, ο Παύλος Ευαγγελόπουλος Εκτέλεση παραγωγής J.K. Productions - ΚΑΡΑΓΙΑΝΝΗΣ General Complete name :STH.THESH.MOY.S04.EP.01.avi Format : AVI Format/Info : Audio Video Interleave File size : 1.36 GiB Duration : 50 min 39 s Overall bit rate : 3 832 kb/s Video #0 ID : 0 Format : AVC Format/Info : Advanced Video Codec Format profile : [email protected] Format settings : 1 Ref Frames Format settings, CABAC : No Format settings, ReFrames : 1 frame Codec ID : H264 Duration : 50 min 39 s Bit rate : 3 690 kb/s Width : 1 280 pixels Height : 720 pixels Display aspect ratio : 16:9 Frame rate : 25.000 FPS Color space : YUV Chroma subsampling : 4:2:0 Bit depth : 8 bits Scan type : Progressive Bits/(Pixel*Frame) : 0.160 Stream size : 1.31 GiB (96%) Writing library : x264 core 146 r2538 121396c Audio #1 ID : 1 Format : MPEG Audio Format version : Version 1 Format profile : Layer 3 Codec ID : 55 Codec ID/Hint : MP3 Duration : 50 min 39 s Bit rate mode : Constant Bit rate : 128 kb/s Channel(s) : 2 channels Sampling rate : 48.0 kHz Compression mode : Lossy Stream size : 46.4 MiB (3%) Alignment : Aligned on interleaves Interleave, duration : 24 ms (0.60 video frame)
  8. ΑΣΤΕΡΙΑ ΣΤΗΝ ΑΜΜΟ (2019) ΑΛΦΑ TV TVrip AVI Στην Ρόδο, πριν αρκετά χρόνια, η μικρή Αλεξία ζούσε ευτυχισμένη με τους γονείς της, τον Ιάκωβο και την Χαρίκλεια. Όλα κυλούσαν ήρεμα μέχρι την στιγμή που μοιραία γεγονότα διαδέχονται το ένα το άλλο και βαραίνουν το αρχοντικό της οικογένειας Στεργίου. Ο πατέρας της Αλεξίας εγκαταλείπει την οικογένειά του, φεύγει στη μακρινή Ινδία και η μητέρα της δεν αντέχει και πεθαίνει. Ο κόσμος του μικρού κοριτσιού αλλάζει, η αυστηρή γιαγιά είναι ο μόνος συγγενής της πλέον. Μοναδική αχτίδα φωτός στη ζωή της, η Βέρα, η οικονόμος του σπιτιού, και οι τρεις φίλοι της, ο Μάξιμος, ο Ανδρέας και ο Ίωνας. Σήμερα, η Αλεξία νέα γυναίκα πια, ερωτευμένη από χρόνια με τον Μάξιμο, ο οποίος την έχει πληγώσει βαθιά, είναι έτοιμη να του δώσει μία δεύτερη ευκαιρία. Μερικές φορές όμως, ο πρίγκιπας του παραμυθιού αποδεικνύεται μία ψευδαίσθηση και η Αλεξία για άλλη μια φορά προδίδεται από τον Μάξιμο. Ο Νικηφόρος Απέργης, ο σατανικός πατέρας του Μάξιμου κινεί τα νήματα της δολοπλοκίας και δε σταματά ούτε όταν κινδυνεύει η ευτυχία του ίδιου του παιδιού του. Η περιουσία της Αλεξίας ήταν πάντα στο στόχαστρό του, πολύ περισσότερο τώρα που τα χρέη τον έχουν πνίξει. Η γιαγιά της Αλεξίας, η Δέσποινα, προσπαθεί να την προστατεύσει, αλλά δεν θα προλάβει, αφού ένα βράδυ βρίσκεται δολοφονημένη. Παρηγοριά και λιμάνι στην ταραγμένη ζωή της Αλεξίας, οι δύο παιδικοί της φίλοι, ο Ανδρέας και ο Ίωνας. Ένας από τους δύο θα κληθεί να σώσει το πιο πολύτιμο πράγμα στη ζωή της φίλης τους, το γιο της. Παράλληλα με τη ζωή της Αλεξίας, στην Κύπρο έχει μεγαλώσει φτωχή και βασανισμένη η ετεροθαλής αδελφή της, η Νίκη, εννέα χρόνια μικρότερή της. Η ψυχή της κοπέλας έχει δηλητηριαστεί από την πικρία της μητέρας της και της γιαγιάς της για τον άγνωστο άντρα που κατέστρεψε τις ζωές τους. Στο κρεβάτι του πόνου, όταν η μητέρα αρρωσταίνει βαριά, η Νίκη ορκίζεται να πάρει εκδίκηση για αυτόν και την οικογένειά του. Το όνομα του άνδρα είναι Ιάκωβος Στεργίου και πρόκειται για τον πατέρα της Αλεξίας, ο οποίος δεν έχει πεθάνει αλλά ζει στην Ινδία προσπαθώντας να λησμονήσει και να λησμονηθεί. Βασανισμένος από τύψεις, όταν μαθαίνει ένα τραγικό γεγονός αποφασίζει να επιστρέψει για να σώσει τις κόρες του, την Αλεξία και την Νίκη. Σενάριο: Ρένα Ρίγγα Σκηνοθεσία: Θοδωρής Νικολαΐδης Ηθοποιοί: Μίρκα Παπακωνσταντίνου, Δημοσθένης Παπαδόπουλος, Μυρτώ Αλικάκη, Πέτρος Λαγούτης, Σοφία Βογιατζάκη, Λουκία Πιστιόλα, Ρένος Ρώτας, Λαμπρινή Σκρέκα, Φώτης Κάραλης, Λυδία Σγουράκη, Στέλιος Ανδρονίκου, Έλενα Πιερίδου, Θεόφιλος Πασχάλης, Βερόνικα Ηλιοπούλου, Γιώργος Αναγιωτός, Αστέρω Κυπριανού, Άννα Μπεζάν, Χριστίνα Παγκάλη, Ελευθερία Ανδρέου, Ελένη Διαμαντίδου, Θανάσης Δρακόπουλος, Α λέξανδρος Μαρτίδης, Μανώλης Μιχαηλίδης, Έλενα Ευσταθίου κ.ά. Παραγωγή: Alpha Κύπρου General Complete name :ASTERIA.EP.01-02.avi Format : AVI Format/Info : Audio Video Interleave File size : 1.41 GiB Duration : 1 h 41 min Overall bit rate : 1 982 kb/s Video #0 ID : 0 Format : AVC Format/Info : Advanced Video Codec Format profile : [email protected] Format settings : 1 Ref Frames Format settings, CABAC : No Format settings, ReFrames : 1 frame Codec ID : H264 Duration : 1 h 41 min Bit rate : 1 841 kb/s Width : 1 280 pixels Height : 720 pixels Display aspect ratio : 16:9 Frame rate : 25.000 FPS Color space : YUV Chroma subsampling : 4:2:0 Bit depth : 8 bits Scan type : Progressive Bits/(Pixel*Frame) : 0.080 Stream size : 1.31 GiB (93%) Writing library : x264 core 146 r2538 121396c Audio #1 ID : 1 Format : MPEG Audio Format version : Version 1 Format profile : Layer 3 Codec ID : 55 Codec ID/Hint : MP3 Duration : 1 h 41 min Bit rate mode : Constant Bit rate : 128 kb/s Channel(s) : 2 channels Sampling rate : 48.0 kHz Compression mode : Lossy Stream size : 93.1 MiB (6%) Alignment : Aligned on interleaves Interleave, duration : 24 ms (0.60 video frame)
  9. ΓΑΛΑΤΕΙΑ Δ΄ΚΥΚΛΟΣ (2019-2020) ΣΙΓΜΑ ΚΥΠΡΟΥ WEBRip AVI ΞΕΚΙΝΑ Ο Δ΄ΚΥΚΛΟΣ Ο έρωτας κατάφερε να βγει νικητής απέναντι στην πραγματικότητα της ζωής ή απλά συμβιβάστηκε με τον πιο αδυσώπητο αντίπαλο: τον χρόνο; Η ζωή συνεχίζεται και ο χρόνος, λένε, γιατρεύει τις πληγές. Είναι όμως αυτό αλήθεια; Οι άνθρωποι μαθαίνουν να προσαρμόζονται στα νέα δεδομένα καθώς οι εποχές προχωρούν, ακόμα και αν τα όνειρα έχουν μείνει απραγματοποίητα. Όμως η ψυχή δεν ξεχνάει και περιμένει την κατάλληλη στιγμή για να διεκδικήσει όλα όσα της στέρησε η ζωή. Άραγε τα καταπιεσμένα πάθη θα βρουν την ευκαιρία να βγουν στην επιφάνεια; Άραγε πόσο δυνατοί είναι οι ήρωες της «Γαλάτειας» για τις νέες μάχες που τους επιφυλάσσει η μοίρα; Άραγε θα πάρει ο κάθε ένας αυτό που του αξίζει; Δικαίωση… Τιμωρία… Αναγνώριση… Κατανόηση… Νίκη… Ήττα… Και ενώ ο κόσμος γύρω τους καταρρέει και ο πόλεμος πλησιάζει αμείλικτος, θα αποδειχθεί τελικά η αγάπη πιο δυνατή; ΗΘΟΠΟΙΟΙ: Κρίστοφερ Γκρέκο – Καράγιωρκης Άλκηστης Παυλίδου – Φλουρεντζού Δέσποινα Μπεμπεδέλη – Μαριγώ Ειρήνη Κωνσταντίνου – Πολύμνια Κώστας Δημητρίου – Αντζουλής Ανδρέας Μελέκκης – Μιχαηλάς (μουχτάρης) Ανδρέας Αργυρίδης – Χαμπής Νεοκλής Νεοκλέους – Κυριάκος Χριστιάνα Λάρκου – Ανδρονίκη Βαρβάρα Χριστοφή – Γαλάτεια Χρήστος Τουμάζου – Πετρής Ιάκωβος Χατζηβασίλη – Στεφανής Μάρα Κωνσταντίνου – Μαργαρίτα Ελευθερία Ανδρέου – Φανούλλα Πάολα Χατζηλαμπρή – Ερατώ Βασίλης Μιχαήλ- Πολυδεύκης Μιχάλης Τερλικκάς – Ποιητάρης Βαλεντίνα Σοφοκλέους – Βασιλού Χριστιάνα Θεοδώρου – Αννέτα ΣΕΝΑΡΙΟ: Γιώργος Σοφοκλέους και Ελένη Καούλα ΓΕΝΙΚΗ ΕΠΙΜΕΛΕΙΑ: Κύρος Ρωσσίδης ΣΚΗΝΟΘΕΣΙΑ: Κώστας Κωστόπουλος και Πάρις Προκοπίου General Complete name : GALATEIA.S03.EP.01.avi Format : AVI Format/Info : Audio Video Interleave File size : 1.01 GiB Duration : 1 h 1 min Overall bit rate : 2 337 kb/s Video ID : 0 Format : AVC Format/Info : Advanced Video Codec Format profile : [email protected] Format settings : 1 Ref Frames Format settings, CABAC : No Format settings, ReFrames : 1 frame Codec ID : H264 Duration : 1 h 1 min Bit rate : 2 196 kb/s Width : 1 280 pixels Height : 720 pixels Display aspect ratio : 16:9 Frame rate : 25.000 FPS Color space : YUV Chroma subsampling : 4:2:0 Bit depth : 8 bits Scan type : Progressive Bits/(Pixel*Frame) : 0.095 Stream size : 970 MiB (94%) Writing library : x264 core 152 r2854 e9a5903 Audio ID : 1 Format : MPEG Audio Format version : Version 1 Format profile : Layer 3 Codec ID : 55 Codec ID/Hint : MP3 Duration : 1 h 1 min Bit rate mode : Constant Bit rate : 128 kb/s Channel(s) : 1 channel Sampling rate : 44.1 kHz Compression mode : Lossy Stream size : 56.5 MiB (5%) Alignment : Aligned on interleaves Interleave, duration : 26 ms (0.65 video frame)
  10. Είδος Ταινίας: Drama, History, Romance Πρεμιέρα: 12 October 2018 (Lithuania) Σκηνοθέτης: Marius A. Markevicius Σενάριο: Ben York Jones (screenplay by), Ben York Jones Ηθοποιοί: Bel Powley, Peter Franzen, Jonah Hauer-King Υπότιτλοι: Ελληνικοί Ενσωματωμένοι & Σε Ξεχωριστό Αρχείο Μετάφραση: misterN Διάρκεια: 98' Καταλληλότητα: - encoder: .:Sexmeup:. Πηγή: 1080p.WEB-DL.DD5.1.H264-CMRG Υπόθεση: Πρόκειται για την ιστορία μιας νεαρής κοπέλας, η οποία με τη μητέρα της και τον μικρότερο αδελφό της απελάθηκαν σε ένα σοβιετικό στρατόπεδο εργασίας εν μέσω της βασιλείας του τρόμου του Στάλιν στην περιοχή της Βαλτικής κατά τη διάρκεια του Β 'Παγκοσμίου Πολέμου. Μια επίδοξος καλλιτέχνης, που μυστικά καταγράφει το τρομερό ταξίδι της με τα σχέδια της. https://www.imdb.com/title/tt3759298/ ΑΝ ΘΕΛΕΤΕ ΝΑ ΣΤΗΡΙΞΕΤΕ ΤΗΝ ΔΟΥΛΕΙΑ ΜΟΥ ΚΑΝΤΕ ΕΥΚΟΛΑ ΚΑΙ ΓΡΗΓΟΡΑ ΛΟΓΑΡΙΑΣΜΟ ΣΤΟ EASYBYTEZ KAI KATEΒΑΣΤΕ ΣΑΝ PREMIUM AΠO 20 HOST!! http://www.easybytez.com/free2771.html
  11. Είδος Ταινίας: Adventure, Comedy, Drama Πρεμιέρα: 24 January 2019 (Greece) Σκηνοθέτης: Benedikt Erlingsson Σενάριο: Benedikt Erlingsson, Olafur Egilsson (as Olafur Egill Egilsson) Ηθοποιοί: Halldora Geirharsdottir, Johann Sigurarson, Juan Camillo Roman Estrada Υπότιτλοι: Ελληνικοί Ενσωματωμένοι & Σε Ξεχωριστό Αρχείο Ελληνικός Τίτλος: Γυναίκα σε Πόλεμο Γνωστό και ως: Kona fer i stri Μετάφραση: KOSTKORO Διάρκεια: 101' Καταλληλότητα: -encoder: .:Sexmeup:. Πηγή: LiMiTED.1080p.BluRay.x264-CADAVER Υπόθεση: Στο Ρέικιαβικ του σήμερα, η 50χρονη Χάλλα ζει μια διπλή ζωή: ο κόσμος τη γνωρίζει σαν μια διευθύντρια χορωδίας, ενώ ταυτόχρονα εκείνη είναι μια παθιασμένη ακτιβίστρια που έχει κρυφά κηρύξει πόλεμο ενάντια στην τοπική βιομηχανία αλουμινίου. Ξεκινώντας από μικρούς βανδαλισμούς, η Χάλλα καταφέρνει να προκαλέσει ένα βιομηχανικό σαμποτάζ τόσο μεγάλο που προκαλεί προβλήματα στην Ισλανδική κυβέρνηση. Τώρα, και ενώ σχεδιάζει την πιο προκλητική της ενέργεια, λαμβάνει ένα απρόσμενο γράμμα που τα ανατρέπει όλα στη ζωή της. https://www.imdb.com/title/tt7279188/ [video=youtube;U2v3_jHrvBQ]https://www.youtube.com/watch?v=U2v3_jHrvBQ ΑΝ ΘΕΛΕΤΕ ΝΑ ΣΤΗΡΙΞΕΤΕ ΤΗΝ ΔΟΥΛΕΙΑ ΜΟΥ ΚΑΝΤΕ ΕΥΚΟΛΑ ΚΑΙ ΓΡΗΓΟΡΑ ΛΟΓΑΡΙΑΣΜΟ ΣΤΟ EASYBYTEZ KAI KATEΒΑΣΤΕ ΣΑΝ PREMIUM AΠO 20HOST!! http://www.easybytez.com/free2771.html
  12. Είδος Ταινίας: Biography, Drama, Music Πρεμιέρα: 1 November 2018 (Greece) Σκηνοθέτης: Bryan Singer Σενάριο: Anthony McCarten (story by), Peter Morgan (story by) Ηθοποιοί: Rami Malek, Lucy Boynton, Gwilym Lee Υπότιτλοι: Ελληνικοί Ενσωματωμένοι & Σε Ξεχωριστό Αρχείο Μετάφραση: BHU Διάρκεια: 134' Καταλληλότητα: - encoder: .:Sexmeup:. Πηγή: 1080p.BluRay.x264-SPARKS Υπόθεση: To Bohemian Rhapsody είναι μια ωδή στους Queen, τη μουσική τους και τον ξεχωριστό τραγουδιστή τους Φρέντι Μέρκιουρι. O Φρέντι αψήφησε τα στερεότυπα και τους συμβιβασμούς για να γίνει ένας από τους πιο αγαπητούς καλλιτέχνες του πλανήτη. Η ταινία ακολουθεί τη ραγδαία άνοδο της μπάντας μέσα από τα εμβληματικά τραγούδια και τον επαναστατικό τους ήχο. Γνωρίζουν απαράμιλλη επιτυχία, αλλά σε μια απροσδόκητη τροπή ο Φρέντι, περιτριγυρισμένος από κακές επιρροές, παρατάει τους Queen για να κάνει σόλο καριέρα. Έχοντας υποφέρει πολύ χωρίς τους Queen, καταφέρνει να επανενωθεί μαζί τους λίγο πριν τη συναυλία «Live Aid». Ενώ έχει μόλις διαγνωσθεί ως φορέας του AIDS, ο Φρέντι οδηγεί με γενναιότητα την μπάντα σε μία από τις καλύτερες συναυλίες στην ιστορία της ροκ μουσικής. Οι Queen αφήνουν μια κληρονομιά που συνεχίζει να εμπνέει τους ασυμβίβαστους, τους ονειροπόλους και τους λάτρεις της μουσικής μέχρι και σήμερα. https://www.imdb.com/title/tt1727824/ ΑΝ ΘΕΛΕΤΕ ΝΑ ΣΤΗΡΙΞΕΤΕ ΤΗΝ ΔΟΥΛΕΙΑ ΜΟΥ ΚΑΝΤΕ ΕΥΚΟΛΑ ΚΑΙ ΓΡΗΓΟΡΑ ΛΟΓΑΡΙΑΣΜΟ ΣΤΟ EASYBYTEZ KAI KATEΒΑΣΤΕ ΣΑΝ PREMIUM AΠO 20 HOST!! http://www.easybytez.com/free2771.html
  13. Είδος Ταινίας: Biography, Drama Πρεμιέρα: 14 September 2018 (Sweden) Σκηνοθέτης: Pernille Fischer Christensen Σενάριο: Kim Fupz Aakeson, Pernille Fischer Christensen Ηθοποιοί: Alba August, Trine Dyrholm, Maria Bonnevie Υπότιτλοι: Ελληνικοί Ενσωματωμένοι & Σε Ξεχωριστό Αρχείο Γνωστό και ως: Unga Astrid Μετάφραση: Calamity Jane Διάρκεια: 123' Καταλληλότητα: - encoder: .:Sexmeup:. Πηγή: 1080p.BluRay.x264-APVRAL Υπόθεση: Η Astrid και οι συγγενείς της είναι τυχεροί που μεγαλώνουν στην φάρμα των γονιών της στο Vimmerby της Σουηδικής υπαίθρου. Η καθημερινή τους ρουτίνα είναι διαμορφωμένη με αυστηρούς θρησκευτικούς κανόνες που δε χωράνε αμφισβήτησης, ακόμα και όταν δεν βγάζουν νόημα. Ωστόσο η μητέρα της Hanna και ο πατέρας της Samuel, προσπαθούν πέρα από ασφάλεια να τους δώσουν και μια γεύση ελευθερίας. Η Astrid έχει την ευκαιρία να πάει σε ένα καλό σχολείο που μόνο πιο πλούσιοι μαθητές πηγαίνουν, ενώ όταν ο ιδιοκτήτης μιας εφημερίδας θα της προσφέρει μία δουλειά ασκούμενης οι γονείς της δεν θα μπουν στην μέση. https://www.imdb.com/title/tt6433456/ ΑΝ ΘΕΛΕΤΕ ΝΑ ΣΤΗΡΙΞΕΤΕ ΤΗΝ ΔΟΥΛΕΙΑ ΜΟΥ ΚΑΝΤΕ ΕΥΚΟΛΑ ΚΑΙ ΓΡΗΓΟΡΑ ΛΟΓΑΡΙΑΣΜΟ ΣΤΟ EASYBYTEZ KAI KATEΒΑΣΤΕ ΣΑΝ PREMIUM AΠO 20 HOST!! http://www.easybytez.com/free2771.html
  14. Είδος Ταινίας: Biography, Drama, War Πρεμιέρα: 13 December 2018 (Greece) Σκηνοθέτης: Matthew Heineman Σενάριο: Marie Brenner (based on the Vanity Fair article "Marie Colvin's Private War" by), Arash Amel Ηθοποιοί: Rosamund Pike, Tom Hollander, Jamie Dornan Υπότιτλοι: Ελληνικοί Ενσωματωμένοι & Σε Ξεχωριστό Αρχείο Ελληνικός Τίτλος: Ο Δικός της Πόλεμος Μετάφραση: Kasiteros Διάρκεια: 110' Καταλληλότητα: - encoder: .:Sexmeup:. Πηγή: 1080p.BluRay.x264-DRONES Υπόθεση: Η Μαρί Κόλβιν είναι μία από τις πιο αναγνωρισμένες πολεμικές ανταποκρίτριες της εποχής μας. Μαζί με τον φωτογράφο Πολ Κονρόι μεταφέρει εικόνες από τη φρίκη του πολέμου σε μια επικίνδυνη αποστολή στην πολιορκούμενη πόλη Χομς της Συρίας. https://www.imdb.com/title/tt2368254/ ΑΝ ΘΕΛΕΤΕ ΝΑ ΣΤΗΡΙΞΕΤΕ ΤΗΝ ΔΟΥΛΕΙΑ ΜΟΥ ΚΑΝΤΕ ΕΥΚΟΛΑ ΚΑΙ ΓΡΗΓΟΡΑ ΛΟΓΑΡΙΑΣΜΟ ΣΤΟ EASYBYTEZ KAI KATEΒΑΣΤΕ ΣΑΝ PREMIUM AΠO 20 HOST!! http://www.easybytez.com/free2771.html
  15. Είδος Ταινίας: Biography, Drama, War Πρεμιέρα: 13 December 2018 (Greece) Σκηνοθέτης: Matthew Heineman Σενάριο: Marie Brenner (based on the Vanity Fair article "Marie Colvin's Private War" by), Arash Amel Ηθοποιοί: Rosamund Pike, Tom Hollander, Jamie Dornan Υπότιτλοι: Ελληνικοί Ενσωματωμένοι & Σε Ξεχωριστό Αρχείο Ελληνικός Τίτλος: Ο Δικός της Πόλεμος Μετάφραση: Kasiteros Διάρκεια: 110' Καταλληλότητα: - encoder: .:Sexmeup:. Πηγή: 1080p.BluRay.x264-DRONES Υπόθεση: Η Μαρί Κόλβιν είναι μία από τις πιο αναγνωρισμένες πολεμικές ανταποκρίτριες της εποχής μας. Μαζί με τον φωτογράφο Πολ Κονρόι μεταφέρει εικόνες από τη φρίκη του πολέμου σε μια επικίνδυνη αποστολή στην πολιορκούμενη πόλη Χομς της Συρίας. https://www.imdb.com/title/tt2368254/ ΑΝ ΘΕΛΕΤΕ ΝΑ ΣΤΗΡΙΞΕΤΕ ΤΗΝ ΔΟΥΛΕΙΑ ΜΟΥ ΚΑΝΤΕ ΕΥΚΟΛΑ ΚΑΙ ΓΡΗΓΟΡΑ ΛΟΓΑΡΙΑΣΜΟ ΣΤΟ EASYBYTEZ KAI KATEΒΑΣΤΕ ΣΑΝ PREMIUM AΠO 20 HOST!! http://www.easybytez.com/free2771.html
  16. Ο ΜΕΓΑΛΕΞΑΝΔΡΟΣ (1980) DVDRip (DVDRip - easybytez - filefactory) Είδος: Κοινωνική Διάρκεια: 210' Πρεμιέρα: Οκτώβριος 1980 Χρώμα: Έγχρωμο Ήχος: Dolby Digital Γλώσσα: Ελληνικά Εταιρία παραγωγής: Ελληνικό Κέντρο Κινηματογράφου , RAI , ZDF , Ελληνικό Κέντρο Κινηματογράφου Παραγωγός: Φοίβη Οικονομοπούλου , Νίκος Αγγελόπουλος Σκηνοθεσία: Θόδωρος Αγγελόπουλος Σενάριο: Θόδωρος Αγγελόπουλος , Πέτρος Μάρκαρης (συν-σεναριογράφος) Μουσική σύνθεση: Χριστόδουλος Χάλαρης Ηθοποιοί: Omero Antonutti (Μεγαλέξανδρος) , Εύα Κοταμανίδου (κόρη Μεγαλέξανδρου) , Μιχάλης Γιαννάτος (δραγουμάνος) , Θάνος Γραμμένος , Γρηγόρης Ευαγγελάτος (δάσκαλος) , Μιράντα Κουνελάκη (κα Τσελέπη) , Τούλα Σταθοπούλου , Ελπιδοφόρος Γκότσης , Χάρης Πισιμίσης , Γιώργος Κωβαίος , Στράτος Παχής , Γιώργος Μπάρτης , Χριστόφορος Νέζερ (Τσελέπης, γαιοκτήμονας) , Φώτης Παπαλάμπρος , Norman Mozzato , Ηλίας Ζαφειρόπουλος (μικρός Αλέξανδρος) , Brizio Montinaro , Χ. Σταματέλος , Ρολάνδος Χρέλιας , Νίκος Κούρος , Claudio Betan , Laura de Marchi , Brizio Montianaro , Francesco Carnelutti Υπόθεση: Τη νύχτα της Πρωτοχρονιάς του 1899, δραπετεύει από τη φυλακή, καβάλα σ' ένα άσπρο άλογο, ένας επικίνδυνος ληστής, ο Μεγαλέξανδρος, όπως τον αποκαλεί ο λαός, αφού βλέπει σ' αυτόν το μυθικό ανάλογο των λαϊκών εξεγέρσεων. Με τη βοήθεια των παλικαριών του, απάγει μια ομάδα Άγγλων διπλωματών και τους κρατάει ομήρους στο χωριό του, ζητώντας από την κυβέρνηση αμνηστία και την επιστροφή της γης στους χωρικούς. Οι χωρικοί, που έχουν δημιουργήσει μια κοινότητα κάτω από την καθοδήγηση ενός δασκάλου σοσιαλιστή, υποδέχονται τον Αλέξανδρο και τους δικούς του, και τον χαιρετίζουν ως Λυτρωτή. Όμως, ο Αλέξανδρος δε συμμετέχει στη ζωή της κοινότητας. Μένει μόνος με τους συντρόφους του και τις επιληπτικές του κρίσεις... Σχόλια: Η ταινία προβλήθηκε τη σαιζόν 1980-1981 και έκοψε 73.415 εισιτήρια. Ήρθε στην 18η θέση σε 25 ταινίες.
  17. ΤΟ ΑΙΝΙΓΜΑ (1998) DVDRip (DVDRip - easybytez - Βέγγος) Είδος: Κοινωνική Διάρκεια: 93' Έτος: 1998 Πρεμιέρα: 16 Νοεμβρίου 1998 Χρώμα: Έγχρωμο Ήχος: Dolby Digital Γλώσσα: Ελληνικά Εταιρία παραγωγής: Αιγόκερως , Φάσμα Ε.Π.Ε. , Ελληνικό Κέντρο Κινηματογράφου Σκηνοθεσία: Γιάννης Σολδάτος Σενάριο: Γιάννης Σολδάτος Μουσική σύνθεση: Βασίλης Βασιλάτος Συγγραφέας: Γιάννης Σολδάτος Ηθοποιοί: Θανάσης Βέγγος (Λίνος/Θανάσης) , Γιώργος Βελέντζας (δάσκαλος) , Αλέξης Δαμιανός (στρατηγός Παπανικολής) , Ηλίας Λογοθέτης (Ανέστης Μαντζαβίνος/Παύλος Χατζησταύρος) , Ασημάκης Κοντογιάννης (Τεό) , Θεοφάνης Μαντζώρος (Νίκος) , Δήμος Αβδελιώδης (Σπύρος) , Θανάσης Ζέρβας (Γιώργος) , Μαρία Δρακοπούλου (Ανάτ) , Αναστασία Κατσαρού (Ελένη) , Μαρία Λεκάκη (Βέρα) , Εύα Βλαχάκου (Μίνα) , Έφη Βενιανάκη (Θεοδώρα Παπανικολή) , Κωνσταντίνα Τάκαλου (Τζένη) , Μαρία Ζαχαρή (Αντωνοπούλου) , Γιάννης Θωμόπουλος (Τζιμάκος) , Νίκος Κουρούκλης (Τακούλης) , Αργύρης Λαζαρίδης (Αποστόλης) , Γιάννης Σολδάτος (φύλακας νεκροτομείου) , Άρτεμις Αποστολοπούλου (Σοφία) , Νίκη Κοκώνα , Μαρία Ελένη Σολδάτου (μικρή Θεοδώρα) , Χρίστος Σολδάτος (μικρός Γιώργος) , Δανάη Ποταμιάνου , Κωνσταντίνος Νούλας , Σάκης Δημητρακόπουλος , Δημήτρης Δεληγιάννης. Υπόθεση: Μια αρκετά επιτυχημένη νεαρά Αθηναία δικηγόρος, η Θεοδώρα, που είναι και κόρη στρατηγού, αναλαμβάνει την υπόθεση Μαντζαβίνου, ενός μπακάλη της περιοχής Κολωνού. Θέλοντας να βγει από τα τετριμμένα, μπλέκεται στα πόδια μιας περίεργης συμμορίας που έχει αρχηγό έναν τυφλό ζητιάνο, τον Λίνο, πρώην δάσκαλο και νυν ίνδαλμά της. Ο άνθρωπος αυτός φαντάζει στα μάτια της ως σύγχρονος Οιδίποδας. Σύντροφος και δεξί χέρι του Λίνου είναι ο άλλοτε επιστάτης του σχολείου. Το καρέ συμπληρώνουν δύο αδελφές πόρνες, η Άντα και η Μίνα, οι οποίες εκτός του ότι εκδίδονται στον οίκο ανοχής που στεγάζεται στο κτίριο του σχολείου, ωθούν ενίοτε τον Λίνο στη ζητιανιά. Η συμμορία σχεδιάζει ένα "μεγάλο κόλπο", την κλοπή των αρχαίων της "Ακαδημίας Πλάτωνος"...
  18. Είδος Ταινίας: Drama, War Πρεμιέρα: 26 March 2015 (Greece) Σκηνοθέτης: Erik Poppe Σενάριο: Erik Poppe, Harald Rosenlow-Eeg Ηθοποιοί: Juliette Binoche, Nikolaj Coster-Waldau, Lauryn Canny Υπότιτλοι: Ελληνικοί Ενσωματωμένοι & Σε Ξεχωριστό Αρχείο Ελληνικός Τίτλος: Χίλιες φορές καληνύχτα Γνωστό και ως: Tusen ganger god natt Μετάφραση: dromon Διάρκεια: 117' Καταλληλότητα: - encoder: .:Sexmeup:. Πηγή: 1080p.BluRay.x264-ARCHiViST Υπόθεση: Η επαγγελματίας φωτογράφος Ρεμπέκα είναι ταυτόχρονα τρομοκρατημένη κι ενθουσιασμένη από όσα περιβάλλουν μια γυναικεία ομάδα αυτοκτονίας, όπου οι γυναίκες πρώτα εξαγνίζονται και ύστερα ζώνονται βόμβες προς τον θάνατο. Η Ρεμπέκα καταφέρνει ακόμα και να συντροφέψει μια από τις γυναίκες στην Καμπούλ, ξεχνώντας τόσο τον βιολόγο άντρα της, Μάρκους, όσο και την κόρη της, Στεφ. https://www.imdb.com/title/tt2353767/ ΑΝ ΘΕΛΕΤΕ ΝΑ ΣΤΗΡΙΞΕΤΕ ΤΗΝ ΔΟΥΛΕΙΑ ΜΟΥ ΚΑΝΤΕ ΕΥΚΟΛΑ ΚΑΙ ΓΡΗΓΟΡΑ ΛΟΓΑΡΙΑΣΜΟ ΣΤΟ EASYBYTEZ KAI KATEΒΑΣΤΕ ΣΑΝ PREMIUM AΠO 20 HOST!! http://www.easybytez.com/free2771.html
  19. Έτος Παραγωγής: 1947 Διάρκεια: 105 ' λεπτά Χρώμα:Ασπρόμαυρο Γλώσσα: Αγγλική Σκηνοθεσία: Ρόμπερτ Μοντγκόμερυ Σενάριο: Στηβ Φίσερ Μουσική:Ντέιβιντ Σνελ Ηθοποιοί:Ρόμπερτ Μοντγκόμερυ,Όντρει Τότερ,Λόιντ Νόλαν,Τομ Τάλι, Λεόν Έιμς, Τζέιν Μίντοους, Ντικ Σίμονς, Μορις Ανκρουμ Ο Φίλιπ Μάρλοου, απογοητευμένος από τις οικονομικές απολαβές του επαγγέλματός του, γράφει ένα αστυνομικό μυθιστόρημα και το στέλνει στον εκδοτικό οίκο "Κίνγκσμπι", όπου τον καλεί, τάχα για να μιλήσουν πάνω στο βιβλίο, η εκδότρια Έιντρεν Φρόμσετ. Με την κουβέντα όμως αποκαλύπτεται ότι θέλει να τον προσλάβει για να βρει την εξαφανισμένη σύζυγο του αφεντικού της και ιδιοκτήτη του εκδοτικού οίκου, την Κρίσταλ Κίνγκσμπι. Στην αρχή ο Μάρλοου αρνείται, αλλά όταν του προσφέρει 500 δολάρια υποχωρεί και αναλαμβάνει την υπόθεση. Ως πρώτο στοιχείο έχει ότι η εξαφανισμένη ίσως είχε σχέσεις με τον ζιγκολό Κρις Λέιβερι. Όταν ο Μάρλοου πηγαίνει στο σπίτι του Λέιβερι http://www.imdb.com/title/tt0039545/
  20. Είδος Ταινίας: Drama Πρεμιέρα: TV Movie 13 September 2014 Σκηνοθέτης: Jon Amiel Σενάριο:Melissa Carter Ηθοποιοί: Lauren Ambrose, Wes Ramsey, Christopher Backus Υπότιτλοι: Ελληνικοί Ενσωματωμένοι & Σε Ξεχωριστό Αρχείο Μετάφραση: JGR & KOPROTHANOS Διάρκεια: 87' Καταλληλότητα: - encoder: .:Sexmeup:. Πηγή: 1080p.WEB-DL.DD5.1.H264-FGT Υπόθεση: Προς το τέλος του Εμφυλίου Πολέμου, μια χήρα μητέρα 3 παιδιών, η Belle Gatlin Barlowe αντιμετωπίζει την αβεβαιότητα, καθώς επιχειρεί να υπερασπιστεί την γη της οικογένειάς της με κάθε μέσο. Όταν η διεφθαρμένη τράπεζα, που λειτουργεί στην πόλη, ωθεί την Belle να βγει εκτός νόμου. Το στοίχημα γίνεται προσωπική της υπόθεση, πυροδοτώντας μια αλυσίδα γεγονότων που την αναγκάζουν να αναρωτηθεί αν είναι καλύτερα να είναι με τον νόμο ή πρέπει να επιβιώσουν. Φυσικά διάλεξε το δεύτερο μιας και την βόλευε η σχεδιαζόμενη ληστεία της τράπεζας, από τον αδελφό της και την συμμορία του, να πάρει την εκδίκησή της προς τους τραπεζίτες. Όμως απαιτεί για την συμμετοχή της, να εφαρμοστεί το δικό της σχέδιο. Θα δεχτεί η συμμορία την Belle και το σχέδιό της. https://www.imdb.com/title/tt3361004/ ΑΝ ΘΕΛΕΤΕ ΝΑ ΣΤΗΡΙΞΕΤΕ ΤΗΝ ΔΟΥΛΕΙΑ ΜΟΥ ΚΑΝΤΕ ΕΥΚΟΛΑ ΚΑΙ ΓΡΗΓΟΡΑ ΛΟΓΑΡΙΑΣΜΟ ΣΤΟ EASYBYTEZ KAI KATEΒΑΣΤΕ ΣΑΝ PREMIUM AΠO 20 HOST!! http://www.easybytez.com/free2771.html
  21. WILD ROSE (2018) HDRip XviD AC3-EVO | ENΣΩΜΑΤΩΜΕΝΟΙ ΥΠΟΤΙΤΛΟΙ ΣΚΗΝΟΘΕΣΙΑ : Paul Salamoff ΣΚΗΝΟΘΕΣΙΑ : Tom Harper ΣΕΝΑΡΙΟ : Nicole Taylor ΗΘΟΠΟΙΟΙ : Jessie Buckley, Matt Costello, Jane Patterson ΕΙΔΟΣ : Comedy, Drama, Music ΠΡΕΜΙΕΡΑ : 12 April 2019 (UK) ΜΕΤΑΦΡΑΣΗ : Calamity Jane IMDB: https://www.imdb.com/title/tt5117428/ Το φιλμ ακολουθεί την ιστορία μιας ανύπαντρης μητέρας δύο παιδιών που μόλις βγήκε από τη φυλακή και κυνηγάει το όνειρό της να γίνει μια σταρ της country μουσικής σκηνής. Σε αυτόν τον αγώνα θα την στηρίξει μέχρι τέλους η μητέρα της, που την υποδύεται η Julie Walters....
  22. 8 ΛΕΞΕΙΣ (2019) ΣΚΑΪ TV TVrip AVI 8 λέξεις : Kάθε μια απ΄αυτές βάζει τα θεμέλια μιας ιστορίας που θα ανατρέψει τα γεγονότα όπως τα ήξεραν οι ήρωες μέχρι σήμερα. Ένα πολιτικό θρίλερ με δραματική εξέλιξη και ήρωες που βλέπουν τις ζωές τους να κινούνται σαν μαριονέτες από μοιραία γεγονότα και συγκυρίες. Το αύριο θα γίνει αβέβαιο, τρομακτικό και ταυτόχρονα απρόσμενο και γεμάτο πάθος και όνειρα που τώρα δείχνουν πιο πιθανόν από ποτέ να πραγματοποιηθούν. Μια δυνατή ιστορία αγάπης γεμάτη διλήμματα, ίντριγκες, μυστικά και αποκαλύψεις. Ένα παθιασμένο ερωτικό τρίγωνο, μια απίστευτη πλεκτάνη που ξεκινάει από το παρελθόν για να τυλίξει στα επικίνδυνα δίχτυα της τις ζωές των ηρώων… Άνθρωποι που μέχρι χθες ζούσαν ανίδεοι για τα αποτελέσματα των επιλογών τους, δεσμοί αίματος που θα δοκιμαστούν σε ακραίες συνθήκες, ζευγάρια που στήριξαν την ευτυχία τους σε ένοχα ανομολόγητα μυστικά. Δύο πολιτικά πρόσωπα που προσπαθούν να κρυφτούν πίσω από την ψεύτικη δημόσια εικόνα τους και ένας έρωτας που θα κάψει τα πάντα στο πέρασμά του, είναι μόνο η αρχή της ιστορίας μας…. Ένας μεγάλος και απαγορευμένος έρωτας, ανάμεσα σε δυο ανθρώπους που θέλουν αλλά δεν μπορούν να είναι μαζί, γιατί οι κοινωνικές συμβάσεις είναι πιο δυνατές από το συναίσθημα που θα τους δένει κρυφά για πάντα. Τα μυστικά ανάμεσα στις οικογένειές τους είναι πολλά και η αποκάλυψή τους απειλεί να γκρεμίσει τις ζωές τους. Ο Οδυσσέας (Αντρέας Γεωργίου) είναι ένας ζωγράφος που ζει στην Κέρκυρα και ετοιμάζεται για τα εγκαίνια της πρώτης μεγάλης του έκθεσης στη Ρώμη. Η Ηλιάνα(Ειρήνη Καραγιώργη), είναι ο παντοτινός του έρωτας, μόνο που είναι παντρεμένη με τον Μιχαήλ (Ιάσωνας Παπαματθαίου), τον μεγάλο αδερφό του Οδυσσέα. Ο έρωτας, η ελπίδα για την πραγμάτωσή του και τα όνειρα των ηρώων μπλέκονται ανάμεσα σε πολιτικά παιχνίδια και ίντριγκες που σαν στόχο έχουν να καταστρέψουν όσους κρατούσαν μέχρι τώρα τα μεγάλα μυστικά. Η μητέρα των δυο αντρών, η Ναυσικά (Πέμη Ζούνη), πείθει την Ηλιάνα και τον Μιχαήλ να παραβρεθούν στα εγκαίνια της έκθεσης του Οδυσσέα στη Ρώμη για να δοθεί η ευκαιρία στα δυο αδέρφια να ξαναφτιάξουν τη σχέση τους και να κλείσουν τα στόματα του κόσμου που μιλάει. Εκεί, στην έκθεση, μια δυσάρεστη έκπληξη περιμένει τον Μιχαήλ, ο οποίος δεν ξέρει ότι όλα θα ανατραπούν με αυτή τη συνάντηση! Ένας φόνος θα περιπλέξει ακόμα περισσότερο τα πράγματα… Η επιστροφή από τη Ρώμη στην Αθήνα κρύβει γεγονότα που θα περιπλέξουν ακόμα πιο πολύ τη ζωή της οικογένειας Καλλέργη. Η Ηλιάνα θα δοκιμάσει τη μεγαλύτερη έκπληξη της ζωής της, όταν θα ανακαλύψει πως η γυναίκα που πίστευε ότι ήταν έμπιστη και στενή της φίλη, απλά δεν υπάρχει.. Πρόκειται για μια καλοστημένη συμπαιγνία που έχει σαν στόχο να παραπλανήσει την Ηλιάνα ή μήπως η ψυχολογική της κατάσταση κινείται για μια ακόμα φορά στα όρια της κατάρρευσης; Αυτό φαίνεται να πιστεύει ακόμα και ο Άκης Αρώνης (Γιώργος Παρτσαλάκης) ο πατέρας της Ηλιάνας που τρέμει για τις συνέπειες αυτής της ιστορίας. Μεγάλα προβλήματα δημιουργεί ο δημοσιογράφος Σίμος Καρατζάς (Απόστολος Γκλέτσος), ο οποίος είναι πωρωμένος με την δουλειά του και …κυνηγά τον Μιχαήλ. Η γυναίκα του Εύα Δημοπούλου (Θάλεια Ματίκα) προσπαθεί να κρατήσει τις ισορροπίες στο σπίτι και να ανταπεξέλθει στα προβλήματα του σπιτιού, λόγω των προβλημάτων υγείας της κόρης τους. Η Ναυσικά πείθει τον Μιχαήλ να πάει στην Κέρκυρα για να συμμετέχει σε μια τοπική γιορτή προκειμένου να προσεγγίσει τους Κερκυραίους και να πετύχει τους πολιτικούς του στόχους. Συμπαραστάτης στην προσπάθεια του Μιχαήλ ο αντιπρόεδρος του κόμματος Μιλτιάδης Μαρόγλου (Κούλλης Νικολάου). Στο ταξίδι αυτό ακολουθεί και η Ηλιάνα η οποία ξέρει ότι ο μόνος άνθρωπος που θα την πιστέψει είναι ο Οδυσσέας. Οι δυο ερωτευμένοι συναντιούνται στο σπίτι του Οδυσσέα, αλλά ο Μιχαήλ θα το μάθει και θα βρεθεί μπροστά σε μια σκηνή που δεν θα ήθελε ποτέ να δει! Πρωταγωνιστούν ακόμη: Ανδρέας Ανδρεόπουλος, Δανάη Παππά, Βαρβάρα Λάρμου, Ναταλία Κηρύκου, Χαριτίνη Ηλιάδου, Νέλη Αλκάδη,Ιφιγένεια Τζόλα, Νικόλας Στραβοπόδης, Αλέξης Παππάς, Πάνος Μπακανδρέας, Στέλιος Φύτρος, Ευτυχία Μέλη, Τζούλιο Φίλιππο Ντ Ερρίκο και η Έλλη Κυριακίδου. Τα παιδιά : Terra Elle Perrie, Νεφέλη Ιωσήφ, Άγγελος Γεωργίου. Σενάριο: Βάνα Δημητρίου Σκηνοθεσία: Αντρέας Γεωργίου General Complete name :LEXEIS.EP.01-02.avi Format : AVI Format/Info : Audio Video Interleave File size : 1.46 GiB Duration : 1 h 43 min Overall bit rate : 2 015 kb/s Video #0 ID : 0 Format : AVC Format/Info : Advanced Video Codec Format profile : [email protected] Format settings : 1 Ref Frames Format settings, CABAC : No Format settings, ReFrames : 1 frame Codec ID : H264 Duration : 1 h 43 min Bit rate : 1 874 kb/s Width : 1 280 pixels Height : 720 pixels Display aspect ratio : 16:9 Frame rate : 25.000 FPS Color space : YUV Chroma subsampling : 4:2:0 Bit depth : 8 bits Scan type : Progressive Bits/(Pixel*Frame) : 0.081 Stream size : 1.36 GiB (93%) Writing library : x264 core 146 r2538 121396c Audio #1 ID : 1 Format : MPEG Audio Format version : Version 1 Format profile : Layer 3 Codec ID : 55 Codec ID/Hint : MP3 Duration : 1 h 43 min Bit rate mode : Constant Bit rate : 128 kb/s Channel(s) : 2 channels Sampling rate : 48.0 kHz Compression mode : Lossy Stream size : 95.1 MiB (6%) Alignment : Aligned on interleaves Interleave, duration : 24 ms (0.60 video frame)
  23. Είδος Ταινίας: Drama, War Πρεμιέρα: 26 March 2015 (Greece) Σκηνοθέτης: Erik Poppe Σενάριο: Erik Poppe, Harald Rosenlow-Eeg Ηθοποιοί: Juliette Binoche, Nikolaj Coster-Waldau, Lauryn Canny Υπότιτλοι: Ελληνικοί Ενσωματωμένοι & Σε Ξεχωριστό Αρχείο Ελληνικός Τίτλος: Χίλιες φορές καληνύχτα Γνωστό και ως: Tusen ganger god natt Μετάφραση: dromon Διάρκεια: 117' Καταλληλότητα: - encoder: .:Sexmeup:. Πηγή: 1080p.BluRay.x264-ARCHiViST Υπόθεση: Η επαγγελματίας φωτογράφος Ρεμπέκα είναι ταυτόχρονα τρομοκρατημένη κι ενθουσιασμένη από όσα περιβάλλουν μια γυναικεία ομάδα αυτοκτονίας, όπου οι γυναίκες πρώτα εξαγνίζονται και ύστερα ζώνονται βόμβες προς τον θάνατο. Η Ρεμπέκα καταφέρνει ακόμα και να συντροφέψει μια από τις γυναίκες στην Καμπούλ, ξεχνώντας τόσο τον βιολόγο άντρα της, Μάρκους, όσο και την κόρη της, Στεφ. https://www.imdb.com/title/tt2353767/ ΑΝ ΘΕΛΕΤΕ ΝΑ ΣΤΗΡΙΞΕΤΕ ΤΗΝ ΔΟΥΛΕΙΑ ΜΟΥ ΚΑΝΤΕ ΕΥΚΟΛΑ ΚΑΙ ΓΡΗΓΟΡΑ ΛΟΓΑΡΙΑΣΜΟ ΣΤΟ EASYBYTEZ KAI KATEΒΑΣΤΕ ΣΑΝ PREMIUM AΠO 20 HOST!! http://www.easybytez.com/free2771.html
  24. Είδος Ταινίας: Drama Πρεμιέρα: TV Movie 13 September 2014 Σκηνοθέτης: Jon Amiel Σενάριο:Melissa Carter Ηθοποιοί: Lauren Ambrose, Wes Ramsey, Christopher Backus Υπότιτλοι: Ελληνικοί Ενσωματωμένοι & Σε Ξεχωριστό Αρχείο Μετάφραση: JGR & KOPROTHANOS Διάρκεια: 87' Καταλληλότητα: - encoder: .:Sexmeup:. Πηγή: 1080p.WEB-DL.DD5.1.H264-FGT Υπόθεση: Προς το τέλος του Εμφυλίου Πολέμου, μια χήρα μητέρα 3 παιδιών, η Belle Gatlin Barlowe αντιμετωπίζει την αβεβαιότητα, καθώς επιχειρεί να υπερασπιστεί την γη της οικογένειάς της με κάθε μέσο. Όταν η διεφθαρμένη τράπεζα, που λειτουργεί στην πόλη, ωθεί την Belle να βγει εκτός νόμου. Το στοίχημα γίνεται προσωπική της υπόθεση, πυροδοτώντας μια αλυσίδα γεγονότων που την αναγκάζουν να αναρωτηθεί αν είναι καλύτερα να είναι με τον νόμο ή πρέπει να επιβιώσουν. Φυσικά διάλεξε το δεύτερο μιας και την βόλευε η σχεδιαζόμενη ληστεία της τράπεζας, από τον αδελφό της και την συμμορία του, να πάρει την εκδίκησή της προς τους τραπεζίτες. Όμως απαιτεί για την συμμετοχή της, να εφαρμοστεί το δικό της σχέδιο. Θα δεχτεί η συμμορία την Belle και το σχέδιό της. https://www.imdb.com/title/tt3361004/ ΑΝ ΘΕΛΕΤΕ ΝΑ ΣΤΗΡΙΞΕΤΕ ΤΗΝ ΔΟΥΛΕΙΑ ΜΟΥ ΚΑΝΤΕ ΕΥΚΟΛΑ ΚΑΙ ΓΡΗΓΟΡΑ ΛΟΓΑΡΙΑΣΜΟ ΣΤΟ EASYBYTEZ KAI KATEΒΑΣΤΕ ΣΑΝ PREMIUM AΠO 20 HOST!! http://www.easybytez.com/free2771.html
  25. LIGHT OF MY LIFE (2019) BRRip XviD AC3-XVID | ENΣΩΜΑΤΩΜΕΝΟΙ ΥΠΟΤΙΤΛΟΙ ΣΚΗΝΟΘΕΣΙΑ : Casey Affleck ΣΕΝΑΡΙΟ : Casey Affleck ΗΘΟΠΟΙΟΙ : Anna Pniowsky, Casey Affleck, Tom Bower ΕΙΔΟΣ : Drama ΠΡΕΜΙΕΡΑ : 9 August 2019 (USA) ΜΕΤΑΦΡΑΣΗ : Myrto, Stam, Tonia, Angelina37, adespoti IMDB: https://www.imdb.com/title/tt6063090/ Ένας πατέρας πρέπει με κάθε τρόπο να κρύψει την ταυτότητα του παιδιού του, καθώς είναι ένα από τα τελευταία κορίτσια που έχουν επιβιώσει στον πλανήτη έπειτα από μια πανδημία η οποία εξαφάνισε τον θηλυκό πληθυσμό. Ο βραβευμένος με Όσκαρ Κέισι Άφλεκ πρωταγωνιστεί πλάι στην 11χρονη Άννα Πνιόφσκι και την Ελίζαμπεθ Μος και σκηνοθετεί με ωριμότητα μια αναπάντεχη περιπέτεια πάνω στα όρια της αγάπης, της ανθρώπινης επιβίωσης και της μοναδικής σταθεράς σε αυτό τον κόσμο, τη γυναίκα..
×