Jump to content

Search the Community

Showing results for tags 'κοινωνικό'.



More search options

  • Search By Tags

    Type tags separated by commas.
  • Search By Author

Content Type


Forums

  • ΓΕΝΙΚΑ - GENERAL
    • Γενικές Ανακοινώσεις - General Announcements
    • Κανόνες - Rules
    • Βοηθητικοί Οδηγοί
    • Συζήτηση - Discussion
    • Συστηθείτε - Introduse yourself
    • Γαστρονομικές Οπτασίες - Recipes
    • Το γέλιο είναι μεταδοτικό... Μεταδώστε το!!! - Fun Place
    • Υγεία
  • ΕΛΛΗΝΙΚΗ ΜΟΥΣΙΚΗ - GREEK MUSIC
    • Νέα CDs 2016-2020
    • Promos
    • Single Remix
    • Ελληνικά Ψηφιακά Cds - Greek Digital Cds
    • Ελληνικά CDs 2010-2015
    • Παλαιότερα Ελληνικά CDs μέχρι το 2009
    • Παραδοσιακά CDs
    • Ρεμπέτικο Στέκι
    • Δισκάκια 45 στροφών και γραμμοφώνου
    • Επανεκδόσεις
    • Συλλογές
    • Box Set Collections
    • Ελληνικά Mix - Remix
    • Παιδικά Ελληνικά CDs
    • Δισκογραφίες
  • ΞΕΝΗ ΜΟΥΣΙΚΗ - INTERNATIONAL MUSIC
    • Νέα CDs 2016-2020
    • Παλαιότερα Ξένα CDs
    • Συλλογές
    • Box Set Collections
    • Ξένα Mix - Remix
    • Παιδικά Ξένα CDs
    • Δισκογραφίες
  • ΜΟΥΣΙΚΗ ΣΕ ΠΟΙΟΤΗΤΑ LOSSLESS
    • Ελληνικά CDs
    • Ξένα CDs
  • ΤΑΙΝΙΕΣ - MOVIES
    • Ελληνικές Ταινίες - Greek Movies
    • Ξένες Ταινίες με ελληνικούς υπότιτλους 2016 - 2020
    • Παλαιότερες Κλασσικές Ξένες Ταινίες (μέχρι το 1990)
    • Ξένες Ταινίες με ελληνικούς υπότιτλους 1991 - 2015
    • Ξένες Ταινίες HD 720p BRRIP Avi
    • Ξένες Ταινίες BluRay
    • Ξένες Ταινίες Micro HD
    • Φιλμογραφίες
    • Παιδικές Ταινίες
    • Ντοκιμαντέρ
    • Θεατρικές Παραστάσεις
  • ΕΠΟΧΙΑΚΑ
    • Χριστούγεννα
    • Πάσχα
    • Αποκριές
    • Αγίου Βαλεντίνου
  • ΤΗΛΕΟΠΤΙΚΟ ΠΡΟΓΡΑΜΜΑ
    • Ελληνικές Σειρές
    • Ξένες Σειρές
    • Τούρκικες Σειρές
    • Τηλεοπτικές Eκπομπές
  • ΠΑΙΧΝΙΔΙΑ - GAMES
    • Pc Games
    • Play Station Games
    • XBOX
    • Mac Games
  • ΕΦΑΡΜΟΓΕΣ - ΠΡΟΓΡΑΜΜΑΤΑ
    • Λειτουργικά Προγράμματα
    • Προγράμματα Προστασίας
    • Εργαλεία Συστήματος
    • Εργαλεία Πολυμέσων
    • Portable Προγράμματα
    • Προγράμματα για Mac
    • Internet Tools
    • Tutorials
  • E-BOOKS
    • Έλληνες Συγγραφείς
    • Ξένοι Συγγραφείς
    • Κόμικς
    • Περιοδικά
    • Audio Books
  • ΑΝΑΖΗΤΗΣΗ
    • Μουσική
    • Ταινίες - Σειρές
    • Παιχνίδια
    • Προγράμματα
    • E-Books
  • V.I.P

Find results in...

Find results that contain...


Date Created

  • Start

    End


Last Updated

  • Start

    End


Filter by number of...

Found 1,015 results

  1. Βασισμένο σε αληθινά γεγογονότα, το πολιτικό αυτό θρίλερ γυρισμένο σε δύο ηπείρους αφηγείται την ιστορία ενός νεαρού διπλωμάτη (Τέο Τζέιμς) που διορίζεται από τα Ηνωμένα Έθνη στη Βαγδάτη όπου θα εισέλθει σε έναν κόσμο ασύλληπτης διαφθοράς και σκανδάλων. Αποκτά πρόσβαση σε απόρρητες πληροφορίες σχετικά με ένα σχέδιο που αφορά τα αποθέματα πετρελαίου στο Ιράκ, αλλά οι προσπάθειες του να διαλευκάνει την υπόθεση και να αποκαλύψει όσους εμπλέκονται θα έχουν επικίνδυνες συνέπειες, ενώ η κατάσταση θα περιπλακεί ακόμη περισσότερο όταν τα στοιχεία θα στραφούν εναντίον του ίδιου του αφεντικού (Μπεν Κίνγκσλεϊ)… https://www.imdb.com/title/tt5153288/ Είδος ταινίας: Drama | History Βαθμολογία: 6.2/10 (2270) Σκηνοθεσία: Per Fly Σενάριο: Per Fly, Daniel Pyne Ηθοποιοί: Theo James (as Michael), Ben Kingsley (as Pasha), Jacqueline Bisset (as Christina Dupre), Rossif Sutherland (as Trevor), Rachel Wilson (as Lily) Πρεμιέρα (US): 27/04/18 Χώρα παραγωγής: Denmark | Canada | USA Μετάφραση: 'Αγνωστος EASYBYTEZ | UPLOADED | NITROFLARE
  2. Καθώς ο γάμος της με τον Τζακ διαλύεται, η καταξιωμένη δικαστίνα του Ανώτατου Δικαστηρίου Φιόνα Μέι, έχει ένα μεγάλο δίλημμα να πάρει στη δουλειά της. Θα πρέπει να αναγκάσει τον Άνταμ, έναν έφηβο να κάνει μετάγγιση αίματος για να σώσει τη ζωή του; Η ανορθόδοξη επίσκεψή της στο νοσοκομείο όπου βρίσκεται έχει ένα βαθύ αντίκτυπο και για τους δυο τους, καθώς δημιουργεί έντονα συναισθήματα στο αγόρι και φέρει στο φως τα μακρόχρονα θαμμένα συναισθήματα της ίδιας. https://www.imdb.com/title/tt6040662/ Είδος Ταινίας: Drama Πρεμιέρα: 30 August 2018 (Greece) Σκηνοθέτης: Richard Eyre Σενάριο: Ian McEwan (screenplay by), Ian McEwan (based on the novel by) Ηθοποιοί: Emma Thompson, Stanley Tucci, Ben Chaplin Ελληνικός Τίτλος: Νόμος περί τέκνων Μετάφραση: Calamity Jane Διάρκεια: 105' EASYBYTEZ | UPLOADED | NITROFLARE
  3. Είδος Ταινίας: Drama Πρεμιέρα: 28 September 2018 (Norway) Σκηνοθέτης: Katarina Launing Σενάριο: Maja Lunde Ηθοποιοί: Lisa Teige, Vebjorn Enger, Karen-Lise Mynster Υπότιτλοι: Ελληνικοί Ενσωματωμένοι & Σε Ξεχωριστό Αρχείο Ελληνικός Τίτλος: Χορεύοντας με την Αλήθεια Μετάφραση: Άγνωστος Διάρκεια: 95' Καταλληλότητα: - encoder: .:Sexmeup:. Πηγή: 1080p.BluRay.x264.-GRUNDiG Υπόθεση: Μετά τη χρεωκοπία του πατέρα της, η γεμάτη ανέσεις ζωή της νεαρής χορεύτριας Αμάλιε καταρρέει. Όμως, ο χορευτής χιπ χοπ Μίκαελ την παρασύρει σε έναν νέο ρυθμό. https://www.imdb.com/title/tt6854672/ ΑΝ ΘΕΛΕΤΕ ΝΑ ΣΤΗΡΙΞΕΤΕ ΤΗΝ ΔΟΥΛΕΙΑ ΜΟΥ ΚΑΝΤΕ ΕΥΚΟΛΑ ΚΑΙ ΓΡΗΓΟΡΑ ΛΟΓΑΡΙΑΣΜΟ ΣΤΟ EASYBYTEZ KAI KATEΒΑΣΤΕ ΣΑΝ PREMIUM AΠO 20 HOST!! http://www.easybytez.com/free2771.html
  4. PAIN AND GLORY / DOLOR Y GLORIA (2019) BluRay Rip AC3 5.1 Castellano | ENΣΩΜΑΤΩΜΕΝΟΙ ΥΠΟΤΙΤΛΟΙ ΣΚΗΝΟΘΕΣΙΑ : Pedro Almodóvar ΣΕΝΑΡΙΟ : Pedro Almodóvar ΗΘΟΠΟΙΟΙ : Antonio Banderas, Asier Etxeandia, Leonardo Sbaraglia ΕΙΔΟΣ : Drama ΠΡΕΜΙΕΡΑ : 31 October 2019 (Greece) ΜΕΤΑΦΡΑΣΗ : fotis IMDB: https://www.imdb.com/title/tt8291806/ Ένας κινηματογραφιστής στη δύση της καριέρας του αναπολεί τη ζωή του: τη μητέρα του, τις ερωμένες του, τους ηθοποιούς με τους οποίους δούλεψε. Τη δεκαετία του ‘60 σε ένα μικρό χωριό της Βαλένθια, τη δεκαετία του ‘80 στη Μαδρίτη και το σήμερα, όπου νιώθει την απόλυτη μοναξιά και είναι αντιμέτωπος με τη θνητότητα, τη ανικανότητά του να συνεχίσει να γυρίζει ταινίες, την αδυναμία του να διαχωρίσει τη δημιουργία από την ίδια του τη ζωή. Η ανάγκη του να διηγηθεί την ιστορία του μπορεί να είναι και η σωτηρία του..
  5. ΕΡΩΤΑΣ ΜΕΤΑ (2019) ΑΛΦΑ TV TVrip AVI Μία καινούργια σειρά με τίτλο "Έρωτας μετά" κάνει πρεμιέρα στο καινούργιο πρόγραμμα του ALPHA. Πρόκειται για ερωτικό θρίλερ που όπως αναφέρει και η ανακοίνωση του σταθμού είναι... … «Μία ιστορία έρωτα και μυστηρίου που εκτυλίσσεται σε δύο χρόνους, σ’ ένα παρελθόν γεμάτο μυστικά και πάθη, σ’ ένα παρόν που ψάχνει απαντήσεις. Έντονες σχέσεις, δυνατά συναισθήματα, αγωνία και ανατροπές συνθέτουν μια σειρά από γεγονότα που όταν ξεκαθαρίσουν, θα φανεί αν μπορεί να υπάρξει «Έρωτας μετά». Ένα τροχαίο. Δύο επιβάτες. Το σώμα της γυναίκας εξαφανίζεται. Ο άνδρας πέφτει σε κώμα. Μια σειρά ερωτημάτων ζητούν απαντήσεις. Τι προκάλεσε το ατύχημα; Γιατί εξαφανίστηκε η γυναίκα; Ποια είναι η σχέση τους; Η ταυτότητά τους αποκαλύπτει ότι δεν ήταν παντρεμένοι… Η αναγνώρισή τους φέρνει στην επιφάνεια το μυστικό τους: ήταν εραστές. Τρία χρόνια πριν, η γνωριμία δύο ζευγαριών και η φιλία που ξεκίνησε μεταξύ τους, πυροδότησε μία απαγορευμένη αγάπη. Η ένοχη σχέση των δύο εραστών θα στοιχειώσει το παρόν των συντρόφων τους. Η οικογενειακή τους αρμονία ήταν μία ψευδαίσθηση. Ο πόνος βαθύς, αλλά η ανάγκη να αποκαλυφθεί η αλήθεια επιτακτική». Η ιστορία βασίζεται στη σειρά της Telefe «Amar despues de amar» και το σενάριο υπογράφει ο Παναγιώτης Ιωσηφέλης σε συνεργασία με τους Μαρία Βρεττού, Αθηνά Γερολύμπου και Μάνο Παπαϊωάννου, ενώ σκηνοθέτης είναι ο Στέφανος Μπλάτσος μαζί με τους Βασίλη Τσελεμέγκο, Σέργιο Κωνσταντινίδη. Τους ήρωες της σειράς ενσαρκώνουν: Αντώνης Καρυστινός, Βάσω Λασκαράκη, Μάριος Αθανασίου, Έμιλυ Κολιανδρή, Μιχάλης Λεβεντογιάννης, Ευγενία Σαμαρά, Κώστας Κόκλας, Αλεξάνδρα Παλαιολόγου, Γωγώ Καρτσάνα, Γιώργος Παπαπαύλου, Λένα Δροσάκη, Δημήτρης Ξανθόπουλος, Νίκος Νικολάου, Αλέξανδρος Μούκανος, Παναγιώτης Καρμάτης, Σόλων Τσούνης, Παναγιώτα Βιτετζάκη, Εύα Κοτανίδη, Δημήτρης Πασσάς, Ιφιγένεια Καραμήτρου, Ισαβέλλα Μπαλτσαβιά, Σταύρος Τσουμάκης, Μιχαήλ Ταμπακάκης, κ.ά. Στο ρόλο της Αντιγόνης, η Μπέτυ Λιβανού Στο ρόλο του Λύσανδρου, ο Νίκος Γαλανός General Complete name : EROS.EP.01.avi Format : AVI Format/Info : Audio Video Interleave File size : 1.24 GiB Duration : 1 h 12 min Overall bit rate : 2 440 kb/s Video #0 ID : 0 Format : AVC Format/Info : Advanced Video Codec Format profile : [email protected] Format settings : 1 Ref Frames Format settings, CABAC : No Format settings, ReFrames : 1 frame Codec ID : H264 Duration : 1 h 12 min Bit rate : 2 298 kb/s Width : 1 280 pixels Height : 720 pixels Display aspect ratio : 16:9 Frame rate : 25.000 FPS Color space : YUV Chroma subsampling : 4:2:0 Bit depth : 8 bits Scan type : Progressive Bits/(Pixel*Frame) : 0.100 Stream size : 1.17 GiB (94%) Writing library : x264 core 146 r2538 121396c Audio #1 ID : 1 Format : MPEG Audio Format version : Version 1 Format profile : Layer 3 Codec ID : 55 Codec ID/Hint : MP3 Duration : 1 h 12 min Bit rate mode : Constant Bit rate : 128 kb/s Channel(s) : 2 channels Sampling rate : 48.0 kHz Compression mode : Lossy Stream size : 66.7 MiB (5%) Alignment : Aligned on interleaves Interleave, duration : 24 ms (0.60 video frame)
  6. ΜΙΚΡΕΣ ΕΛΕΥΘΕΡΙΕΣ (2009) DVDRip (DVDRip - easybytez - Παπαδόπουλος) Ελλ.Τίτλος : Μικρές ελευθερίες Σκηνοθεσία : Κώστας Ζάπας Σενάριο : Κώστας Ζάπας Πρωταγωνιστούν: Αντώνης Παπαδόπουλος, Μαρλέν Σαΐτη, Αλέξανδρος Τούντας, Γιώργος Τζαβάρας, Μαρία Κουλούρη, Γιώργος Γόνης, Alex Kelly, Χρήστος Βερνίκος, Αλέξανδρος Μιχαηλίδης Χώρα : Ελλάδα, Δανία Copyright : 2009 Διάρκεια : 1 ώρα, 22 λεπτά Κατηγορία : Σύγχρονος Ελληνικός Κινηματογράφος, Κοινωνικές Κυκλοφορία DVD: Δευτέρα 30 Νοεμβρίου 2009 Υποθεση: Ένας αυταρχικός άντρας στα ορεινά της ελληνικής επαρχίας εμπορεύεται μετανάστες και νεαρές πόρνες από τις Βαλκανικές χώρες. Ο άντρας δεν διστάζει να εκπορνεύσει την ανήλικη κόρη του, Φανή. Η Φανή, εξαρτημένη πια από τα ναρκωτικά και ψυχικά ανάπηρη, δεν αντιστέκεται στη βία του πατέρα της και δουλεύει ως πόρνη για αυτόν. Ο πατέρας επιθυμεί να εκπορνεύσει και τον μικρό του γιο, τον Χρήστο. Ο Χρήστος, άγουρος ακόμα και εγκλωβισμένος σε αυτήν την οικογένεια, φέρεται αυτοκτονικά. Ανάμεσα στα δύο αδέλφια, τη Φανή και τον Χρήστο, γεννιέται αναπόφευκτα ερωτισμός. Το μόνο που έχουν είναι ο ένας τον άλλον. Κανείς τους όμως δεν το παραδέχεται. Και κανείς δεν μπορεί ακόμα να κάνει κάτι για τον άλλον. Η Φανή μέρα με την μέρα καταρρέει. Ο πατέρας συνεχίζει να βασιλεύει. Ο μικρός του γιος όμως, ο Χρήστος, αντιστέκεται. Μετά την εφηβεία, έρχεται η ώρα της διαδοχής για έναν άντρα. Αρνείται την εκπόρνευσή του από τον πατέρα του. Αλλά στο βασίλειο του πατέρα, ο τελευταίος λόγος ανήκει στον βασιλιά... Σχολια: Όσο και αν μερικοί προσεταιρίζονται το cinema ως ένα Δόγμα ιδιωτικής κατανάλωσης, αφορίζοντας κάθε αποκλίνουσα ταινία με την κατηγορία της αίρεσης, οι "Μικρές Ελευθερίες" του Κώστα Ζάπα, δε θα πάψουν να προασπίζονται το αυτονόητο δικαίωμα του δημιουργού να συλλαμβάνει, καταγράφει, αφηγείται την ιστορία του με το δικό του τρόπο. Και εν την προκειμένη, αυτός ο τρόπος κίνησε το ενδιαφέρον της Zentropa (εταιρία διανομής του Lars Von Trier) στην εξασφάλιση των δικαιωμάτων του συγκεκριμένου film. Ο Κώστας Ζάπας με τις «Μικρές ελευθερίες» πειραματίζεται. Δεν παρασύρεται από την ευκολία και το διδακτισμό, ούτε επιλέγει την επίπεδη, ακαδημαϊκή αφήγηση αλλά ούτε και την συνήθη κινηματογράφηση. Λόγια λιγοστά, η κάμερα κινείται με νεύρο, σου δίνει την εντύπωση πως χάνει το στόχο, αλλά μόνον αυτό δε συμβαίνει.. Ο στόχος είναι εκεί, οι πρωταγωνιστές αγκομαχούν, καγχάζουν, ουρλιάζουν.. Ο αυταρχικός πατέρας εμπορεύεται ανθρώπους, άνδρες και γυναίκες, εκπορνεύει και την κόρη του, θέλει να εκπορνεύσει και το γιο του. Ο οικογενειακός ολοκληρωτισμός είναι ο πυρήνας του κοινωνικού ολοκληρωτισμού. Η βία, η εκμετάλλευση, ο φασισμός επωάζονται πίσω από τους τοίχους και τις κλειστές πόρτες της μικροαστικής υποκρισίας. Το σενάριο σε γενικές γραμμές κινείται μέσα σε αυτό το πλαίσιο, αλλά η σκηνοθετική προσέγγιση του Κώστα Ζάπα ακολουθεί δύσβατους ατραπούς. Δεν αφήνει το θεατή να ησυχάσει αλλά τον βάζει στον κόπο να ακολουθήσει τη δική του αισθητική. Είναι ένας κινηματογράφος κινητοποίησης, που ενώ ξενίζει μπορεί και να συνεπάρει. Ισορροπεί ανάμεσα στο αρχαίο δράμα και την περφόρμανς. Το παίξιμο των ηθοποιών είναι θεατρικό αλλά όταν η κάμερα κινείται –και κινείται διαρκώς- τότε δεν μπορείς παρά να μιλήσεις για κινηματογράφο. Και μέσα σε αυτά εμπλέκεται και η «αιρετική» -εάν επιτρέπεται αυτή η λέξη- εικαστική προσέγγιση, με πλάνα που παιχνιδίζουν με την ισορροπία και που η αισθητική τους, θα αρέσει πολύ. Οι «Μικρές ελευθερίες», είναι μια ταινία που ξενίζει. Μια ταινία που ενδεχομένως θα δεχτεί αμφιλεγόμενες και αντικρουόμενες κριτικές. Οπωσδήποτε, όμως, είναι μία ταινία τολμηρή. Και όχι λόγω του θέματός της αλλά κυρίως λόγω της αισθητικής της προσέγγισης.. «Οσα δείχνω δεν μπορεί να είναι τόσο ωμά όσο είναι η πραγματικότητα. "Σκληρή ταινία", ακούς να λένε. "Με αρρώστησε". Μα, μια ταινία δεν έχει τη δύναμη να σε αρρωστήσει. Μόνο να σου υπενθυμίσει πόσο άρρωστος είσαι»....Κώστας Ζάπας
  7. ΤΑ ΔΕΛΦΙΝΑΚΙΑ ΤΟΥ ΑΜΒΡΑΚΙΚΟΥ (1993) DVDRip (DVDRip - easybytez - Ντογιάκος) Είδος: Κοινωνική Διάρκεια: 98 λεπτά Πρεμιέρα στην Ελλάδα: Παρασκευή 18 Φεβρουαρίου 1994 Χρώμα: Έγχρωμο Ήχος: (Dolby) Stereo Γλώσσα: Ελληνικά Έτος: 1993 Παραγωγή: Άγγελος Σιδεράτος & σία Ε.Ε.Ελληνικό Κέντρο Κινηματογράφου Εισιτήρια: 70.000 (1993-1994) 3η θέση σε 13 ταινίες Σκηνοθεσία: Ντίνος Δημόπουλος Σενάριο: Ντίνος Δημόπουλος Μουσική σύνθεση: Χρήστος Λεοντής Ηθοποιοί: Σταύρος Ντογιάκος, Κωνσταντίνα Αλευρά, Σπύρος Πανταζής, Νικήτας Χρόνης, Αλέξανδρος Ρήγας, Κωνσταντίνα Ανδριοπούλου, Χρήστος Ζορμπάς, Φώτης Γκαβέρας, Βαγγέλης Βαζάκας, Βίλλυ Σιδεράτου, Φωτεινή Παπαδαμάκη, Πάνος Σαλωνίτης, Δημήτρης Παπαγιάννης, Χάρης Παναγιώτου, Γιώργος Κροντήρης, Μιχάλης Μαραγκάκης, Γιάννης Δημοθόδωρος, Γιάννης Γκολομάζος, Φρειδερίκη Κολιού, Νίκος Παπαδημητρίου, Λάμπρος Μπαβέτας Υπόθεση: Σε ένα μικρό επαρχιακό θαλασσοχώρι, εδώ και εξήντα χρόνια, δυο οκτάχρονα παιδιά, ο Πέτρος και η Ανθούλα, ανακαλύπτουν σιγά-σιγά το ανεπανάληπτο θαύμα του κόσμου που τους περιβάλλει. Μιλούν με τα ζώα, κυνηγιούνται με τα πουλιά κι αρθρώνουν τις πρώτες στροφές από το αιώνιο τραγούδι της αγάπης, κι ας μην καταλαβαίνουν ακόμα τα λόγια του. Μα αυτό το θαυμαστό πανηγύρι της ζωής θα σκοτεινιάσει ξαφνικά, όταν τα δυο παιδιά θα βρεθούν μπροστά σε ένα συνομήλικο άρρωστο αγόρι, παρατημένο από τους δικούς του να πεθάνει σε μιαν έρημη καλύβα. Ο Πέτρος και η Ανθούλα πλησιάζουν θαρρετά το άρρωστο παιδί και με την ανεξάντλητη δύναμη της αγάπης γκρεμίζουν τα σύνορα της συμβατικότητας και του φόβου, κι ανοίγουν φωτεινούς δρόμους στη ζωή, αδιανόητους για τους μεγάλους.
  8. ΠΑΡΑΚΑΛΩ ΓΥΝΑΙΚΕΣ ΜΗΝ ΚΛΑΙΤΕ (1992) DVDRip «PLEASE LADIES DON'T CRY...» (DVDRip - easybytez - worldbytez) Είδος: Κοινωνική Διάρκεια: 88' Πρεμιέρα στην Ελλάδα: Παρασκευή 15 Ιανουαρίου 1993 Χρώμα: Έγχρωμο Ήχος: Mono Γλώσσα: Ελληνικά Παραγωγή: Ελληνική Παραγωγός: Γιάννης Γαβρήλος, Σταύρος Τσιώλης Εταιρία παραγωγής: Ελληνικό Κέντρο Κινηματογράφου Σκηνοθεσία: Χρήστος Βακαλόπουλος, Σταύρος Τσιώλης Σενάριο: Σταύρος Τσιώλης, Χρήστος Βακαλόπουλος Μουσική σύνθεση: Μάκης Μπέκος Υπόθεση: Το καλοκαίρι του 1992, δυο διάσημοι αγιογράφοι (και αστρονόμοι) καταφθάνουν από την Αθήνα σ' ένα ορεινό χωριό της Αρκαδίας, για ν' αποκαταστήσουν τις κατεστραμμένες τοιχογραφίες σε βυζαντινό εξωκλήσι του δέκατου πέμπτου αιώνα. Η άφιξή τους κατακλύζει με νέα ζωή την ξεχασμένη εκκλησία, αλλά η ταινία αναγκάζεται να παρακολουθεί την...μη επιτέλεση του έργου έως και τον ερχομό του χειμώνα, οπότε και οι δυο διάσημοι αγιογράφοι (και αστρονόμοι) κατεβαίνουν προς τη θάλασσα για να ξεχειμωνιάσουν... Ηθοποιοί: Αργύρης Μπακιρτζής, Δημήτρης Βλάχος, Δώρα Μασκλαβάνου, Νικόλαος Κέκκος, Έμιλυ Παπαχρήστου, Κώστας Τσαρούχας, Έβελυν Γαβρήλου, Θύμιος Θεοδώρου, Στράτος Θεοδώρου, Δήμητρα Ψυχογιού, Σταύρος Κουρλαμάνης, Βασίλης Παρασκευόπουλος, Βούλα Γληνού, Ειρήνη Καλτεζιώτη, Χρήστος Σταματόπουλος, Γιάννης Μουγκός, Μάκης Αρτόπουλος, Ντίνος Χαραλαμπόπουλος, Ευγενία Φουσιάνη, Κωνσταντίνος Φουσιάνης, Αντώνης Κιούκας, Ελένη Λυγία, Γιάννης Λυγίας, Νίκος Μπόγρης, Κομποτιάτης Δημοσθένης, Ντίνα Μπούλη Γούναρη Σχόλια: Η ταινία προβλήθηκε τη σαιζόν 1992-1993 και έκοψε 50.000 εισιτήρια πανελλαδικά. Ήρθε στην 2η θέση σε 11 ταινίες.
  9. ΟΣΟ ΥΠΑΡΧΕΙ ΑΡΚΟΟΛ (2002) DVDRip (DVDRip - easybytez - Κρανιδιώτης) Είδος: Κοινωνική Διάρκεια: 103' Πρεμιέρα: 15 Νοεμβρίου 2002 Χρώμα: Έγχρωμο Ήχος: Dolby Stereo Γλώσσα: Ελληνικά Παραγωγός: Δημήτρης Μακρής Εταιρία παραγωγής: Ελληνική Ραδιοφωνία Τηλεόραση (ΕΡΤ) Σκηνοθεσία: Δημήτρης Μακρής Σενάριο: Δημήτρης Μακρής Μουσική σύνθεση: Τάκης Δημητρακόπουλος Ηθοποιοί: Πάνος Κρανιδιώτης , Μαρία Κωνσταντάκη , Μάκης Παπαδημητράτος , Δημήτρης Μπάνος , Θεοδοσία Χαγιαλίδη , Βασιλική Μουστάκη , Βασίλης Μητρόπουλος , Ανδρομάχη Παπαγεωργίου Υπόθεση: Η αθέατη πλευρά της σύγχρονης Ιταλίας όπου κυριαρχεί ο φόβος, η μοναξιά και η εγκληματικότητα. Ακολουθώντας μια εσωτερική παρόρμηση και αναζητώντας αυτή τη σκοτεινή Ιταλία, ο Μιχάλης, ο κεντρικός ήρωας, ένα βροχερό πρωινό θα φτάσει στο Μιλάνο και θα περιπλανηθεί την πόλη με νοσταλγία. Κάθε γωνιά, κάθε κτίριο, κάθε δρόμος είναι αφορμή για να τρέξει η μνήμη στα παλιά. Mια τυχαία γνωριμία θα τον οδηγήσει στα περίχωρα της πόλης σ' ένα γιγαντιαίο συγκρότημα κατοικιών που όλοι ονομάζουν "Εφιάλτη". Ένα μπλοκ βρωμιάς, φτώχειας και εξαθλίωσης, όπου σ' ένα παγωμένο διαμέρισμα του 17ου ορόφου κατοικούν ο Ανδρέας και η Χριστίνα, Έλληνες, πρώην φοιτητές, ξεχασμένοι εκεί από τον κόσμο αλλά και από τον ίδιο τους τον εαυτό, μη περιμένοντας και μη ελπίζοντας σε τίποτα. Ο Μιχάλης θα μοιραστεί για λίγες ημέρες την άδεια ζωή τους, ανάμεσα σε άσκοπα ξενύχτια, διαλυμένα Alfa Romeo, τηλεόραση και άφθονο ουίσκι. Θα ερωτευτεί παράφορα τα μελαγχολικά όσο και υπέροχα μάτια της Χριστίνας. O έρωτας τους όλο δύναμη, θα υπερνικήσει τα αόρατα τείχη του δυναστικού μπλοκ, θα τους οδηγήσει σε μια τρελή φυγή και θα σβήσει αποκαμωμένος λίγες ημέρες μετά έχοντας χάσει σχεδόν αμέσως τη λάμψη και τη δύναμη του. Σχόλια: Η ταινία προβλήθηκε τη σαιζόν 2002-2003 και έκοψε 2.500 εισιτήρια πανελλαδικά. Ήρθε στην 14η θέση σε 20 ταινίες.
  10. Είδος Ταινίας: Drama, Romance, Thriller Πρεμιέρα: 5 September 2018 (France) Σκηνοθέτης: Jean-Bernard Marlin Σενάριο: Jean-Bernard Marlin (screenplay), Catherine Paille (screenplay) Ηθοποιοί: Dylan Robert, Kenza Fortas, Idir Azougli Υπότιτλοι: Ελληνικοί Ενσωματωμένοι & Σε Ξεχωριστό Αρχείο Ελληνικός Τίτλος: Σεχραζάντ Μετάφραση: Άγνωστος Διάρκεια: 109' Καταλληλότητα: - encoder: .:Sexmeup:. Πηγή: FRENCH.1080p.WEB.x264-PREUMS Υπόθεση: Έχοντας μόλις βγει από το αναμορφωτήριο στη Μασσαλία, ο 17χρονος Ζακ ερωτεύεται μια νεαρή πόρνη και σύντομα έρχεται αντιμέτωπος με ένα δίλημμα δουλεύοντας ως νταβατζής. https://www.imdb.com/title/tt8459250/ ΑΝ ΘΕΛΕΤΕ ΝΑ ΣΤΗΡΙΞΕΤΕ ΤΗΝ ΔΟΥΛΕΙΑ ΜΟΥ ΚΑΝΤΕ ΕΥΚΟΛΑ ΚΑΙ ΓΡΗΓΟΡΑ ΛΟΓΑΡΙΑΣΜΟ ΣΤΟ EASYBYTEZ KAI KATEΒΑΣΤΕ ΣΑΝ PREMIUM AΠO 20 HOST!! http://www.easybytez.com/free2771.html
  11. A DOGS JOURNEY (2019) BRRip XviD AC3-EVO | ENΣΩΜΑΤΩΜΕΝΟΙ ΥΠΟΤΙΤΛΟΙ ΣΚΗΝΟΘΕΣΙΑ : Gail Mancuso ΣΕΝΑΡΙΟ : W. Bruce Cameron (book), W. Bruce Cameron (screenplay) ΗΘΟΠΟΙΟΙ : Josh Gad, Dennis Quaid, Kathryn Prescott ΕΙΔΟΣ : Adventure, Comedy, Drama ΠΡΕΜΙΕΡΑ : 16 May 2019 (Greece) ΜΕΤΑΦΡΑΣΗ : Calamity Jane IMDB: https://www.imdb.com/title/tt8385474/ Σε αυτή την υπέροχη οικογενειακή ταινία, θα δούμε τη συγκινητική ιστορία του αφοσιωμένου σκύλου Μπέιλι που βρίσκει το νόημα της δικής του ύπαρξης μέσα από τις ζωές των ανθρώπων που κάνει να γελούν και να αγαπούν. Ο Μπέιλι ζει σε μια υπέροχη φάρμα στο Μίσιγκαν μαζί με το αφεντικό του, Ίθαν, και τη γυναίκα του, Χάνα. Έχει μάλιστα αποκτήσει έναν απίθανο καινούριο φίλο: την εγγονή του Ίθαν και της Χάνα, Σίτζεϊ. Όταν η μητέρα της Σίτζεϊ αποφασίζει να πάρει τη μικρή μακριά, ο Μπέιλι που της έχει υποσχεθεί πως θα την προστατεύει για πάντα, θα κάνει τα πάντα για να κρατήσει την υπόσχεσή του και να βρεθεί ξανά κοντά της. Μια τρυφερή ιστορία ελπίδας, αγάπης και απεριόριστης αφοσίωσης που σε κάνει να αναρωτιέσαι αν εμείς φροντίζουμε πραγματικά τους τετράποδους φίλους μας ή εκείνοι εμάς. Αυτή είναι μια φιλία που ξεπερνάει μια ζωή και μια αγάπη που ξεπερνάει όλα τα εμπόδια..
  12. ΤΟ ΜΕΤΕΩΡΟ ΒΗΜΑ ΤΟΥ ΠΕΛΑΡΓΟΥ (1991) DVDRip (DVDRip - easybytez - Marcello Mastroianni) Είδος: Κοινωνική Διάρκεια: 143 λεπτά Χρώμα: Έγχρωμο Ήχος: Dolby Digital Γλώσσα: Ελληνικά Πρεμιέρα στην Ελλάδα: Παρασκευή 10 Ιανουαρίου 1992 Παραγωγός: Φοίβη Οικονομοπούλου , Bruno Pesery , Θόδωρος Αγγελόπουλος , Κώστας Λαμπρόπουλος , Angelo Rizzoli Jr. , Ruth Walburger Σκηνοθεσία: Θόδωρος Αγγελόπουλος Σενάριο: Θόδωρος Αγγελόπουλος σε συνεργασία με τους Tonino Guerra, Δημήτρη Νόλλα Μουσική: Ελένη Καραΐνδρου Υπόθεση: Ένας πολιτικός, μετά από μια συνεδρίαση στη βουλή όπου εκφωνεί μάλλον μια ποιητική ανακοίνωση παρά έναν πολιτικό λόγο, εγκαταλείπει το κοινοβούλιο και το σπίτι του, κι εξαφανίζεται χωρίς ν' αφήσει κανένα ίχνος. Ένας δημοσιογράφος που κάνει ρεπορτάζ στην παραμεθόριο για τους εγκλωβισμένους στα σύνορα μετανάστες και πρόσφυγες διαφόρων φυλών, συναντά έναν άντρα που η εξωτερική του εμφάνιση ταιριάζει με τα χαρακτηριστικά του αγνοούμενου πολιτικού. Παρά τις έρευνές του και μια συνάντηση που καταφέρνει να οργανώσει ανάμεσα στον άγνωστο και τη γαλλίδα γυναίκα του πολιτικού, η ταυτότητα του αγνώστου παραμένει ανεξακρίβωτη. Η γυναίκα δεν τον αναγνωρίζει, κι εκείνος δε φαίνεται διατεθειμένος ούτε για μια στιγμή να μας δώσει ένα σημάδι ότι δεν πρόκειται για τον πολιτικό που αγνοείται. Σ’ αυτόν τον κατακερματισμένο κόσμο όπου έχει καταφύγει, στην απομόνωση ενός κόσμου με δικό του θεό και νόμο, συμπιεσμένο ανάμεσα σε εμπόδια, σύνορα και όρια, όλα μετεωρίζονται σε μιαν αβέβαιη πραγματικότητα… Ηθοποιοί: Marcello Mastroianni , Jeanne Moreau , Γρηγόρης Πατρικαρέας , Ηλίας Λογοθέτης , Χριστόφορος Νέζερ , Δημήτρης Πουλικάκος , Γεράσιμος Σκιαδαρέσης , Αθηνόδωρος Προύσαλης , Βασίλης Μπουγιουκλάκης , Άκης Σακελλαρίου , Νάντια Μουρούζη , Θοδωρής Αθερίδης , Γιάννης Δάντης , Φρέντυ Βιανέλλης , Ροδόλφος Μορώνης , Φώτος Λαμπρινός , Κωνσταντίνος Λάγκος , Τάσος Αποστόλου , Μιχάλης Γιαννάτος , Δώρα Χρυσικού Σχόλια: Η ταινία προβλήθηκε τη σαιζόν 1991-1992 και έκοψε 190.000 εισιτήρια πανελλαδικά. Ήρθε στην πρώτη θέση ανάμεσα σε 10 ταινίες.
  13. ΝΑ ΚΑΘΕΣΑΙ ΚΑΙ ΝΑ ΚΟΙΤΑΣ (2013) DVDRip (DVDRip - easybytez - Συμεού) Είδος: Κοινωνική Διάρκεια: 98′ Παραγωγή: Ελληνική Πρεμιέρα στην Ελλάδα: Πεμπτη 1 Μαϊου 2014 Χρώμα: Έγχρωμο Ήχος: Dolby Digital Γλώσσα: Ελληνικά Σκηνοθεσία: Γιώργος Σερβετάς Σενάριο: Γιώργος Σερβετάς Σύνθεση μουσικής: Ιώ Υπόθεση: Χειμωνιάτικος ουρανός. Πράσινα λιβάδια. Αποθήκες σιτηρών. Ένας άδειος σταθμός. Φτάνει ένα τρένο. Δεν κατεβαίνει κανείς, εκτός από την Αντιγόνη, μια νέα κοπέλα γύρω στα 30. Βρισκόμαστε στη Θ., μια μικρή πόλη της ελληνικής επαρχίας και το μέρος στο οποίο επιστρέφει η Αντιγόνη μετά από απουσία πολλών ετών. Η Αντιγόνη είναι αποφασισμένη να μείνει εκεί. Πάει στο μπαρ της γειτονιάς για ένα ποτό, συναντά μια φίλη απ’ τα παλιά, πιάνει δουλειά ως καθηγήτρια αγγλικών στο τοπικό φροντιστήριο, τα φτιάχνει με τον Νίκο, ένα αγόρι σαφώς νεότερο, όμορφο και ευχάριστα αφελές. Ωστόσο, η αναζήτηση μιας απλής ζωής στους ήσυχους δρόμους της μικρής πόλης σύντομα αποδεικνύεται ελαφρώς πιο μπερδεμένη απ ’ό,τι η Αντιγόνη είχε φανταστεί. Σύντομα θα βρεθεί μπλεγμένη σε καταστάσεις που απαιτούν δράση. Ηθοποιοί: Μαρίνα Συμεού Γιώργος Καφετζόπουλος Μαριάνθη Παντελοπούλου Νίκος Γεωργάκης Κωστής Σειραδάκης Γιώργος Ζιώβας Γιώργος Μπινιάρης Διακρίσεις: Βραβείο Β’ Ανδρικού Ρόλου στα Βραβεία Ελληνικής Ακαδημίας Κινηματογράφου 2014 – Νίκος Γεωργάκης Τμήμα Panorama, Διεθνές Φεστιβάλ Κινηματογράφου του Βερολίνου, 2014 Διεθνές Φεστιβάλ San Francisco, 2014 Διεθνές Φεστιβάλ Δουβλίνου Jameson, 2014 Διεθνές Φεστιβάλ Palm Springs, 2014 «Κινηματογραφικές Μέρες – Κύπρος 2014» «City to City: Athens», Διεθνές Φεστιβάλ του Τορόντο, 2013 Διεθνές Φεστιβάλ Θεσσαλονίκης, 2013
  14. ΚΑΤΩ ΑΠΟ ΤΟ ΜΑΚΙΓΙΑΖ ΣΟΥ - UNDER YOUR MAKEUP (2009) DVDrip (DVDRip - easybytez - Αριελ Κωνσταντινίδη) Δραματική, Κοινωνική, Θρίλερ Διάρκεια: 95' Πρεμιέρα στην Ελλάδα: Πεμ 23 Απρ 2009 Ημερομηνία κυκλοφορίας DVD: 13/10/2009 Διανομή: Village Films Χρώμα: Έγχρωμο Ήχος: Dolby Digital Γλώσσα: Ελληνικά Υπόθεση: Σε μια μόνο στιγμή… όλα μπορούν να πάνε στραβά. Η Νίκη, υπάλληλος σε κατάστημα καλλυντικών, θέλει ένα παιδί. Ο φίλος της, όμως, και προϊστάμενός της, δε φαίνεται να συμμερίζεται την επιθυμία της. Έτσι, χωρίζουν. Οι φίλες της την προτρέπουν να ενδώσει στο επίμονο φλερτ του σεκιούριτι του μαγαζιού. Κι ενώ όλα φαίνονται να αλλάζουν προς το καλύτερο για τη Νίκη, ένα βράδυ επιστρέφοντας από τη δουλειά, χτυπάει με το αμάξι της και σκοτώνει ένα κοριτσάκι που πετάγεται στο δρόμο έχοντας ξεφύγει από τους γονείς του. Αν και αθώα, η Νίκη έρχεται αντιμέτωπη με κάτι που δεν αντιμετωπίζεται… Σκηνοθέτης: Βαγγέλης Σεϊτανίδης Σεναριογράφος: Βαγγέλης Σεϊτανίδης Ηθοποιοί: Αριελ Κωνσταντινίδη Βάνα Πεφάνη Αστέριος Πελτέκης Καίτη Παπανίκα Ούρσουλα Βλάχου Σοφία Χρυσοχοΐδου Σόφη Ζαννίνου Ερρίκος Λίτσης Μένη Κωνσταντινίδη Τζώρτζης Μουριάδης
  15. ΜΙΑ ΑΙΩΝΙΟΤΗΤΑ ΚΑΙ ΜΙΑ ΜΕΡΑ (1990) DVDRip L' éternité et un jour [Η αιωνιότητα και μια μέρα] (1998) DVDRip Ελλάδα/Γαλλία/Ιταλία. (DVDRip - Ganz - easybytez - filefactory) Έγχρωμη. Διάρκεια 130' Σενάριο - Σκηνοθεσία : Θόδωρος Αγγελόπουλος. Συνεργασία στο σενάριο : Tonino Guerra, Πέτρος Μάρκαρης Διεύθυνση Φωτογραφίας : Γιώργος Αρβανίτης, Αντρέας Σινάνος Σκηνικά : Γιώργος Ζιάκας, Κώστας Δημητριάδης Κοστούμια : Γιώργος Πάτσας Μουσική : Ελένη Καραϊνδρου Ήχος : Νίκος Παπαδημητρίου Μιξάζ : Κώστας Βαρυμποπιώτης Μοντάζ : Γιάννης Τσιτσόπουλος Εκτέλεση παραγωγής : Φοίβη Οικονομοπούλου Διεύθυνση παραγωγής : Λευτέρης Χαρωνίτης, Νίκος Σέκερης Ηθοποιοί: Bruno Ganz (Αλέξανδρος), Isabelle Renauld (Άννα), Fabrizio Bentivoglio (ποιητής), Αχιλλέας Σκέβης (μικρός των φαναριών), Δέσποινα Μπεμπεδέλη (μητέρα), Ίρις Χατζηαντωνίου (κόρη), Ελένη Γερασιμίδου (οικονόμος), Νίκος Κούρος (θείος), Αλεξάνδρα Λαδικού (μητέρα 'Αννας), Αλέκος Ουδινότης (πατέρας Άννας), Βασίλης Σεϊμένης (γαμπρός Αλέξανδρου) Παραγωγή : Θόδωρος Αγγελόπουλος, Ελληνικό Κέντρο Κινηματογράφου (ΕΚΚ), Paradis Films, Intermedias S.A., La Sept Cinema, CANAL +, Classic SRL, Istituto Luce, WDR&ARTE, με την υποστήριξη του Eurimages Υπόθεση: Ο Αλέξανδρος, ένας μεσόκοπος συγγραφέας, ασχολείται με το ημιτελές έργο του Σολωμού "Ελεύθεροι Πολιορκημένοι". Από το ποίημα λείπουν λέξεις, κι ο Αλέξανδρος αποπειράται να τις συγκεντρώσει, να τις αγοράσει, όπως έκανε για τις δικές του λέξεις κι ο Σολωμός. Τούτες οι λέξεις μπαίνουν στο παζλ της συμπλήρωσης του ημιτελούς αριστουργήματος για να στοιχειώσουν και την ζωή του Αλέξανδρου. Όμως οι δυνάμεις του έχουν εξαντληθεί, και ο ίδιος βαδίζει προς το θάνατο. Ο χρόνος που του απομένει, ανήκει στις αναμνήσεις, στον απολογισμό μιας ζωής, γεμάτης χαμένες ευκαιρίες και λάθος κινήσεις. Μόνο μια κίνηση υπάρχει ακόμα: μια τυχαία συνάντηση μ' ένα άστεγο αγόρι, παιδί των φαναριών. Προσκολλάται σε αυτό το παιδί, αναβάλλει την «αναχώρηση» και παρατείνει την αιωνιότητα κατά μία μέρα, για να μεταφέρει στον μικρό του φίλο κάτι από την γνώση του, ν' αφήσει τα ίχνη του [πάνω σε κάποιον, μέσα από το βλέμμα του οποίου θα σωθεί εκείνος που φεύγει...
  16. ΕΛΛΗΝΙΚΗ ΤΑΙΝΙΟΘΗΚΗ ΘΟΔΩΡΟΣ ΑΓΓΕΛΟΠΟΥΛΟΣ - 3 - DVDRip (DVDRip - easybytez - filefactory) ΤΑΞΙΔΙ ΣΤΑ ΚΥΘΗΡΑ (1984) Είδος: Δραματική Πρώτη προβολή: 21 Απριλίου 1984 (Ελλάδα) Διάρκεια: 137' Παραγωγή: Θεόδωρος Αγγελόπουλος Σκηνοθεσία: Θεόδωρος Αγγελόπουλος Σενάριο: Θεόδωρος Αγγελόπουλος,Τονίνο Γκουέρα, Θανάσης Βαλτινός Μουσική: Ελένη Καραΐνδρου Τραγούδι: Γιώργος Νταλάρας Ηθοποιοί:Μάνος Κατράκης, Μαίρη Χρονοπούλου, Διονύσης Παπαγιαννόπουλος, Γιώργος Νέζος, Αθηνόδωρος Προύσαλης, Ντόρα Βολανάκη, Δέσποινα Γερουλάνου, Μιχάλης Γιαννάτος, Βασίλης Τσάγκλος, Τάσος Σαρίδης, Χριστόφορος Νέζερ, Ειρήνη Κουμαριανού, Γιάννης Φύριος, Αχιλλέας Αμπαζής, Άκης Καρέγλης, Γιώργος Νταλάρας Υπόθεση: Ένας πολιτικός πρόσφυγας, ο Σπύρος , επιστρέφει γέρος πια στην πατρίδα του μετά από πολλά χρόνια εξορίας. Η επιστροφή είναι δύσκολη, αφού ακόμα και η γυναίκα του μοιάζει ξένη. Για την επίσημη πολιτεία, ο Σπύρος δεν ανήκει σε αυτόν τον τόπο, είναι ένας άντρας χωρίς εθνικότητα, με τη μνήμη του στραμμένη στο παρελθόν, ένας Οδυσσέας που γυρίζει σε ένα σπίτι που δεν υπάρχει. Όμως, ένας σκηνοθέτης, που θέλει να σκηνοθετήσει μια ταινία για τους πολιτικούς πρόσφυγες, θα ακολουθήσει τον Σπύρο σ’ αυτό το τελευταίο του ταξίδι. Ο ΜΕΓΑΛΕΞΑΝΔΡΟΣ (1980) Είδος: Κοινωνική Διάρκεια: 210' Πρεμιέρα: Οκτώβριος 1980 Εταιρία παραγωγής: Ελληνικό Κέντρο Κινηματογράφου , RAI , ZDF , Ελληνικό Κέντρο Κινηματογράφου Παραγωγός: Φοίβη Οικονομοπούλου , Νίκος Αγγελόπουλος Σκηνοθεσία: Θόδωρος Αγγελόπουλος Σενάριο: Θόδωρος Αγγελόπουλος , Πέτρος Μάρκαρης Μουσική σύνθεση: Χριστόδουλος Χάλαρης Ηθοποιοί: Omero Antonutti,Εύα Κοταμανίδου, Μιχάλης Γιαννάτος,Θάνος Γραμμένος, Γρηγόρης Ευαγγελάτος,Μιράντα Κουνελάκη, Τούλα Σταθοπούλου,Ελπιδοφόρος Γκότσης, Χάρης Πισιμίσης,Γιώργος Κωβαίος, Στράτος Παχής,Γιώργος Μπάρτης,Χριστόφορος Νέζερ, Φώτης Παπαλάμπρος,Norman Mozzato, Ηλίας Ζαφειρόπουλος,Brizio Montinaro,Χ. Σταματέλος, Ρολάνδος Χρέλιας,Νίκος Κούρος, Claudio Betan, Laura de Marchi,Brizio Montianaro,Francesco Η υπόθεση αφορά τον Αλέξανδρο, έναν ισχυρό ηγέτη που με τη συνοδεία μιας ομάδας ληστών καταφέρνουν να διαφύγουν από το σωφρονιστικό ίδρυμα στο οποίο κρατούνταν. Πιάνουν σαν ομήρους μερικούς ευγενείς και μαζί με αρκετούς αναρχικούς οδεύουν προς ένα μικρό χωριό, στο οποίο βρισκόταν ο αρχηγός τους. Σε εκείνο το μέρος έχει κατασκευαστεί επιτυχώς ένα σύστημα που λειτουργεί με βάση την κοινοκτημοσύνη, την ισότητα και τη δικαιοσύνη των πολιτών. Λένε στους τοπικούς άρχοντες να δώσουν πίσω τα κτήματα που κατέχουν στους χωρικούς και τους αγρότες, όμως τα αιτήματά τους αντικρούουν σε στρατιωτικά τάγματα που περικυκλώνουν το μέρος αυτό. Από αυτό το σημείο και μετά τα πράγματα ξεφεύγουν από κάθε έλεγχο. ΟΙ ΚΥΝΗΓΟΙ (1977) Είδος: Πολιτική Διάρκεια: 165' Παραγωγή: Θόδωρος Αγγελόπουλος με τη συμμετοχή της γαλλικής ΙΝΑ και της ZDF Σενάριο: Θόδωρος Αγγελόπουλος Σκηνοθεσία: Θόδωρος Αγγελόπουλος Στίχοι πρωτότυπων τραγουδιών: Λευτέρης Παπαδόπουλος Μουσική: Λουκιανός Κηλαηδόνης Ηθοποιοί: Βαγγέλης Καζάν, Μπέτυ Βαλάσση, Γ.Δάνης, Μαίρη Χρονοπούλου, Ηλίας Σταματίου, Αλίκη Γεωργούλη, Νίκος Κούρος, Εύα Κοταμανίδου, Στράτος Παχής, Χριστόφορος Κ.Νέζερ, Δημήτρης Καμπερίδης, Λουκάς Χρέλιας, Τάκης Δουκάκος, Βασίλης Τσάγκλος, Γιώργος Τζιφός, Αλέκος Αργυρίου. Υπόθεση:Παραμονή Πρωτοχρονιάς του 1977, μια ομάδα κυνηγών βρίσκει στην περιοχή κοντά στη λίμνη των Ιωαννίνων, μέσα στο πυκνό χιόνι, το πτώμα ενός αντάρτη του Εμφυλίου. Το αίμα τρέχει ακόμα φρέσκο απ' την πληγή του, παρ' όλο που έχουν περάσει κοντά τριάντα χρόνια. Οι κυνηγοί, όλοι εκπρόσωποι της αστικής τάξης, πολιτικής και οικονομικής (μαζί τους, όμως, κι ένας «ανανήψας "αριστερός"»), μεταφέρουν το πτώμα στο ξενοδοχείο τους, όπου και θα περάσουν μια νύχτα Πρωτοχρονιάς γεμάτη απ' τα φαντάσματα της ιστορικής τους συνείδησης και το φόβο του παρελθόντος. Μπροστά σ' ένα μεγάλο δικαστήριο της Ιστορίας, που λαμβάνει χώρο στη σάλα χορού του ξενοδοχείου, οι καταθέσεις τους μετατρέπονται σε ζωντανούς εφιάλτες της συλλογικής τους συνείδησης. Προς το τέλος της ταινίας, ο αντάρτης ζωντανεύει μέσα στη φαντασία των τρομοκρατημένων κυνηγών, μετατρέπεται σ' ένα είδος εκδικητή της επανάστασης. Αφού ακούσουν απ' τα χείλη του την καταδικαστική απόφαση, οι αστοί εκτελούνται, για να ξεσηκωθούν, βγαίνοντας από ένα άσχημο όνειρο. Το πτώμα θα επιστρέψει στο χιόνι, και οι κυνηγοί θα συνεχίσουν την πορεία τους στο κατάλευκο τοπίο.
  17. ΚΥΝΟΔΟΝΤΑΣ (2009) DVDRip ΠΡΟΣΟΧΗ:Αυστηρά ακατάλληλο για ανήλικους..... (DVDRip - Στεργιόγλου - easybytez) Είδος: Κοινωνική Διάρκεια: 94' Ήχος: Λέανδρος Ντούνης Χρώμα:Έγχρωμο Ήχος: Dolby Digital Γλώσσα: Ελληνικά Πρεμιέρα: 11 November 2009 (Greece) Εταιρεία Παραγωγής: BOO PRODUCTIONS Παραγωγή: Γιώργος Τσουργιάννης Σκηνοθεσία: Γιώργος Λάνθιμος Σενάριο: Γιώργος Λάνθιμο Ευθύμης Φιλίππου Ηθοποιοί: Χρήστος Στεργιόγλου Μισέλ Βάλλεϊ Αγγελική Παπούλια Μαίρη Τσώνη Χρήστος Πασσαλής Άννα Καλαϊτζίδου Υπόθεση: Ο πατέρας, η μητέρα και τα τρία τους παιδιά ζουν σε μια μονοκατοικία έξω από την πόλη. Γύρω από το σπίτι υπάρχει ένας ψηλός φράχτης. Τα παιδιά δεν έχουν φύγει ποτέ από το σπίτι. Διαπαιδαγωγούνται, ψυχαγωγούνται, βαριούνται και αθλούνται έτσι όπως οι γονείς τους πιστεύουν ότι θα έπρεπε, χωρίς κανένα εξωτερικό ερέθισμα. Τα παιδιά επίσης πιστεύουν ότι τα αεροπλάνα που πετάνε πάνω από το σπίτι είναι παιχνίδια και ότι τα ζόμπι είναι μικρά κίτρινα λουλούδια. Ο μόνος άνθρωπος που μπαίνει μέσα στο σπίτι είναι η Χριστίνα, η οποία δουλέυει σαν φρουρός security στο εργοστάσιο του πατέρα. Ο πατέρας κανονίζει τις επισκέψεις της στο σπίτι με σκοπό να κατευνάζει τις σεξουαλικές ορμές του γιού. Όλη η οικογένεια, και ιδιαίτερα η μεγάλη κόρη, λατρεύει την Χριστίνα. Μια μέρα η Χριστίνα κάνει δώρο στην μεγάλη κόρη μια στέκα για τα μαλλιά ζητώντας της κάτι άλλο σε αντάλλαγμα.
  18. ΤΟ ΒΛΕΜΜΑ ΤΟΥ ΟΔΥΣΣΕΑ (1995) DVDRip (DVDRip - easybytez - worldbytez - filefactory) Είδος: Κοινωνική Διάρκεια: 176'. Πρεμιέρα: 24 Μαϊου 1995 Χρώμα: Έγχρωμο Ήχος: Dolby Digital Γλώσσα: Αγγλικά - Ελληνικά - Βουλγαρικά - Σερβικά Παραγωγή: Θόδωρος Αγγελόπουλος, Ελληνικό Κέντρο Κινηματογράφου (ΕΚΚ), Paradis Films, La Generale d'Images, La Sept Cinema, με τη συνεργασία των: CANAL +, Basic Cinematografica, Istituto Luce, RAI, TeleMunchen, Concorde Films, Mega Channel (Αθήνα), Channel Four, και την υποστήριξη του Eurimages Παραγωγοί: Giorgio Silvagni, Eric Heumann, Dragan Ivanovic - Hevi, Ivan Milovanovic Εκτέλεση παραγωγής: Φοίβη Οικονομοπούλου Διεύθυνση παραγωγής: Κώστας Λαμπρόπουλος Σενάριο: Θόδωρος Αγγελόπουλος Σκηνοθεσία: Θόδωρος Αγγελόπουλος Μουσική: Ελένη Καραϊνδρου Ηθοποιοί: Harvey Keitel , Erland Josephson (συντηρητής της Ταινιοθήκης του Σαράγεβο) , Maia Morgenstern , Θανάσης Βέγγος (ταξιτζής) , Γιώργος Μιχαλακόπουλος (Νίκος) , Ντόρα Βολανάκη (ηλικιωμένη κυρία) , Μάνια Παπαδημητρίου , Γιώργος Κώνστας , Θάνος Γραμμένος , Αλέκος Ουδινότης , Angel Ivanof , Ljuba Tadic , Βαγγέλης Λιοδάκης , Cert Llanaj , Αγνή Βλάχου , Γιάννης Ζαβραδινός , Βαγγέλης Καζάν , Μίρκα Καλατζοπούλου , Δημήτρης Καμπερίδης , Εύα Κοταμανίδου , Μιράντα Κουνελάκη , Νίκος Κούρος , Ναταλία Μιχαηλίδου , Νάντια Μουρούζη , Βασίλης Μπουγιουκλάκης , Χριστόφορος Νέζερ , Τάνια Παλαιολόγου , Στράτος Παχής , Τζένη Ρουσσέα , Στράτος Τζώρτζογλου , Γιάννης Φύριος , Δώρα Χρυσικού , Παναγιώτης Βαφειάδης , Γιάννης Κόκορης , Ηλίας Τσέχος , Νικολέττα Γουλή , Πάρις Ελευθερίου , Άννα Αγγελοπούλου , Κατερίνα Αγγελοπούλου , Ελένη Αγγελοπούλου , Τάσος Πανταζής , Σταμάτης Μιχαληνός , Κώστας Σαντάς , Σοφία Βαμβακίδου , Μαρία Κάτσενου Υπόθεση: Ένας σκηνοθέτης του κινηματογράφου περιδιαβάζει την ταραγμένη βαλκανική χερσόνησο και ως άλλος Οδυσσέας κάνει ένα ταξίδι επιστροφής μέσα απ’ τη μνήμη και τα ξέφτια της πρόσφατης ιστορίας. Μια αναζήτηση σε παλιά ελληνικά αστικά τοπία που έχουν καταρρεύσει, ρημάξει και ξεθωριάσει. Φλώρινα, Κορυτσά, Μοναστήρι, Φιλιππούπολη, Μαύρη Θάλασσα, Κονστάντσα, Βουκουρέστι, Δούναβης, Βελιγράδι, Μόσταρ και το τραγικό Σαράγιεβο. Ένα απέραντο τοπίο πληγών που δεν λένε να κλείσουν, εδώ κι έναν αιώνα σχεδόν. Ως κίνητρο γι' αυτή την περιπλάνηση χρησιμοποιείται ένα κουτί φιλμ των πρώτων κινηματογραφιστών των Βαλκανίων, των αδελφών Μανάκια, το οποίο έχει μείνει ανεμφάνιστο και ανεπεξέργαστο απ’ τις αρχές του 20ου αιώνα, όπως και η αδιεκπεραίωτη υπόθεση των Βαλκανίων. Σχόλια: Η ταινία προβλήθηκε τη σαιζόν 1995-1996 και έκοψε 190.000 εισιτήρια πανελλαδικά. Ήρθε στην πρώτη θέση σε 15 ταινίες. Η ταινία γυρίστηκε στις εξής χώρες: Ελλάδα, Γαλλία, Γερμανία, Ιταλία, Ομοσπονδιακή Δημοκρατία της Γιουγκοσλαβίας, Βοσνία & Ερζεγοβίνη, Αλβανία και Ρουμανία..
  19. ΤΟ ΒΑΡΥ ΠΕΠΟΝΙ (1977) DVDRip (DVDRip - easybytez - Χρυσομάλλης) Είδος: Κοινωνική Διάρκεια: 86' Έτος: 1977 Πρεμιέρα: 17 Οκτωβρίου 1977 Χρώμα: Έγχρωμο Ήχος: Dolby Digital Γλώσσα: Ελληνικά Παραγωγός: Παύλος Τάσιος Σκηνοθεσία: Παύλος Τάσιος Σενάριο: Παύλος Τάσιος Μουσική σύνθεση: Γιώργος Παπαδάκης Ηθοποιοί: Μίμης Χρυσομάλλης , Κατερίνα Γώγου , Αντώνης Αντωνίου , Κώστας Μεσάρης , Γιώργος Ματθαίος , Γιώργος Κυρίτσης , Λήδα Πρωτοψάλτη , Μενέλαος Ντάφλος , Μερόπη Ιωαννίδου , Νίκος Κατωμέρης , Φοίβος Κωνσταντινίδης , Κώστας Σταυρινουδάκης , Βάσος Μύλλερ Υπόθεση: Ένας νέος άντρας, ο Μίμης, φεύγει από το χωριό του και κατεβαίνει στην Αθήνα, επειδή μια μεγάλη τουριστική εταιρεία απαλλοτριώνει όλη την περιοχή προκειμένου να κτίσει ξενοδοχεία. Ο Μίμης μη θέλοντας να γίνει γκαρσόνι παίρνει τα λίγα χρήματα της αναγκαστικής απαλλοτρίωσης και τώρα πρέπει να δουλέψει για να βγάλει το ψωμί του. Στα πρώτα του βήματα στην Αθήνα τον στηρίζει ο Αριστείδης, ένας φίλος του από το στρατό, που ζει με τη γυναίκα και το παιδί του, την πεθερά του και την αδελφή της γυναίκας του, την Τούλα, δουλεύοντας με μια μοτοσικλέτα στις μεταφορές. Ο Μίμης νοικιάζει ένα υπόγειο, προσπαθεί να ανοίξει ένα μαγαζάκι κι ερωτεύεται την Τούλα. Γρήγορα παντρεύονται και τα λεφτά της μελλοντικής επιχείρησης γίνονται καπνός. Ο Μίμης αρνείται και πάλι να συμβιβαστεί και να δουλέψει μεροκάματο γιατί δεν ανέχεται να τον διατάζουν οι άλλοι. Η ζωή στην Αθήνα όμως είναι σκληρή, τα προβλήματα πολλά όταν έχεις οικογένεια, και μπορείς να παριστάνεις το βαρύ πεπόνι. Ύστερα από πολλές συγκρούσεις ο Μίμης υποτάσσεται τελικά στην καινούργια πραγματικότητα και γίνεται γκαρσόνι, προκειμένου να ζήσει αυτός και η οικογένεια του. Σχόλια: Η ταινία προβλήθηκε τη σαιζόν 1977-1978 και έκοψε 59.743 εισiτήρια. Ήρθε στην 3η θέση σε 17 ταινίες.
  20. ΑΠ΄ ΤΟ ΧΙΟΝΙ (1993) DVDrip [DVDrip - Σκιαδαρέσης - easybytez] Είδος: Κοινωνική Διάρκεια: 90' Παραγωγής: 1993 Χρώμα: Έγχρωμο Ήχος: Dolby Digital Γλώσσα: Ελληνικά Ημερομηνία κυκλοφορίας DVD: 2002 Παραγωγός: Ελληνικό Κέντρο Κινηματογράφου Σκηνοθέτης: Σωτήρης Γκορίτσας Σενάριο: Σωτήρης Γκορίτσας Μουσική: Νίκος Κυπουργός Υπόθεση: Τρεις κυνηγημένοι, βορειοηπειρώτες λαθρομετανάστες, περνούν πεζή την ελληνοαλβανική μεθόριο και βρίσκονται σε ελληνικό έδαφος. Είναι ο Θωμάς Λέκκας, ο Αχιλλέας Νάσιος και μαζί τους ο δεκάχρονος Νίκος που έχασε προσφατα τους γονείς του. Διασχίζουν την ηπειρωτική Ελλάδα και φτάνουν στην Αθήνα. Στην πρωτεύουσα βρίσκονται αντιμέτωποι με μια κοινωνία που αρνείται να τους δώσει μια ευκαιρία ισάξια με αυτές των άλλων πολιτών της. Όλοι τους αποκαλούν Αλβανούς. Η προσγείωση είναι απότομη και ανώμαλη. Ο Θωμάς βρίσκει παράλογο θάνατο στο γιαπί μιας πολυκατοικίας και οι άλλοι δύο αποφασίζουν να γυρίσουν άρον-άρον στο χωριό τους στην Αλβανία. Ηθοποιοί: Γεράσιμος Σκιαδαρέσης Βασίλης Ελευθεριάδης Αντώνης Μανώλας Μάνια Παπαδημητρίου Δημήτρης Μαυρόπουλος Ελένη Φίλιππα Έκτωρ Καλούδης Πέτρος Παύλου Θοδωρής Προκοπίου Σοφία Ολυμπίου Λάζαρος Ανδρέου Βασιλεία Καβουκά Βασίλης Καμίτσης Μαρία Κυριάκη Αλέκος Μανδυλάς Ανδρέας Νάτσιος Κώστας Στεφανάκης Μενέλαος Ντάφλος Θοδωρής Πολυζώνης Τάσος Πολυχρονόπουλος Σημειώσεις: Βραβείο Σκηνοθεσίας, Troia Film Festival 1994, βραβείο Καλύτερης Ταινίας 34ο Φεστιβάλ Θεσ/νίκης
  21. ΒΑΡΕΑ ΑΝΘΥΓΙΕΙΝΑ (2003) TVrip [TVrip - Τσαρούχας - easybytez - worldbytez - filefactory] Είδος: Κοινωνική Διάρκεια:95' Χρώμα: Έγχρωμη Ήχος: Stereo Γλώσσα: Ελληνικά Εκτέλεση Παραγωγής:Νίκος Μουστάκας Παραγωγός:Κώστας Λαμπρόπουλος Παραγωγή:CL Productions, Ελληνικό Κέντρο Κινηματογράφου, Συμβουλευτική Επιτροπή Κινηματογράφου Κύπρου (ΣΕΚΙΝ) Σκηνοθέτης:Αντώνης Παπαδόπουλος Σενάριο: Δημήτρης Σπύρου, Αντώνης Παπαδόπουλος, Αλέξανδρος Κακαβάς, Γρηγόρης Παπαδόγιαννης Μουσική: Μάριος Τόκας Yπόθεση: Τον Οκτώβριο του 1944 στην ορεινή Εύβοια ένας αντάρτης, ο Μπαλής, με μια παρακινδυνευμένη ενέργεια, σώζει από το εκτελεστικό απόσπασμα 70 ομήρους. Αποτέλεσμα αυτής της ηρωικής ενέργειας είναι να σωθούν οι όμηροι, αλλά και να τραυματιστεί και να πέσει στη Μεγάλη Χαράδρα ο ίδιος. Θεωρώντας βέβαιο τον θάνατό του και σε ένδειξη ευγνωμοσύνης οι κάτοικοι ανεγείρουν τον ανδριάντα του στην πλατεία του χωριού τους. Τριάντα χρόνια αργότερα ο Μπαλής βρίσκεται τυχαία σ’ αυτό το χωριό και ανακαλύπτει το μνημείο του. Τον περιμένει όμως μια δυσάρεστη έκπληξη, όταν οι θαμώνες του καφενείου του χωριού στο άκουσμα του ονόματός του γίνονται εχθρικοί και οι τοπικές αρχές, αφού τον ξυλοκοπήσουν, τον κλείνουν σε ένα κελί... Ηθοποιοί: Πασχάλης Τσαρούχας Νένα Μεντή Αντώνης Αντωνίου Ρεγγίνα Παντελίδη Νίκος Ζωιόπουλος φιλική συμμετοχή: Γιάννης Ζουγανέλης Δ/ντής Φωτογραφίας: Πολυδεύκης Κυρλίδης Μοντάζ: Τάκης Κουμουνδούρος Σκηνογράφος: Αντώνης Χαλκιάς Ενδυματολόγος: Μάγδα Καλορίτη Ηχος: Σπύρος Δρόσος Βοηθός σκηνοθέτη: Λευτέρης Χαρίτος ΔΙΕΘΝΕΙΣ ΣΥΜΜΕΤΟΧΕΣ & ΔΙΑΚΡΙΣΕΙΣ Φεστιβάλ Κινηματογράφου Θεσσαλονίκης, 2003, συμμετοχή στο διαγωνιστικό τμήμα Διεθνές Φεστιβάλ Κινηματογράφου Μόσχας, 2004, συμμετοχή Greek Flm Festival, Σύδνεϋ, 2006, προβολή Greek Flm Festival, Μελβούρνη, 2006, προβολή
  22. ΝΥΦΕΣ (2004) DVDRip + CD (DVDRip - easybytez - filefactory) Είδος Ταινίας: Κοινωνική, Δραματική Διάρκεια: 123 λεπτά Χρώμα: Έγχρωμο Ήχος: Dolby Digital Γλώσσα: Αγγλικά - Ελληνικά Έτος Παραγωγής: 2004 Παραγωγή: Παντελής Βούλγαρης Παραγωγή: Alco filmsCappa/De Fina film productions KG productionsΕλληνικό Κέντρο ΚινηματογράφουOdeon S.A.Cinegram S.A. CL productionsLexicon factory S.A.Alpha TVFilmnet Σενάριο: Ιωάννα Καρυστιάνη Σκηνοθεσία: Παντελής Βούλγαρης Μουσική: Σταμάτης Σπανουδάκης Ηθοποιοί: Damian Lewis - Βικτώρια Χαραλαμπίδου Δημήτρης Καταλειφός - Andrea Ferreol Steven Berkoff - Εύη Σαουλίδου Απόστολος Τότσικας - Ειρήνη Ιγγλέση Γιώργος Μακρής - Εβελίνα Παπούλια Γιάννης Τότσικας - Λίζα Κουζνέτσοβα Σταύρος Καλάρογλου - Ελένη Ρουσσινου Γιάννης Φακής - Όλγα Δαμάνη Κώστας Σόμμερ - Βαγγελιώ Ανδρεαδάκη Λεωνίδας Μανωλικάκης - Φωτεινή Κοντουδάκη Αλέξανδρος Ποντικάκης - Ραχήλ Λιαποπούλου Γιώργος Μπομπολάκης - Romanna Lobach Γιώργος Σουξές - Έλενα Λήδα Μανιατάκου Δημήτρης Στρατάκης - Μαρίνα Αναγνωστοπούλου Νίκος Ντούπης - Μαρία Παντελάκη Ανδρέας Αρβανίτης - Λήδα Βεΐκου κ.α. Υπόθεση: Καλοκαίρι 1922. Ο φωτογράφος Νόρμαν Χάρρις και η Νίκη ταξιδεύουν στο ίδιο καράβι για την Αμερική. Ο Νόρμαν στην πρώτη θέση, η Νίκη στην τρίτη μαζί με άλλες 700 νύφες. Ολες κουβαλούν τη φωτογραφία ενός άγνωστου γαμπρού και το νυφικό τους στο βαλιτσάκι τους. Ο Νόρμαν συγκινείται βλέποντας τις νύφες της τρίτης θέσης. Η Νίκη είναι αυτή που τον εντυπωσιάζει περισσότερο. Σιγά-σιγά γνωρίζονται και ερωτεύονται. Το υπερωκεάνιο "King Alexander" φτάνει στο λιμάνι της Νέας Υόρκης. Στο κατάστρωμα γράφεται ο επίλογος της σχέσης Νίκης-Νόρμαν. .... Το Soundtrack Της ταινίας: Σπανουδάκης Σταμάτης - Νύφες (2004) Artist: Σταμάτης Σπανουδάκης Album: Νύφες Κυκλοφορία: Stam Studio (2004) Genre: Soundtrack Number Of Tracks: 14 Audio Format: Mp3 : 320 kbps Covers: Full & Booklet
  23. Είδος Ταινίας: Drama Πρεμιέρα: 28 February 2003 (Greece) Σκηνοθέτης: Achero Manas Σενάριο: Achero Manas, Veronica Fernandez (collaborating writer) Ηθοποιοί: Juan Jose Ballesta, Pablo Galan, Alberto Jimenez Υπότιτλοι: Ελληνικοί Ενσωματωμένοι & Σε Ξεχωριστό Αρχείο Γνωστό και ως: El bola Μετάφραση: Άγνωστος Διάρκεια: 89' Καταλληλότητα: -encoder: .:Sexmeup:. Πηγή: 1080p.BluRay.x264-USURY Υπόθεση: Ο Pablo η El Bola ειναι ενα δωδεκαχρονο αγορι που μεγαλωνει σ' ενα βιαιο και αφιλοξενο περιβαλλον. Ο Pablo δεχεται την κακοποιηση απο τον πατερα του, ο οποιος δεν εχει ξεπερασει το θανατο του μεγαλυτερου του γιου που σκοτωθηκε σε αυτοκινητιστικο δυστυχημα. Με τον ερχομο ομως ενος νεου παιδιου στο σχολειο, αλλαζει η ζωη του και μαζι με την οικογενεια του Alfredο, o Pablo μαθαινει την οικογενειακη θαλπωρη που του εχει στερησει η ιδια του η οικογενεια. Extras: Η ταινία κέρδισε 4 βραβεία Goya το 2001: καλύτερης ταινίας, καλύτερου νέου ηθοποιού, καλύτερου νέου σκηνοθέτη και καλύτερου πρωτότυπου σεναρίου, ενώ ήταν υποψήφιο για βραβείο ήχου. Βραβείο αποκάλυψη της χρονιάς στα Ευρωπαϊκά Βραβεία Κινηματογράφου. https://www.imdb.com/title/tt0243794/ ΑΝ ΘΕΛΕΤΕ ΝΑ ΣΤΗΡΙΞΕΤΕ ΤΗΝ ΔΟΥΛΕΙΑ ΜΟΥ ΚΑΝΤΕ ΕΥΚΟΛΑ ΚΑΙ ΓΡΗΓΟΡΑ ΛΟΓΑΡΙΑΣΜΟ ΣΤΟ EASYBYTEZ KAI KATEΒΑΣΤΕ ΣΑΝ PREMIUM AΠO 20HOST!! http://www.easybytez.com/free2771.html
  24. Είδος Ταινίας: Drama Πρεμιέρα: 28 February 2003 (Greece) Σκηνοθέτης: Achero Manas Σενάριο: Achero Manas, Veronica Fernandez (collaborating writer) Ηθοποιοί: Juan Jose Ballesta, Pablo Galan, Alberto Jimenez Υπότιτλοι: Ελληνικοί Ενσωματωμένοι & Σε Ξεχωριστό Αρχείο Γνωστό και ως: El bola Μετάφραση: Άγνωστος Διάρκεια: 89' Καταλληλότητα: -encoder: .:Sexmeup:. Πηγή: 1080p.BluRay.x264-USURY Υπόθεση: Ο Pablo η El Bola ειναι ενα δωδεκαχρονο αγορι που μεγαλωνει σ' ενα βιαιο και αφιλοξενο περιβαλλον. Ο Pablo δεχεται την κακοποιηση απο τον πατερα του, ο οποιος δεν εχει ξεπερασει το θανατο του μεγαλυτερου του γιου που σκοτωθηκε σε αυτοκινητιστικο δυστυχημα. Με τον ερχομο ομως ενος νεου παιδιου στο σχολειο, αλλαζει η ζωη του και μαζι με την οικογενεια του Alfredο, o Pablo μαθαινει την οικογενειακη θαλπωρη που του εχει στερησει η ιδια του η οικογενεια. Extras: Η ταινία κέρδισε 4 βραβεία Goya το 2001: καλύτερης ταινίας, καλύτερου νέου ηθοποιού, καλύτερου νέου σκηνοθέτη και καλύτερου πρωτότυπου σεναρίου, ενώ ήταν υποψήφιο για βραβείο ήχου. Βραβείο αποκάλυψη της χρονιάς στα Ευρωπαϊκά Βραβεία Κινηματογράφου. https://www.imdb.com/title/tt0243794/ ΑΝ ΘΕΛΕΤΕ ΝΑ ΣΤΗΡΙΞΕΤΕ ΤΗΝ ΔΟΥΛΕΙΑ ΜΟΥ ΚΑΝΤΕ ΕΥΚΟΛΑ ΚΑΙ ΓΡΗΓΟΡΑ ΛΟΓΑΡΙΑΣΜΟ ΣΤΟ EASYBYTEZ KAI KATEΒΑΣΤΕ ΣΑΝ PREMIUM AΠO 20HOST!! http://www.easybytez.com/free2771.html
  25. ΓΥΝΑΙΚΑ ΧΩΡΙΣ ΟΝΟΜΑ Β΄ΚΥΚΛΟΣ (2019-2020) ΑΝΤ1 TVRip AVI HD Ο δεύτερος κύκλος της σειράς «Γυναίκα Χωρίς Όνομα», δύο γυναίκες πολεμούν μέχρι τέλους για τη ζωή που τους έκλεψαν: τη ζωή των παιδιών τους. Σε αυτή τη μάχη όμως, δεν υπάρχει βέβαιος νικητής… Θα καταλάβουν ότι η αληθινή εκδίκηση, είναι η συγχώρεση; Η ΙΣΤΟΡΙΑ Η Κάτια (Μαριάννα Τουμασάτου) ψάχνει απεγνωσμένα έναν συμβατό δότη για να σωθεί ο 10χρονος γιος της. Η Μαρίνα (Ντόρα Μακρυγιάννη) είναι η μοναδική συμβατή δότρια αλλά ανακαλύπτει ότι είναι έγκυος και ότι είναι αδύνατον να βοηθήσει την Κάτια η οποία χρησιμοποιεί κάθε μέσο για να την αναγκάσει. Προκειμένου να ξεφύγει και να σώσει το μωρό της, η Μαρίνα προδομένη πλέον από τον έρωτά της, Κωστή (Πάνος Νάτσης) κατασκευάζει την ενοχή της και καταδικάζεται ως «Γυναίκα Χωρίς Όνομα» για ένα φόνο που δεν διέπραξε ποτέ! Γεννά την κόρη της με ασφάλεια στη φυλακή και την ονομάζει Ελπίδα… Η Κάτια, τελικά, θα χάσει το παιδί της και βάζει σκοπό της ζωή της να βρει τη Μαρίνα και να την κάνει να πληρώσει με το ίδιο νόμισμα, να στερηθεί και εκείνη για πάντα το ίδιο της το παιδί. Και το καταφέρνει. Τότε, η Μαρίνα με τη βοήθεια της συγκρατούμενής της, Μάρθας (Ταμίλα Κουλίεβα), θα καταφέρει να βγει από τη φυλακή. Αποφασισμένη να φτάσει μέχρι τέλους μεταμορφώνεται σε μία ισότιμη αντίπαλο. Με άλλο όνομα και εμφάνιση επιστρέφει στη ζωή της Κάτιας και όλων εκείνων που την πλήγωσαν για να τους καταστρέψει. Οι δύο γυναίκες, η Μαρίνα και η Κάτια, θα βρεθούν αντιμέτωπες η μία με την άλλη και το μίσος τους θα τις οδηγήσει στα πιο επικίνδυνα και σκληρά μονοπάτια. Αυτό που δεν γνωρίζουν είναι ότι το αόρατο χέρι της μοίρας που τις έδεσε μαζί, κρύβει μια συγκλονιστική αλήθεια… ΟΙ ΧΑΡΑΚΤΗΡΕΣ Η Κάτια (Μαριάννα Τουμασάτου) Η Μαρίνα (Ντόρα Μακρυγιάννη) Η Έλλη (Αλεξάνδρα Ταβουλάρη) Ο Δημήτρης (Κώστας Καζανάς) Ο Κωστής (Πάνος Νάτσης) Η Μάρθα (Ταμίλα Κουλίεβα) General Complete name :GYNH.S02.EP.01.avi Format : AVI Format/Info : Audio Video Interleave File size : 943 MiB Duration : 48 min 36 s Overall bit rate : 2 713 kb/s Video #0 ID : 0 Format : AVC Format/Info : Advanced Video Codec Format profile : [email protected] Format settings : 1 Ref Frames Format settings, CABAC : No Format settings, ReFrames : 1 frame Codec ID : H264 Duration : 48 min 36 s Bit rate : 2 572 kb/s Width : 640 pixels Height : 360 pixels Display aspect ratio : 16:9 Frame rate : 25.000 FPS Color space : YUV Chroma subsampling : 4:2:0 Bit depth : 8 bits Scan type : Progressive Bits/(Pixel*Frame) : 0.447 Stream size : 894 MiB (95%) Writing library : x264 core 146 r2538 121396c Audio #1 ID : 1 Format : MPEG Audio Format version : Version 1 Format profile : Layer 3 Codec ID : 55 Codec ID/Hint : MP3 Duration : 48 min 36 s Bit rate mode : Constant Bit rate : 128 kb/s Channel(s) : 2 channels Sampling rate : 44.1 kHz Compression mode : Lossy Stream size : 44.5 MiB (5%) Alignment : Aligned on interleaves Interleave, duration : 26 ms (0.65 video frame)
×