Jump to content

Search the Community

Showing results for tags 'κοινωνικό'.



More search options

  • Search By Tags

    Type tags separated by commas.
  • Search By Author

Content Type


Forums

  • ΓΕΝΙΚΑ - GENERAL
    • Γενικές Ανακοινώσεις - General Announcements
    • Κανόνες - Rules
    • Βοηθητικοί Οδηγοί
    • Συζήτηση - Discussion
    • Συστηθείτε - Introduse yourself
    • Γαστρονομικές Οπτασίες - Recipes
    • Το γέλιο είναι μεταδοτικό... Μεταδώστε το!!! - Fun Place
  • ΕΛΛΗΝΙΚΗ ΜΟΥΣΙΚΗ - GREEK MUSIC
    • Νέα CDs 2016-2019
    • Promos
    • Single Remix
    • Ελληνικά Ψηφιακά Cds - Greek Digital Cds
    • Ελληνικά CDs 2010-2015
    • Παλαιότερα Ελληνικά CDs μέχρι το 2009
    • Παραδοσιακά CDs
    • Ρεμπέτικο Στέκι
    • Δισκάκια 45 στροφών και γραμμοφώνου
    • Επανεκδόσεις
    • Συλλογές
    • Box Set Collections
    • Ελληνικά Mix - Remix
    • Παιδικά Ελληνικά CDs
    • Δισκογραφίες
  • ΞΕΝΗ ΜΟΥΣΙΚΗ - INTERNATIONAL MUSIC
    • Νέα CDs 2016-2019
    • Παλαιότερα Ξένα CDs
    • Συλλογές
    • Box Set Collections
    • Ξένα Mix - Remix
    • Παιδικά Ξένα CDs
    • Δισκογραφίες
  • ΜΟΥΣΙΚΗ ΣΕ ΠΟΙΟΤΗΤΑ LOSSLESS
    • Ελληνικά CDs
    • Ξένα CDs
  • ΤΑΙΝΙΕΣ - MOVIES
    • Ελληνικές Ταινίες - Greek Movies
    • Ξένες Ταινίες με ελληνικούς υπότιτλους 2016 - 2019
    • Ξένες Ταινίες με ελληνικούς υπότιτλους 1991 - 2015
    • Παλαιότερες Κλασσικές Ξένες Ταινίες (μέχρι το 1990)
    • Ξένες Ταινίες Micro HD
    • Ξένες Ταινίες HD 720p BRRIP Avi
    • Ξένες Ταινίες BluRay
    • Φιλμογραφίες
    • Παιδικές Ταινίες
    • Ντοκιμαντέρ
  • ΕΠΟΧΙΑΚΑ
    • Χριστούγεννα
    • Πάσχα
    • Αποκριές
    • Αγίου Βαλεντίνου
  • ΤΗΛΕΟΠΤΙΚΟ ΠΡΟΓΡΑΜΜΑ
    • Ελληνικές Σειρές
    • Ξένες Σειρές
    • Τούρκικες Σειρές
    • Τηλεοπτικές Eκπομπές
  • ΠΑΙΧΝΙΔΙΑ - GAMES
    • Pc Games
    • Play Station Games
    • XBOX
    • Mac Games
  • ΕΦΑΡΜΟΓΕΣ - ΠΡΟΓΡΑΜΜΑΤΑ
    • Λειτουργικά Προγράμματα
    • Προγράμματα Προστασίας
    • Εργαλεία Συστήματος
    • Εργαλεία Πολυμέσων
    • Portable Προγράμματα
    • Προγράμματα για Mac
    • Internet Tools
    • Tutorials
  • E-BOOKS
    • Έλληνες Συγγραφείς
    • Ξένοι Συγγραφείς
    • Κόμικς
    • Περιοδικά
    • Audio Books
  • ΑΝΑΖΗΤΗΣΗ
    • Μουσική
    • Ταινίες - Σειρές
    • Παιχνίδια
    • Προγράμματα
    • E-Books
  • V.I.P

Find results in...

Find results that contain...


Date Created

  • Start

    End


Last Updated

  • Start

    End


Filter by number of...

Found 576 results

  1. Είδος Ταινίας: Comedy, Drama Πρεμιέρα: 7 August 1944 (UK) Σκηνοθέτης: David Lean Σενάριο: David Lean (adapted for the screen by), Ronald Neame (adapted for the screen by) Ηθοποιοί: Robert Newton, Celia Johnson, Amy Veness Υπότιτλοι: Ελληνικοί Ενσωματωμένοι & Σε Ξεχωριστό Αρχείο Μετάφραση: zachs75 Διάρκεια: 115' Καταλληλότητα: - encoder: .:Sexmeup:. Πηγή: 1080p.BluRay.x264-SADPANDA Υπόθεση: Η επιστροφή του πατέρα Φρανκ Γκίμπονς από τον Α' Παγκόσμιο Πόλεμο και η άμεση εύρεση εργασίας, έχει ως αποτέλεσμα την μετακόμιση σε καλύτερο σπίτι στο Ανατολικό Λονδίνο. Η γυναίκα του Έθελ είναι ουσιαστικά η κινητήρια δύναμη του σπιτιού, παρότι φαινομενικά πειθήνια και υπάκουη. Μαζί τους στο σπίτι μένουν και η μητέρα του Φρανκ, μια στριμμένη και ισχυρογνώμων γριά και η ξαδέλφη της Έθελ, η θεία Σύλβια που έχασε τον άντρα της στον πόλεμο και είναι κατά φαντασίαν ασθενής.Τα χρόνια περνούν και τα 3 παιδιά τους, η 14χρονη Βάι, η 13χρονη Φίλις και ο 12χρονος Ρετζ μεγαλώνουν, πιάνουν δουλειά, ερωτεύονται. Οι χαρές και οι λύπες έρχονται διαδοχικά στην οικογένεια και αναστατώνουν την ήσυχη και αφελή ζωή της. https://www.imdb.com/title/tt0037367/ ΑΝ ΘΕΛΕΤΕ ΝΑ ΣΤΗΡΙΞΕΤΕ ΤΗΝ ΔΟΥΛΕΙΑ ΜΟΥ ΚΑΝΤΕ ΕΥΚΟΛΑ ΚΑΙ ΓΡΗΓΟΡΑ ΛΟΓΑΡΙΑΣΜΟ ΣΤΟ EASYBYTEZ KAI KATEΒΑΣΤΕ ΣΑΝ PREMIUM AΠO 20 HOST!! http://www.easybytez.com/free2771.html
  2. Είδος Ταινίας: Comedy, Drama Πρεμιέρα: 7 August 1944 (UK) Σκηνοθέτης: David Lean Σενάριο: David Lean (adapted for the screen by), Ronald Neame (adapted for the screen by) Ηθοποιοί: Robert Newton, Celia Johnson, Amy Veness Υπότιτλοι: Ελληνικοί Ενσωματωμένοι & Σε Ξεχωριστό Αρχείο Μετάφραση: zachs75 Διάρκεια: 115' Καταλληλότητα: - encoder: .:Sexmeup:. Πηγή: 1080p.BluRay.x264-SADPANDA Υπόθεση: Η επιστροφή του πατέρα Φρανκ Γκίμπονς από τον Α' Παγκόσμιο Πόλεμο και η άμεση εύρεση εργασίας, έχει ως αποτέλεσμα την μετακόμιση σε καλύτερο σπίτι στο Ανατολικό Λονδίνο. Η γυναίκα του Έθελ είναι ουσιαστικά η κινητήρια δύναμη του σπιτιού, παρότι φαινομενικά πειθήνια και υπάκουη. Μαζί τους στο σπίτι μένουν και η μητέρα του Φρανκ, μια στριμμένη και ισχυρογνώμων γριά και η ξαδέλφη της Έθελ, η θεία Σύλβια που έχασε τον άντρα της στον πόλεμο και είναι κατά φαντασίαν ασθενής.Τα χρόνια περνούν και τα 3 παιδιά τους, η 14χρονη Βάι, η 13χρονη Φίλις και ο 12χρονος Ρετζ μεγαλώνουν, πιάνουν δουλειά, ερωτεύονται. Οι χαρές και οι λύπες έρχονται διαδοχικά στην οικογένεια και αναστατώνουν την ήσυχη και αφελή ζωή της. https://www.imdb.com/title/tt0037367/ ΑΝ ΘΕΛΕΤΕ ΝΑ ΣΤΗΡΙΞΕΤΕ ΤΗΝ ΔΟΥΛΕΙΑ ΜΟΥ ΚΑΝΤΕ ΕΥΚΟΛΑ ΚΑΙ ΓΡΗΓΟΡΑ ΛΟΓΑΡΙΑΣΜΟ ΣΤΟ EASYBYTEZ KAI KATEΒΑΣΤΕ ΣΑΝ PREMIUM AΠO 20 HOST!! http://www.easybytez.com/free2771.html
  3. ΤΟ ΤΑΤΟΥΑΖ (2017 - ) ΗDTv - ΣΥΝΕΧΗΣ ΑΝΑΝΕΩΣΗ Το Τατουάζ είναι μια σειρά γεμάτη έρωτα, απαγορευμένους δεσμούς και εγκλήματα πάθους. Μια ερωτική ιστορία γεννιέται κάτω από αντίξοες συνθήκες. Ένα αστυνομικό θρίλερ με φόντο την Αίγινα και τα Μετέωρα, όπου ένας κατά συρροή δολοφόνος βάζει στο στόχαστρο νεαρές γυναίκες… Η Άννα (Δανάη Παππά) είναι παντρεμένη με τον Τόνυ (Μιχάλης Λεβεντογιάννης) και ζει μόνιμα στο Λονδίνο. Απογοητευμένη από τον γάμο της, αποφασίζει να πάει διακοπές με τη φίλη της, την Νικόλ (Ελεονώρα Αντωνιάδου) στην Ελλάδα, με σκοπό να συναντήσει τον Αλέξανδρο (Στέφανος Μιχαήλ) με τον οποίο έχουν γνωριστεί εδώ και έναν χρόνο, μέσω Facebook. Η συνάντησή τους θα γεννήσει έναν κεραυνοβόλο έρωτα. Η Άννα με την Νικόλ θα περάσουν κάποιες ξέγνοιαστες μέρες στην Αίγινα, μέχρι τη στιγμή που ο Αλέξανδρος θα εξαφανιστεί. Η Άννα, γεμάτη αγωνία, θα απευθυνθεί στους γονείς του, τον Παύλο (Γιώργος Παρτσαλάκης) και την Μάρθα (Ελίνα Ακριτίδου). Και οι τρεις μαζί θα ψάξουν τον Αλέξανδρο στο σπίτι του. Εκεί θα τους περιμένει μια δυσάρεστη έκπληξη… Λίγες μέρες μετά εξαφανίζεται μυστηριωδώς και η Άννα. Το γεγονός αυτό θα αναγκάσει τον Θεοχάρη (Απόστολος Γκλέτσος), πατέρα της Άννας, να έρθει στην Ελλάδα, για να την αναζητήσει. Η νέα σύντροφός του, Βέρα (Εβελίνα Παπούλια) του συμπαραστέκεται αναλαμβάνοντας να φροντίσει την Αμαλία (Μυρτώ Αλικάκη), γυναίκα τού Θεοχάρη και μητέρα της Άννας, η οποία αντιμετωπίζει ένα πολύ σοβαρό θέμα υγείας. Το σενάριο υπογράφει η Βάνα Δημητρίου και τη σκηνοθεσία ο Αντρέας Γεωργίου, ο Στάμος Τσάμης και ο Κώστας Αναγνωστόπουλος. Πρωταγωνιστούν: Στέφανος Μιχαήλ, Δανάη Παππά, Εβελίνα Παπούλια, Μυρτώ Αλικάκη, Ελίνα Ακριτίδου, Χρύσα Παππά, Κατερίνα Γερονικολού, Χριστίνα Χριστόφια, Νίκος Πολυδερόπουλος, Μιχάλης Λεβεντογιάννης, Έλενα Λιασίδου, Ελεονώρα Αντωνιάδου, Έλενα Πιερίδου, Ιάσονας Δαμιανός, Αλέξανδρος Πέρρος, Φανή Καμπιώτη. Στον ρόλο του Παύλου Μελά, ο Γιώργος Παρτσαλάκης Στον ρόλο της Μαργκός Νίβεν, η Κοραλία Καράντη Στον ρόλο του Θεοχάρη Ραζή, ο Απόστολος Γκλέτσος. [video=youtube;eE33JXR4FA0]https://www.youtube.com/watch?v=eE33JXR4FA0[/video] ΤΕΧΝΙΚΑ ΧΑΡΑΚΤΗΡΙΣΤΙΚΑ General Complete name : To.Tatoyaz.S01.E01-E02.576p.HDTV-Ft4U.mkv Format : Matroska Format version : Version 2 File size : 1.91 GiB Duration : 1h 47mn Overall bit rate : 2 557 Kbps Encoded date : UTC 2017-09-18 23:52:53 Writing application : mkvmerge v4.7.0 ('Just Like You Imagined') built on Apr 21 2011 01:13:14 Writing library : libebml v1.2.0 + libmatroska v1.1.0
  4. ΤΟ ΤΑΤΟΥΑΖ Β΄ΚΥΚΛΟΣ (ALPHA tv 2018-2019) TVRip HD ΥΠΟΘΕΣΗ Το Τατουάζ, η επιτυχημένη σειρά του Alpha, επιστρέφει. Στον β’ κύκλο της σειράς ο έρωτας, ο κίνδυνος, η εκδίκηση, το πάθος διαρκούν περισσότερο. Ο β’ κύκλος της σειράς ξεκινά δυναμικά. Η τράπουλα ανακατεύεται από την αρχή. Ένας φόνος. Ένας ονειρικός γάμος. Ένας μυστηριώδης άντρας με άγνωστο κίνητρο. Μια αποκάλυψη από το παρελθόν που «καίει» πολλούς. Ένα σατανικό σχέδιο που θα μπερδέψει την αστυνομία. Ένα νέο μεγάλο ειδύλλιο. Μια νέα παράνομη σχέση. Τα γυρίσματα της σειράς θα μας ταξιδέψουν φέτος στην Αίγινα, στο Λονδίνο, στα Μετέωρα και στο Παρίσι. Το σενάριο υπογράφει η Βάνα Δημητρίου και τη σκηνοθεσία ο Αντρέας Γεωργίου, ο Στάμος Τσάμης και ο Κώστας Αναγνωστόπουλος. Πρωταγωνιστούν: Στέφανος Μιχαήλ, Δανάη Παππά, Εβελίνα Παπούλια, Μυρτώ Αλικάκη, Ελίνα Ακριτίδου, Χρύσα Παππά, Κατερίνα Γερονικολού, Χριστίνα Χριστόφια, Νίκος Πολυδερόπουλος, Μιχάλης Λεβεντογιάννης, Έλενα Λιασίδου, Ελεονώρα Αντωνιάδου, Έλενα Πιερίδου, Ιάσονας Δαμιανός, Αλέξανδρος Πέρρος, Φανή Καμπιώτη. Στον ρόλο του Παύλου Μελά, ο Γιώργος Παρτσαλάκης Στον ρόλο της Μαργκός Νίβεν, η Κοραλία Καράντη Στον ρόλο του Θεοχάρη Ραζή, ο Απόστολος Γκλέτσος. General Complete name : F:\ΤΑΤΟΥΑΖ Β ΚΥΚΛΟΣ\TATOYAZ.S02.EP.01.avi Format : AVI Format/Info : Audio Video Interleave File size : 901 MiB Duration : 47 min 6 s Overall bit rate : 2 675 kb/s Video ID : 0 Format : AVC Format/Info : Advanced Video Codec Format profile : [email protected] Format settings : 1 Ref Frames Format settings, CABAC : No Format settings, ReFrames : 1 frame Codec ID : H264 Duration : 47 min 6 s Bit rate : 2 533 kb/s Width : 1 280 pixels Height : 720 pixels Display aspect ratio : 16:9 Frame rate : 25.000 FPS Color space : YUV Chroma subsampling : 4:2:0 Bit depth : 8 bits Scan type : Progressive Bits/(Pixel*Frame) : 0.110 Stream size : 853 MiB (95%) Writing library : x264 core 152 r2854 e9a5903 Audio ID : 1 Format : MPEG Audio Format version : Version 1 Format profile : Layer 3 Codec ID : 55 Codec ID/Hint : MP3 Duration : 47 min 6 s Bit rate mode : Constant Bit rate : 128 kb/s Channel(s) : 2 channels Sampling rate : 48.0 kHz Compression mode : Lossy Stream size : 43.1 MiB (5%) Alignment : Aligned on interleaves Interleave, duration : 24 ms (0.60 video frame) Βοηθήστε εντελώς ανέξοδα τους uploaders, ανανεώνοντας τακτικά την ip σας, με 1 απλή επανεκκίνηση του router.
  5. THE AFTERMATH (2019) WEB-DL XviD AC3-FGT | ENΣΩΜΑΤΩΜΕΝΟΙ ΥΠΟΤΙΤΛΟΙ ΣΚΗΝΟΘΕΣΙΑ : James Kent ΣΕΝΑΡΙΟ : Joe Shrapnel, Anna Waterhouse ΗΘΟΠΟΙΟΙ : Keira Knightley, Ned Wills, Pandora Colin ΕΙΔΟΣ : Drama, Romance, War ΠΡΕΜΙΕΡΑ : 1 March 2019 (UK) ΜΕΤΑΦΡΑΣΗ : AvereL IMDB: https://www.imdb.com/title/tt5977276/ H Rachel και ο Lewis Morgan μετακομίζουν το 1946 από την Αγγλία στο Αμβούργο, το οποίο ανοικοδομείται μετά από την ισοπέδωση μεγάλου μέρους της πόλης κατά τη διάρκεια του Β΄ Παγκοσμίου Πολέμου. Εκεί θα φιλοξενηθούν στο σπίτι του Stefan Lubert που έχασε τη γυναίκα του κατά τη διάρκεια των βομβαρδισμών. Η Rachel με τον Stefan θα έρθουν πολύ κοντά, όμως στην επιφάνεια θα βγουν σύντομα οι ιδεολογικές τους διαφορές.
  6. ΓΑΛΑΤΕΙΑ Γ΄ΚΥΚΛΟΣ (2018-2019) ΣΙΓΜΑ ΚΥΠΡΟΥ WEBRip AVI ΞΕΚΙΝΑ Ο Γ΄ΚΥΚΛΟΣ Ο έρωτας κατάφερε να βγει νικητής απέναντι στην πραγματικότητα της ζωής ή απλά συμβιβάστηκε με τον πιο αδυσώπητο αντίπαλο: τον χρόνο; Η ζωή συνεχίζεται και ο χρόνος, λένε, γιατρεύει τις πληγές. Είναι όμως αυτό αλήθεια; Οι άνθρωποι μαθαίνουν να προσαρμόζονται στα νέα δεδομένα καθώς οι εποχές προχωρούν, ακόμα και αν τα όνειρα έχουν μείνει απραγματοποίητα. Όμως η ψυχή δεν ξεχνάει και περιμένει την κατάλληλη στιγμή για να διεκδικήσει όλα όσα της στέρησε η ζωή. Άραγε τα καταπιεσμένα πάθη θα βρουν την ευκαιρία να βγουν στην επιφάνεια; Άραγε πόσο δυνατοί είναι οι ήρωες της «Γαλάτειας» για τις νέες μάχες που τους επιφυλάσσει η μοίρα; Άραγε θα πάρει ο κάθε ένας αυτό που του αξίζει; Δικαίωση… Τιμωρία… Αναγνώριση… Κατανόηση… Νίκη… Ήττα… Και ενώ ο κόσμος γύρω τους καταρρέει και ο πόλεμος πλησιάζει αμείλικτος, θα αποδειχθεί τελικά η αγάπη πιο δυνατή; ΗΘΟΠΟΙΟΙ: Κρίστοφερ Γκρέκο – Καράγιωρκης Άλκηστης Παυλίδου – Φλουρεντζού Δέσποινα Μπεμπεδέλη – Μαριγώ Ειρήνη Κωνσταντίνου – Πολύμνια Κώστας Δημητρίου – Αντζουλής Ανδρέας Μελέκκης – Μιχαηλάς (μουχτάρης) Ανδρέας Αργυρίδης – Χαμπής Νεοκλής Νεοκλέους – Κυριάκος Χριστιάνα Λάρκου – Ανδρονίκη Βαρβάρα Χριστοφή – Γαλάτεια Χρήστος Τουμάζου – Πετρής Ιάκωβος Χατζηβασίλη – Στεφανής Μάρα Κωνσταντίνου – Μαργαρίτα Ελευθερία Ανδρέου – Φανούλλα Πάολα Χατζηλαμπρή – Ερατώ Βασίλης Μιχαήλ- Πολυδεύκης Μιχάλης Τερλικκάς – Ποιητάρης Βαλεντίνα Σοφοκλέους – Βασιλού Χριστιάνα Θεοδώρου – Αννέτα ΣΕΝΑΡΙΟ: Γιώργος Σοφοκλέους και Ελένη Καούλα ΓΕΝΙΚΗ ΕΠΙΜΕΛΕΙΑ: Κύρος Ρωσσίδης ΣΚΗΝΟΘΕΣΙΑ: Κώστας Κωστόπουλος και Πάρις Προκοπίου General Complete name : GALATEIA.S03.EP.01.avi Format : AVI Format/Info : Audio Video Interleave File size : 1.01 GiB Duration : 1 h 1 min Overall bit rate : 2 337 kb/s Video ID : 0 Format : AVC Format/Info : Advanced Video Codec Format profile : [email protected] Format settings : 1 Ref Frames Format settings, CABAC : No Format settings, ReFrames : 1 frame Codec ID : H264 Duration : 1 h 1 min Bit rate : 2 196 kb/s Width : 1 280 pixels Height : 720 pixels Display aspect ratio : 16:9 Frame rate : 25.000 FPS Color space : YUV Chroma subsampling : 4:2:0 Bit depth : 8 bits Scan type : Progressive Bits/(Pixel*Frame) : 0.095 Stream size : 970 MiB (94%) Writing library : x264 core 152 r2854 e9a5903 Audio ID : 1 Format : MPEG Audio Format version : Version 1 Format profile : Layer 3 Codec ID : 55 Codec ID/Hint : MP3 Duration : 1 h 1 min Bit rate mode : Constant Bit rate : 128 kb/s Channel(s) : 1 channel Sampling rate : 44.1 kHz Compression mode : Lossy Stream size : 56.5 MiB (5%) Alignment : Aligned on interleaves Interleave, duration : 26 ms (0.65 video frame)
  7. ΓΥΝΑΙΚΑ ΧΩΡΙΣ ΟΝΟΜΑ (2018-2019) ΑΝΤ1 TVRip AVI HD Στη νέα δραματική καθημερινή σειρά του ΑΝΤ1, «Γυναίκα Χωρίς Όνομα», δύο γυναίκες πολεμούν μέχρι τέλους για τη ζωή που τους έκλεψαν: τη ζωή των παιδιών τους. Σε αυτή τη μάχη όμως, δεν υπάρχει βέβαιος νικητής… Θα καταλάβουν ότι η αληθινή εκδίκηση, είναι η συγχώρεση; Η ΙΣΤΟΡΙΑ Η Κάτια (Μαριάννα Τουμασάτου) ψάχνει απεγνωσμένα έναν συμβατό δότη για να σωθεί ο 10χρονος γιος της. Η Μαρίνα (Ντόρα Μακρυγιάννη) είναι η μοναδική συμβατή δότρια αλλά ανακαλύπτει ότι είναι έγκυος και ότι είναι αδύνατον να βοηθήσει την Κάτια η οποία χρησιμοποιεί κάθε μέσο για να την αναγκάσει. Προκειμένου να ξεφύγει και να σώσει το μωρό της, η Μαρίνα προδομένη πλέον από τον έρωτά της, Κωστή (Πάνος Νάτσης) κατασκευάζει την ενοχή της και καταδικάζεται ως «Γυναίκα Χωρίς Όνομα» για ένα φόνο που δεν διέπραξε ποτέ! Γεννά την κόρη της με ασφάλεια στη φυλακή και την ονομάζει Ελπίδα… Η Κάτια, τελικά, θα χάσει το παιδί της και βάζει σκοπό της ζωή της να βρει τη Μαρίνα και να την κάνει να πληρώσει με το ίδιο νόμισμα, να στερηθεί και εκείνη για πάντα το ίδιο της το παιδί. Και το καταφέρνει. Τότε, η Μαρίνα με τη βοήθεια της συγκρατούμενής της, Μάρθας (Ταμίλα Κουλίεβα), θα καταφέρει να βγει από τη φυλακή. Αποφασισμένη να φτάσει μέχρι τέλους μεταμορφώνεται σε μία ισότιμη αντίπαλο. Με άλλο όνομα και εμφάνιση επιστρέφει στη ζωή της Κάτιας και όλων εκείνων που την πλήγωσαν για να τους καταστρέψει. Οι δύο γυναίκες, η Μαρίνα και η Κάτια, θα βρεθούν αντιμέτωπες η μία με την άλλη και το μίσος τους θα τις οδηγήσει στα πιο επικίνδυνα και σκληρά μονοπάτια. Αυτό που δεν γνωρίζουν είναι ότι το αόρατο χέρι της μοίρας που τις έδεσε μαζί, κρύβει μια συγκλονιστική αλήθεια… ΟΙ ΧΑΡΑΚΤΗΡΕΣ Η Κάτια (Μαριάννα Τουμασάτου) Η Μαρίνα (Ντόρα Μακρυγιάννη) Η Έλλη (Αλεξάνδρα Ταβουλάρη) Ο Δημήτρης (Κώστας Καζανάς) Ο Κωστής (Πάνος Νάτσης) Η Μάρθα (Ταμίλα Κουλίεβα) General Complete name : ΓΥΝΑΙΚΑ ΧΩΡΙΣ ΟΝΟΜΑ\GYNH.EP.01.avi Format : AVI Format/Info : Audio Video Interleave File size : 1.08 GiB Duration : 45 min 2 s Overall bit rate : 3 437 kb/s Video ID : 0 Format : AVC Format/Info : Advanced Video Codec Format profile : [email protected] Format settings : 1 Ref Frames Format settings, CABAC : No Format settings, ReFrames : 1 frame Codec ID : H264 Duration : 45 min 2 s Bit rate : 3 295 kb/s Width : 1 920 pixels Height : 1 080 pixels Display aspect ratio : 16:9 Frame rate : 25.000 FPS Color space : YUV Chroma subsampling : 4:2:0 Bit depth : 8 bits Scan type : Progressive Bits/(Pixel*Frame) : 0.064 Stream size : 1.04 GiB (96%) Writing library : x264 core 152 r2854 e9a5903 Audio ID : 1 Format : MPEG Audio Format version : Version 1 Format profile : Layer 3 Codec ID : 55 Codec ID/Hint : MP3 Duration : 45 min 1 s Bit rate mode : Constant Bit rate : 128 kb/s Channel(s) : 2 channels Sampling rate : 48.0 kHz Compression mode : Lossy Stream size : 41.2 MiB (4%) Alignment : Aligned on interleaves Interleave, duration : 24 ms (0.60 video frame)
  8. Είδος Ταινίας: Drama, Romance, War Πρεμιέρα: 10 May 2019 (UK) Σκηνοθέτης: Amma Asante Σενάριο: Amma Asante Ηθοποιοί: Abbie Cornish, Amandla Stenberg, Christopher Eccleston Υπότιτλοι: Ελληνικοί Ενσωματωμένοι & Σε Ξεχωριστό Αρχείο Μετάφραση: WhiteAngel - Angel Διάρκεια: 122' Καταλληλότητα: - encoder: .:Sexmeup:. Πηγή: 1080p.AMZN.WEB-DL.DDP5.1.H264-CMRG Υπόθεση: Το εν λόγω ατμοσφαιρικό φιλμ μας μεταφέρει στην Ναζιστική Γερμανία του 1944, όπου στρατιώτες του Χίτλερ εισβάλλουν στο σπίτι μίας δεκαπεντάχρονης εν ονόματι 'Lenya'(Stenberg). Η μητέρα (Abbie Cornish) της αψηφά τον κίνδυνο και την κρύβει μέσα σε μία καταπακτή που έχει το ξύλινο πάτωμα. Αποφασίζουν λοιπόν, να μετακομίσουν στο Βερολίνο, όπου η κοπέλα και η οικογένειά της μαθαίνουν από πρώτο χέρι την σκληρή πραγματικότητα που επιβάλλει ο Άξονας και την προκατάληψη η οποία αυξάνεται απέναντί της εξαιτίας της μελαμψής απόχρωσης της επιδερμίδας της που την κληρονόμησε από τον Αφρικανικής καταγωγής πατέρα της. Ωστόσο, η γνωριμία της με τον 'Lutz' (George MacKay), έναν Γερμανό στρατιώτη από το κόμμα της νεολαίας του Χίτλερ θα εξελιχθεί με έναν εντελώς αναπάντεχο τρόπο μιας και οι δυο τους θα έρθουν πιο κοντά σε μία απίστευτα κρίσιμη περίοδο όπου το μέλλον της Ευρώπης είναι εξαιρετικά επισφαλές και όπου όλοι πρέπει κάτι να θυσιάσουν. https://www.imdb.com/title/tt1235187/ ΑΝ ΘΕΛΕΤΕ ΝΑ ΣΤΗΡΙΞΕΤΕ ΤΗΝ ΔΟΥΛΕΙΑ ΜΟΥ ΚΑΝΤΕ ΕΥΚΟΛΑ ΚΑΙ ΓΡΗΓΟΡΑ ΛΟΓΑΡΙΑΣΜΟ ΣΤΟ EASYBYTEZ KAI KATEΒΑΣΤΕ ΣΑΝ PREMIUM AΠO 20 HOST!! http://www.easybytez.com/free2771.html
  9. Η ΕΠΙΣΤΡΟΦΗ (2018-2019) ΑΝΤ1 TVRip AVI HD Στη νέα κοινωνική σειρά μυστηρίου του ΑΝΤ1, «Η Επιστροφή» κανείς δεν είναι αυτό που δείχνει και τίποτε δεν είναι όπως φαίνεται… Η ΙΣΤΟΡΙΑ Πριν από 20 χρόνια μια οικογένεια έζησε το χειρότερο εφιάλτη κάθε γονιού. Ο Μάνος, ο 4χρονος γιος του Ορέστη (Αντώνης Καρυστινός) και της Έλενας (Άννα-Μαρία Παπαχαραλάμπους), εξαφανίζεται κάτω από αδιευκρίνιστες συνθήκες, κατά τη διάρκεια μιας εκδρομής. Παρά τις απεγνωσμένες προσπάθειες της οικογένειας και της τοπικής κοινωνίας το αγοράκι αγνοείται. Στα βασανιστικά χρόνια που ακολουθούν η Έλενα είναι η μόνη η οποία ελπίζει ότι ο γιος της θα βρεθεί και είναι ζωντανός. Κανείς άλλος στην οικογένεια δεν ελπίζει μαζί της. Η ίδια κλείνεται στον εαυτό της και παραμελεί τον άνδρα και τα παιδιά της που μεγαλώνουν με μοναδικό στήριγμα τον πατέρα τους, Ορέστη, που προσπαθεί να κρατήσει την οικογένεια ενωμένη. Ξαφνικά, είκοσι χρόνια μετά, ένας νεαρός άντρας εμφανίζεται και ισχυρίζεται ότι είναι ο Μάνος, το παιδί που όλα αυτά τα χρόνια αναζητούσαν. Όλοι θα τον αμφισβητήσουν, όλοι εκτός από την μητέρα του, την Έλενα, η οποία είναι σίγουρη ότι οι προσευχές της εισακούστηκαν. Η επιστροφή του Μάνου διχάζει την οικογένεια και ανοίγει τον ασκό του Αιόλου. Αναπάντητα ερωτήματα, «σκοτεινά» μυστικά που βγαίνουν στο φως, ένας έρωτας εξορισμού καταδικασμένος και μια χιονοστιβάδα αποκαλύψεων απειλεί να τους πνίξει όλους. Είναι άραγε εκείνος; Τι πραγματικά συνέβη πριν από είκοσι χρόνια; Πού ήταν ο Μάνος; Ανατροπές που κόβουν την ανάσα και καταιγιστικές εξελίξεις στη νέα κοινωνική σειρά μυστηρίου «Η Επιστροφή». ΟΙ ΧΑΡΑΚΤΗΡΕΣ Έλενα Δελή (η μητέρα του Μάνου). Άννα-Μαρία Παπαχαραλάμπους Ορέστης Κορωναίος (ο πατέρας του Μάνου). Αντώνης Καρυστινός Μάνος Κορωναίος. (Βασίλης Μίχας) Δανάη Κορωναίου (η αδερφή του Μάνου). Ευγενία Ξυγκόρου Νικήτας Δελής (ο παππούς του Μάνου, πατέρας της Έλενας). Πέτρος Λειβαδάς (ντετέκτιβ). Αλέξανδρος Σταύρου General Complete name : Η ΕΠΙΣΤΡΟΦΗ\EPISTROFH.01.avi Format : AVI Format/Info : Audio Video Interleave File size : 1.04 GiB Duration : 43 min 50 s Overall bit rate : 3 387 kb/s Video ID : 0 Format : AVC Format/Info : Advanced Video Codec Format profile : [email protected] Format settings : 1 Ref Frames Format settings, CABAC : No Format settings, ReFrames : 1 frame Codec ID : H264 Duration : 43 min 50 s Bit rate : 3 245 kb/s Width : 1 920 pixels Height : 1 080 pixels Display aspect ratio : 16:9 Frame rate : 25.000 FPS Color space : YUV Chroma subsampling : 4:2:0 Bit depth : 8 bits Scan type : Progressive Bits/(Pixel*Frame) : 0.063 Stream size : 1 017 MiB (96%) Writing library : x264 core 152 r2854 e9a5903 Audio ID : 1 Format : MPEG Audio Format version : Version 1 Format profile : Layer 3 Codec ID : 55 Codec ID/Hint : MP3 Duration : 43 min 49 s Bit rate mode : Constant Bit rate : 128 kb/s Channel(s) : 2 channels Sampling rate : 48.0 kHz Compression mode : Lossy Stream size : 40.1 MiB (4%) Alignment : Aligned on interleaves Interleave, duration : 24 ms (0.60 video frame)
  10. Directed : Jean-Jacques Annaud Written : Umberto Eco Cinematography : Tonino Delli Colli Music : James Horner Cast:Sean Connery,Christian Slater,Helmut Qualtinger,Elya Baskin, Michael Lonsdale,Volker Prechtel,Valentina Vargas,Ron Perlman Η ιστορία διαδραματίζεται κατά τη διάρκεια του Μεσαίωνα και πιο συγκεκριμένα το 1327 σε ένα ιταλικό μοναστήρι βενεδικτίνων μοναχών στη διάρκεια επτά ημερών. Ο φραγκισκανός μοναχός William of Baskerville (Connery) καταφθάνει στο μοναστήρι με τον μαθητευόμενο του Adso of Melk (Slater) για ένα θεολογικό συνέδριο. Η κοινωνία του μοναστηριού συνταράσσεται από το θάνατο ενός νεαρού μοναχού, του Adelmo of Otranto και αρκετοί μοναχοί θεωρούν ότι ο θάνατος ήταν έργο του διαβόλου. Ο William παίρνει την άδεια του ηγούμενου, για να ερευνήσει τις συνθήκες κάτω από τις οποίες πέθανε ο μοναχός. Από την ερευνά του στη βιβλιοθήκη του μοναστηριού, ο William αντιλαμβάνεται ότι ο Adelmo δολοφονήθηκε και η δολοφονία του συνδέεται με το μοναδικό αντίγραφο του δεύτερου βιβλίου της Ποιητικής του Αριστοτέλη. Κατά τη διάρκεια των ερευνών, θα συμβούν κι άλλοι παράξενοι θάνατοι και όλοι, όπως θα ανακαλύψουν οι ήρωές μας, συνδέονται με το παραπάνω βιβλίο. http://www.imdb.com/title/tt0091605/?ref_=fn_tt_tt_1 Υπότιτλοι Μετάφραση : Blaise & Aquila
  11. ROCK MY HEART / MEIN WILDES HERZ (2017) GERMAN 2017 AC3 BDRip x264-UNiVERSUM | ENΣΩΜΑΤΩΜΕΝΟΙ ΥΠΟΤΙΤΛΟΙ ΣΚΗΝΟΘΕΣΙΑ : Hanno Olderdissen ΣΕΝΑΡΙΟ : Clemente Fernandez-Gil (screenplay), Hanno Olderdissen ΗΘΟΠΟΙΟΙ : Lena Klenke, Emilio Sakraya, Milan Peschel ΕΙΔΟΣ : Drama ΠΡΕΜΙΕΡΑ : 28 September 2017 (Germany) ΜΕΤΑΦΡΑΣΗ : Άννα Πουλίζου IMDB: https://www.imdb.com/title/tt5870322/ Μια ανήσυχη έφηβη με καρδιακά προβλήματα έρχεται κοντά με ένα απείθαρχο άλογο και εκπαιδεύεται για να αγωνιστεί ερασιτεχνικά ως αναβάτρια σε έναν επικίνδυνο αγώνα...
  12. FIVE FEET APART (2019) BRRip XviD AC3-XVID | ENΣΩΜΑΤΩΜΕΝΟΙ ΥΠΟΤΙΤΛΟΙ ΣΚΗΝΟΘΕΣΙΑ : Justin Baldoni ΣΕΝΑΡΙΟ : Mikki Daughtry, Tobias Iaconis ΗΘΟΠΟΙΟΙ : Haley Lu Richardson, Cole Sprouse, Moises Arias ΕΙΔΟΣ : Drama, Romance ΠΡΕΜΙΕΡΑ : 15 March 2019 (USA) ΜΕΤΑΦΡΑΣΗ : Christianaemi IMDB: https://www.imdb.com/title/tt6472976/ Η ιστορία μας, αφορά τους έφηβους Stella Grant (Haley Lu Richardson) και Will Newman (Cole Sprouse) που πάσχουν και οι δύο από κυστική ίνωση. Μία κληρονομική πάθηση που προσβάλει το αναπνευστικό σύστημα και καταστρέφει τους πνεύμονες, αναγκάζοντας τους ασθενείς να ζουν με υποστήριξη οξυγόνου. Η Stella είναι blogger, ζει μόνιμα στο νοσοκομείο και ελπίζει σε μία μεταμόσχευση πνεύμονα. Είναι τυπική με τις θεραπείες, γυμνάζεται και συνεχίζει να προσπαθεί για καλύτερες μέρες. Ο Will, όχι και τόσο.. Απογοητευμένος από την τροπή της ζωής του, έχοντας συμφιλιωθεί με την ιδέα του θανάτου επαναστατεί και σταματάει τις θεραπείες. Και κάπου εδώ ξεκινάνε όλα. Οι δύο νέοι βρίσκουν στήριγμα ο ένας στον άλλον, όχι όμως κυριολεκτικά. Απαράβατος κανόνας ανάμεσα τους είναι η απόσταση. Και συγκεκριμένα five feet apart, δηλαδή σχεδόν ενάμιση μέτρο...
  13. THE MUSTANG (2019) BRRip XviD AC3-XVID | ENΣΩΜΑΤΩΜΕΝΟΙ ΥΠΟΤΙΤΛΟΙ ΣΚΗΝΟΘΕΣΙΑ : Laure de Clermont-Tonnerre ΣΕΝΑΡΙΟ : Brock Norman Brock, Laure de Clermont-Tonnerre ΗΘΟΠΟΙΟΙ : Matthias Schoenaerts, Jason Mitchell, Bruce Dern ΕΙΔΟΣ : Drama ΠΡΕΜΙΕΡΑ : 19 June 2019 (France) ΜΕΤΑΦΡΑΣΗ : Calamity Jane IMDB: https://www.imdb.com/title/tt5952594/ O Ρόμπερτ Ρέντφορντ είναι ο παραγωγός της ταινίας "The Mustang" που έκανε πρεμιέρα στο Κινηματογραφικό Φεστιβάλ του Σαντανς, στη Γιούτα των ΗΠΑ. Η ταινία πραγματεύεται την αληθινή ιστορία του Ρομαν Κόουλμαν, ενός εγκληματία που του δίνεται η ευκαιρία να συμμετάσχει σε ένα πρόγραμμα αναμόρφωσης στο πλαίσιο του οποίου οφείλει να εξημερώσει άγρια αμερικάνικα άλογα. Πρόκειται για πραγματικό ομοσπονδιακό πρόγραμμα με άλογα που πραγματοποιείται σε πολιτειακό επίπεδο, στην διάρκεια του οποίου οι κρατούμενοι εργάζονται μαζί με τους ανθρώπους του προγράμματος για να εξημερώσουν τα άλογα, τα οποία στην συνέχεια πωλούνται σε πολιτειακές υπηρεσίες.
  14. Είδος Ταινίας: Drama Πρεμιέρα: 27 September 2018 (Germany) Σκηνοθέτης: Eva Trobisch Σενάριο: Eva Trobisch Ηθοποιοί: Aenne Schwarz, Andreas Dohler, Hans Low Υπότιτλοι: Ελληνικοί Ενσωματωμένοι & Σε Ξεχωριστό Αρχείο Ελληνικός Τίτλος: Όλα Καλά Γνωστό και ως: Alles ist gut Μετάφραση: Γιώργος Μακράκης Διάρκεια: 93' Καταλληλότητα: - encoder: .:Sexmeup:. Πηγή: 1080p.NF.WEB-DL.x264-OWNRiP Υπόθεση: Μια γυναίκα που κακοποιείται σεξουαλικά από τον κουνιάδο του νέου της αφεντικού προσπαθεί να ξεπεράσει το γεγονός, αλλά το τραύμα της βαραίνει σώμα και μυαλό. https://www.imdb.com/title/tt7776430/ ΑΝ ΘΕΛΕΤΕ ΝΑ ΣΤΗΡΙΞΕΤΕ ΤΗΝ ΔΟΥΛΕΙΑ ΜΟΥ ΚΑΝΤΕ ΕΥΚΟΛΑ ΚΑΙ ΓΡΗΓΟΡΑ ΛΟΓΑΡΙΑΣΜΟ ΣΤΟ EASYBYTEZ KAI KATEΒΑΣΤΕ ΣΑΝ PREMIUM AΠO 20 HOST!! http://www.easybytez.com/free2771.html
  15. Είδος Ταινίας: Drama Πρεμιέρα: 19 June 2019 (France) Σκηνοθέτης: Laure de Clermont-Tonnerre Σενάριο: Brock Norman Brock, Laure de Clermont-Tonnerre Ηθοποιοί: Matthias Schoenaerts, Jason Mitchell, Bruce Dern Υπότιτλοι: Ελληνικοί Ενσωματωμένοι & Σε Ξεχωριστό Αρχείο Μετάφραση: Calamity Jane Διάρκεια: 96' Καταλληλότητα: - encoder: .:Sexmeup:. Πηγή: 1080p.BluRay.x264-ROVERS Υπόθεση: Η ιστορία του Roman Coleman, ενός βίαιου κατάδικου, ο οποίος έχει την ευκαιρία να συμμετάσχει σε πρόγραμμα θεραπείας αποκατάστασης που περιλαμβάνει την εκπαίδευση άγριων μουστάρδων. https://www.imdb.com/title/tt5952594/ ΑΝ ΘΕΛΕΤΕ ΝΑ ΣΤΗΡΙΞΕΤΕ ΤΗΝ ΔΟΥΛΕΙΑ ΜΟΥ ΚΑΝΤΕ ΕΥΚΟΛΑ ΚΑΙ ΓΡΗΓΟΡΑ ΛΟΓΑΡΙΑΣΜΟ ΣΤΟ EASYBYTEZ KAI KATEΒΑΣΤΕ ΣΑΝ PREMIUM AΠO 20 HOST!! http://www.easybytez.com/free2771.html
  16. Έτος Παραγωγής:1965 Διάρκεια: 122' λεπτά Χρώμα:Έγχρωμο Γλώσσα:Αγγλική Σκηνοθεσία: Φράνκλιν Τζέι Σάφνερ Σενάριο:Λέσλι Στίβενς Μουσική:Τζερόμ Μορος,Χανς Τζ. Σάλτερ Ηθοποιοί: Τσάρλτον Ίστον Ρίτσαρντ Μπουν Ροσμαρι Φορσάιθ Μορίς Έβανς Γκάι Στόκγουελ Ναελ ΜακΓκίνης Τζον Αλτερσον Τζόνι Τζένσεν Τζέιμς Φαρεντίνο Σάμι Ρος Μάικλ Κόνραντ Βρισκόμαστε στον 11ο αιώνα μ.Χ. Ο Δούκας της Γάνδης στέλνει τον ιππότη Κρίσαγκον με το στράτευμά του σε μια παράκτια περιοχή της Νορμανδίας, η οποία μαστίζεται από τις ληστρικές επιδρομές των Φρίσιων. Φτάνοντας εκεί, καταφέρνει να αποκρούσει μια επιδρομή τους, κερδίζει την συμπάθεια των χωρικών, και αιχμαλωτίζεται ένα μικρό αγόρι, δίχως οι Νορμανδοί να γνωρίζουν ότι πρόκειται για το γιο του ηγέτη των Φρίσιων.Στη συνέχεια, θα γνωρίσει μια νέα κοπέλα και θα την ερωτευθεί. http://www.imdb.com/title/tt0059896/
  17. Συντελεστές Πρωταγωνιστούν: Χριστόφορος Παπακαλιάτης(Πέτρος), Νένα Μεντή(Μαργαρίτα), Νίκος Κουρής('Αλκης), Οδυσσέας Παπασπηλιόπουλος (Βασίλης), Δανάη Σκιάδη(Ζωή), Κατερίνα Διδασκάλου(Αλεξάνδρα), Πάνος Μουζουράκης('Αρης), Αλέξανδρος Μυλωνάς(Γιώργος), 'Αννα Μονογιού(Τόνια- Μυρτώ), 'Εμιλυ Κολιανδρή(Ελένη), Μένη Κωνσταντινίδου(Ρέα), Γιώργος Ζιόβας(Θόδωρος) και η Ζέτα Μακρυπούλια(Βίκυ). Σενάριο: Χριστόφορος Παπακαλιάτης Σκηνοθεσία: Γιώργος Γκικαπέπας - Χριστόφορος Παπακαλιάτης Εκτέλεση Παραγωγής: ON Productions Executive Producer: Φρόσω Ράλλη 'Αλκης-Πέτρος-Βασίλης-'Αρης... 4 άντρες. 4 αδέλφια ή αλλιώς 4 εποχές, όπως έλεγε η μητέρα τους όταν ήταν παιδιά. 4 διαφορετικοί τύποι αντρών με διαφορετικές ζωές, διαφορετικές γυναίκες και καριέρες, διαφορετικά θέλω και πρέπει. Αυτό που τους ενώνει και παράλληλα τους χωρίζει είναι η οικογένειά τους. Μία οικογένεια φαινομενικά άψογη. 'Ολα θα ανατραπούν και η άψογη οικογένεια θα αναγκαστεί να έρθει αντιμέτωπη με την αληθινή ζωή. Αλήθειες που δεν παραδεχόμαστε, λάθη που κουβαλάμε, σκέψεις που κάνουμε, σχέσεις που χρειαζόμαστε και έρωτες που ονειρευόμαστε να ζήσουμε. Τι γίνεται όταν ανακαλύπτουμε πως τελικά στη ζωή μας θέλουμε άλλα από αυτά που νομίζαμε; Είναι αργά για αλλαγή πλεύσης; Αρκεί ένα απρόσμενο γεγονός και οι ζωές των 4 αντρών θα ελευθερωθούν για πάντα.
  18. Director: John Guillermin Writers: John Guillermin (story), Peter De Sarigny (story) Stars: Richard Todd, Peter Sellers, Elizabeth Sellars Country: UK Language: English Release Date: 28 November 1960 (Sweden) Runtime: 90 min Μια συμμορία κλέβει το αυτοκίνητο ενός πωλητή, το οποίο είναι απαραίτητο για την δουλειά του, χωρίς το οποίο θα απολυθεί. Έτσι λοιπόν ξεκινάει να βρει το αυτοκίνητο και να αντιμετωπίσει τη συμμορία μόνος του. http://www.imdb.com/title/tt0054115/?ref_=fn_al_tt_1
  19. Είδος Ταινίας: Drama Πρεμιέρα: 19 June 2019 (France) Σκηνοθέτης: Laure de Clermont-Tonnerre Σενάριο: Brock Norman Brock, Laure de Clermont-Tonnerre Ηθοποιοί: Matthias Schoenaerts, Jason Mitchell, Bruce Dern Υπότιτλοι: Ελληνικοί Ενσωματωμένοι & Σε Ξεχωριστό Αρχείο Μετάφραση: Calamity Jane Διάρκεια: 96' Καταλληλότητα: - encoder: .:Sexmeup:. Πηγή: 1080p.BluRay.x264-ROVERS Υπόθεση: Η ιστορία του Roman Coleman, ενός βίαιου κατάδικου, ο οποίος έχει την ευκαιρία να συμμετάσχει σε πρόγραμμα θεραπείας αποκατάστασης που περιλαμβάνει την εκπαίδευση άγριων μουστάρδων. https://www.imdb.com/title/tt5952594/ ΑΝ ΘΕΛΕΤΕ ΝΑ ΣΤΗΡΙΞΕΤΕ ΤΗΝ ΔΟΥΛΕΙΑ ΜΟΥ ΚΑΝΤΕ ΕΥΚΟΛΑ ΚΑΙ ΓΡΗΓΟΡΑ ΛΟΓΑΡΙΑΣΜΟ ΣΤΟ EASYBYTEZ KAI KATEΒΑΣΤΕ ΣΑΝ PREMIUM AΠO 20 HOST!! http://www.easybytez.com/free2771.html
  20. Είδος Ταινίας: Drama, Romance Πρεμιέρα: 15 March 2019 (USA) Σκηνοθέτης: Justin Baldoni Σενάριο: Mikki Daughtry, Tobias Iaconis Ηθοποιοί: Haley Lu Richardson, Cole Sprouse, Moises Arias Υπότιτλοι: Ελληνικοί Ενσωματωμένοι & Σε Ξεχωριστό Αρχείο Μετάφραση: Christianaemi Διάρκεια: 116' Καταλληλότητα: - encoder: .:Sexmeup:. Πηγή: 1080p.BluRay.x264-DRONES Υπόθεση: Η υπόθεση περιστρέφεται γύρω από την 17χρονη Stella Grant η οποία πάσχει από κυστική ίνωση και έτσι έχει περάσει το μεγαλύτερο μέρος της ζωής της στα νοσοκομεία. Όταν γνωρίζει τον γοητευτικό Will Newman, ο οποίος πάσχει από την ίδια ασθένεια, αμέσως έρχονται κοντά, όμως θα εξαναγκαστούν να παραμείνουν απόσταση εξαιτίας της θεραπείας του Will, ο οποίος θα αντιδράσει έντονα απέναντι σε αυτή την εξέλιξη και έτσι η Stella θα πάρει την κατάσταση στα χέρια της. https://www.imdb.com/title/tt6472976/ ΑΝ ΘΕΛΕΤΕ ΝΑ ΣΤΗΡΙΞΕΤΕ ΤΗΝ ΔΟΥΛΕΙΑ ΜΟΥ ΚΑΝΤΕ ΕΥΚΟΛΑ ΚΑΙ ΓΡΗΓΟΡΑ ΛΟΓΑΡΙΑΣΜΟ ΣΤΟ EASYBYTEZ KAI KATEΒΑΣΤΕ ΣΑΝ PREMIUM AΠO 20 HOST!! http://www.easybytez.com/free2771.html
  21. Η ΖΩΗ ΕΝ ΤΑΦΩ ΕΡΤ (2019) WEBRip AVI Η ΕΡΤ επανέρχεται στην ελληνική μυθοπλασία με μια μεγαλόπνοη παραγωγή που γράφει και σκηνοθετεί ο Τάσος Ψαρράς. Όπως λέει ο ίδιος «“Η ζωή εν τάφω” είναι μυθιστόρημα που υμνεί τη ζωή. Είναι ο θρίαμβος της αγάπης και του έρωτα ακόμα και σε δύσκολες στιγμές, όπως είναι ένας παγκόσμιος πόλεμος. Κατά συνέπεια είναι ένα θέμα με εξάρσεις λυρικές, ένα θέμα που αγαπάει τον άνθρωπο και στέκεται κοντά του». Η τηλεοπτική μεταφορά του κλασικού μυθιστορήματος του Στράτη Μυριβήλη είναι μια μεγάλη κινηματογραφική περιπέτεια, που εκτυλίσσεται μπροστά και πίσω από τις κάμερες. Oι πιο χαρακτηριστικές στιγμές από τα γυρίσματα, θραύσματα αυτής της μεγάλης κινηματογραφικής περιπέτειας, αποτυπώνονται στο Making of της σειράς. Η κάμερα κατέγραψε αριστοτεχνικά την καθημερινότητα, τα πλάνα, την προετοιμασία των ηθοποιών, σε πολλές περιοχές, όπως Μυτιλήνη, Λαύριο, Ίλιον (βασιλικά Ανάκτορα), ενώ έγιναν και λήψεις με drone για πιο άρτιο αποτέλεσμα. Σενάριο-σκηνοθεσία: Βασίλης Μωυσίδης Φωτογραφία: Δημήτρης Καρκαλέτσος Μοντάζ: Νταβίντ Γαβριηλίδης Ήχος: Γιάννης Παπαχρήστος, Αντώνης Κυπραίος Μιξάζ: Βασίλης Βασιλάκης Διεύθυνση παραγωγής: Μαριάννα Ροζάκη General General Complete name : ΖWH.EN.TAFO.avi Format : AVI Format/Info : Audio Video Interleave File size : 963 MiB Duration : 33 min 41 s Overall bit rate : 3 995 kb/s Video ID : 0 Format : AVC Format/Info : Advanced Video Codec Format profile : [email protected] Format settings : 1 Ref Frames Format settings, CABAC : No Format settings, ReFrames : 1 frame Codec ID : H264 Duration : 33 min 41 s Bit rate : 3 854 kb/s Width : 864 pixels Height : 480 pixels Display aspect ratio : 16:9 Frame rate : 25.000 FPS Color space : YUV Chroma subsampling : 4:2:0 Bit depth : 8 bits Scan type : Progressive Bits/(Pixel*Frame) : 0.372 Stream size : 929 MiB (96%) Writing library : x264 core 152 r2854 e9a5903 Audio ID : 1 Format : MPEG Audio Format version : Version 1 Format profile : Layer 3 Codec ID : 55 Codec ID/Hint : MP3 Duration : 33 min 41 s Bit rate mode : Constant Bit rate : 128 kb/s Channel(s) : 2 channels Sampling rate : 44.1 kHz Compression mode : Lossy Stream size : 30.8 MiB (3%) Alignment : Aligned on interleaves Interleave, duration : 26 ms (0.65 video frame)
  22. Έτος: 2011 Τηλεοπτική Σειρά Κανάλι: ΑΝΤ1 Ημερομηνία προβολής πρώτου επεισοδίου: 4 Μαρτίου 2011 Ημερομηνία προβολής τελευταίου επεισοδίου: 31 Μαϊου 2011 Ημέρα προβολής: Παρασκευή, Τρίτη Κύκλοι επεισοδίων: 1Αριθμός επεισοδίων: 20 Διάρκεια επεισοδίου: 40' Είδος: Κοινωνική Εταιρία παραγωγής: M.S. Media Σκηνοθεσία: Στράτος Μαρκίδης Σενάριο: Υβόννη Μεταξάκη Μουσική σύνθεση: Χρήστος Παπαδόπουλος (?) Ηθοποιοί: Άλκης Κούρκουλος (Αλέξανδρος) , Τάσος Νούσιας (Ρήγας Καρέλης) , Μελίνα Μποτέλη (Ντόρα) , Φίλιππος Σοφιανός (Σίμος) , Μάριος Ιορδάνου , Σωτήρης Ταχτσόγλου , Γιάννης Καρατζογιάννης , Νόνη Ιωαννίδου , Τόνυ Δημητρίου , Ειρήνη Μπαλτά , Ρεγγίνα Παντελίδη , Τέτα Σαββάτη (Ζωή) , Ανατολή Αθανασιάδου , Σαλίνα Γαβαλά , Κώστας Κρομμύδας , Γιώργος Σίσκος , Αργυρώ Μίχα , Αναστάσης Κολοβός , Ορέστης Τρίκας , Σοφία Καζατζιάν , Δημήτρης Γάλλος , Γιώργος Ρήγας , Γεννάδιος Πάτσης (δάσκαλος ξιφασκίας) , Δέσποινα Πόγκα , Χάρης Χαραλάμπους , Γεράσιμος Κικλής , Νεκταρία Γιαννουδάκη , Σωτήρης Σωτηρίου (Αργύρης) , Θάνος Περιστέρης , Άγγελος Θεοδωρόπουλος , Μιχάλης Ταμπούκας , Μαρίτα Ρίτζι Ένας ισχυρός άνδρας πεθαίνοντας αφήνει διαδόχους δυο αδέρφια, που μέχρι τότε αγνοούσαν ο ένας την ύπαρξη του άλλου. Δυο εξίσου δυναμικοί και σκληροί χαρακτήρες έρχονται αντιμέτωποι διεκδικώντας με μανία αυτό που ο καθένας πιστεύει ότι του ανήκει δικαιωματικά. Ο ένας απαιτεί να κρατήσει αυτά που θεωρούσε δεδομένα σε όλη του τη ζωή. Ο άλλος ποθεί να αποκτήσει όσα άδικα στερήθηκε. Θα πολεμήσουν χρησιμοποιώντας κάθε μέσο, για να πετύχουν το σκοπό τους. Δεν θα διστάσουν να καταστρέψουν ό,τι σταθεί εμπόδιο στα σχέδιά τους. Κι όταν στο δρόμο τους βρεθεί η ίδια γυναίκα, ο έρωτας θα τους οδηγήσει στα άκρα, σε μία σύγκρουση "Χωρίς όρια".
  23. Είδος Ταινίας: Biography, Drama, Mystery Πρεμιέρα: 28 March 2019 (Greece) Σκηνοθέτης: Farhad Safinia (as P.B. Sherman) Σενάριο: John Boorman, Todd Komarnicki Ηθοποιοί: Natalie Dormer, Mel Gibson, Stephen Dillane Υπότιτλοι: Ελληνικοί Ενσωματωμένοι & Σε Ξεχωριστό Αρχείο Ελληνικός Τίτλος: Ο Καθηγητής και ο Τρελός Μετάφραση: Calamity Jane Διάρκεια: 124' Καταλληλότητα: - encoder: .:Sexmeup:. Πηγή: 1080p.BluRay.x264-BRMP Υπόθεση: Λονδίνο 1872. Ο καθηγητής Τζέιμς Μάρεϊ αρχίζει να συγκεντρώνει το υλικό για την πρώτη έκδοση του Αγγλικού Λεξικού της Οξφόρδης, όταν ένας ασθενής σε κλινική φρενοβλαβών του στέλνει πάνω από 10.000 εγγραφές. https://www.imdb.com/title/tt5932728/ ΑΝ ΘΕΛΕΤΕ ΝΑ ΣΤΗΡΙΞΕΤΕ ΤΗΝ ΔΟΥΛΕΙΑ ΜΟΥ ΚΑΝΤΕ ΕΥΚΟΛΑ ΚΑΙ ΓΡΗΓΟΡΑ ΛΟΓΑΡΙΑΣΜΟ ΣΤΟ EASYBYTEZ KAI KATEΒΑΣΤΕ ΣΑΝ PREMIUM AΠO 20 HOST!! http://www.easybytez.com/free2771.html
  24. Είδος Ταινίας: Biography, Drama, Mystery Πρεμιέρα: 28 March 2019 (Greece) Σκηνοθέτης: Farhad Safinia (as P.B. Sherman) Σενάριο: John Boorman, Todd Komarnicki Ηθοποιοί: Natalie Dormer, Mel Gibson, Stephen Dillane Υπότιτλοι: Ελληνικοί Ενσωματωμένοι & Σε Ξεχωριστό Αρχείο Ελληνικός Τίτλος: Ο Καθηγητής και ο Τρελός Μετάφραση: Calamity Jane Διάρκεια: 124' Καταλληλότητα: - encoder: .:Sexmeup:. Πηγή: 1080p.BluRay.x264-BRMP Υπόθεση: Λονδίνο 1872. Ο καθηγητής Τζέιμς Μάρεϊ αρχίζει να συγκεντρώνει το υλικό για την πρώτη έκδοση του Αγγλικού Λεξικού της Οξφόρδης, όταν ένας ασθενής σε κλινική φρενοβλαβών του στέλνει πάνω από 10.000 εγγραφές. https://www.imdb.com/title/tt5932728/ ΑΝ ΘΕΛΕΤΕ ΝΑ ΣΤΗΡΙΞΕΤΕ ΤΗΝ ΔΟΥΛΕΙΑ ΜΟΥ ΚΑΝΤΕ ΕΥΚΟΛΑ ΚΑΙ ΓΡΗΓΟΡΑ ΛΟΓΑΡΙΑΣΜΟ ΣΤΟ EASYBYTEZ KAI KATEΒΑΣΤΕ ΣΑΝ PREMIUM AΠO 20 HOST!! http://www.easybytez.com/free2771.html
  25. Είδος Ταινίας: Drama, Romance Πρεμιέρα: 15 March 2019 (USA) Σκηνοθέτης: Justin Baldoni Σενάριο: Mikki Daughtry, Tobias Iaconis Ηθοποιοί: Haley Lu Richardson, Cole Sprouse, Moises Arias Υπότιτλοι: Ελληνικοί Ενσωματωμένοι & Σε Ξεχωριστό Αρχείο Μετάφραση: Christianaemi Διάρκεια: 116' Καταλληλότητα: - encoder: .:Sexmeup:. Πηγή: 1080p.BluRay.x264-DRONES Υπόθεση: Η υπόθεση περιστρέφεται γύρω από την 17χρονη Stella Grant η οποία πάσχει από κυστική ίνωση και έτσι έχει περάσει το μεγαλύτερο μέρος της ζωής της στα νοσοκομεία. Όταν γνωρίζει τον γοητευτικό Will Newman, ο οποίος πάσχει από την ίδια ασθένεια, αμέσως έρχονται κοντά, όμως θα εξαναγκαστούν να παραμείνουν απόσταση εξαιτίας της θεραπείας του Will, ο οποίος θα αντιδράσει έντονα απέναντι σε αυτή την εξέλιξη και έτσι η Stella θα πάρει την κατάσταση στα χέρια της. https://www.imdb.com/title/tt6472976/ ΑΝ ΘΕΛΕΤΕ ΝΑ ΣΤΗΡΙΞΕΤΕ ΤΗΝ ΔΟΥΛΕΙΑ ΜΟΥ ΚΑΝΤΕ ΕΥΚΟΛΑ ΚΑΙ ΓΡΗΓΟΡΑ ΛΟΓΑΡΙΑΣΜΟ ΣΤΟ EASYBYTEZ KAI KATEΒΑΣΤΕ ΣΑΝ PREMIUM AΠO 20 HOST!! http://www.easybytez.com/free2771.html
×