Jump to content

Search the Community

Showing results for tags 'κοινωνικό'.



More search options

  • Search By Tags

    Type tags separated by commas.
  • Search By Author

Content Type


Forums

  • ΓΕΝΙΚΑ - GENERAL
    • Γενικές Ανακοινώσεις - General Announcements
    • Κανόνες - Rules
    • Βοηθητικοί Οδηγοί
    • Συζήτηση - Discussion
    • Συστηθείτε - Introduse yourself
    • Γαστρονομικές Οπτασίες - Recipes
    • Το γέλιο είναι μεταδοτικό... Μεταδώστε το!!! - Fun Place
    • Υγεία
  • ΕΛΛΗΝΙΚΗ ΜΟΥΣΙΚΗ - GREEK MUSIC
    • Νέα CDs 2016-2019
    • Promos
    • Single Remix
    • Ελληνικά Ψηφιακά Cds - Greek Digital Cds
    • Ελληνικά CDs 2010-2015
    • Παλαιότερα Ελληνικά CDs μέχρι το 2009
    • Παραδοσιακά CDs
    • Ρεμπέτικο Στέκι
    • Δισκάκια 45 στροφών και γραμμοφώνου
    • Επανεκδόσεις
    • Συλλογές
    • Box Set Collections
    • Ελληνικά Mix - Remix
    • Παιδικά Ελληνικά CDs
    • Δισκογραφίες
  • ΞΕΝΗ ΜΟΥΣΙΚΗ - INTERNATIONAL MUSIC
    • Νέα CDs 2016-2019
    • Παλαιότερα Ξένα CDs
    • Συλλογές
    • Box Set Collections
    • Ξένα Mix - Remix
    • Παιδικά Ξένα CDs
    • Δισκογραφίες
  • ΜΟΥΣΙΚΗ ΣΕ ΠΟΙΟΤΗΤΑ LOSSLESS
    • Ελληνικά CDs
    • Ξένα CDs
  • ΤΑΙΝΙΕΣ - MOVIES
    • Ελληνικές Ταινίες - Greek Movies
    • Ξένες Ταινίες με ελληνικούς υπότιτλους 2016 - 2019
    • Παλαιότερες Κλασσικές Ξένες Ταινίες (μέχρι το 1990)
    • Ξένες Ταινίες με ελληνικούς υπότιτλους 1991 - 2015
    • Ξένες Ταινίες HD 720p BRRIP Avi
    • Ξένες Ταινίες BluRay
    • Ξένες Ταινίες Micro HD
    • Φιλμογραφίες
    • Παιδικές Ταινίες
    • Ντοκιμαντέρ
    • Θεατρικές Παραστάσεις
  • ΕΠΟΧΙΑΚΑ
    • Χριστούγεννα
    • Πάσχα
    • Αποκριές
    • Αγίου Βαλεντίνου
  • ΤΗΛΕΟΠΤΙΚΟ ΠΡΟΓΡΑΜΜΑ
    • Ελληνικές Σειρές
    • Ξένες Σειρές
    • Τούρκικες Σειρές
    • Τηλεοπτικές Eκπομπές
  • ΠΑΙΧΝΙΔΙΑ - GAMES
    • Pc Games
    • Play Station Games
    • XBOX
    • Mac Games
  • ΕΦΑΡΜΟΓΕΣ - ΠΡΟΓΡΑΜΜΑΤΑ
    • Λειτουργικά Προγράμματα
    • Προγράμματα Προστασίας
    • Εργαλεία Συστήματος
    • Εργαλεία Πολυμέσων
    • Portable Προγράμματα
    • Προγράμματα για Mac
    • Internet Tools
    • Tutorials
  • E-BOOKS
    • Έλληνες Συγγραφείς
    • Ξένοι Συγγραφείς
    • Κόμικς
    • Περιοδικά
    • Audio Books
  • ΑΝΑΖΗΤΗΣΗ
    • Μουσική
    • Ταινίες - Σειρές
    • Παιχνίδια
    • Προγράμματα
    • E-Books
  • V.I.P

Find results in...

Find results that contain...


Date Created

  • Start

    End


Last Updated

  • Start

    End


Filter by number of...

Found 920 results

  1. Είδος Ταινίας: Drama Πρεμιέρα: 2 October 2019 (France) Σκηνοθέτης: Mati Diop Σενάριο: Mati Diop (screenplay by), Olivier Demangel (screenplay by) Ηθοποιοί: Abdou Balde, Aminata Kane, Ibrahima Mbaye Υπότιτλοι: Ελληνικοί Ενσωματωμένοι & Σε Ξεχωριστό Αρχείο Μετάφραση: Γιώργος Λυκούδης Διάρκεια: 106' Καταλληλότητα: -encoder: .:Sexmeup:. Πηγή: 1080p.NF.WEB-DL.DDP5.1.x264-NTG Υπόθεση: Λογοδοσμένη σε έναν πλούσιο άντρα, η Άντα συγκλονίζεται όταν ο πραγματικός της έρωτας εξαφανίζεται προσπαθώντας να μεταναστεύσει. Ένα θαύμα όμως τους φέρνει πάλι κοντά. https://www.imdb.com/title/tt10199586/ [video=youtube;HebCdyq1AE4]https://www.youtube.com/watch?v=HebCdyq1AE4&t=2s ΑΝ ΘΕΛΕΤΕ ΝΑ ΣΤΗΡΙΞΕΤΕ ΤΗΝ ΔΟΥΛΕΙΑ ΜΟΥ ΚΑΝΤΕ ΕΥΚΟΛΑ ΚΑΙ ΓΡΗΓΟΡΑ ΛΟΓΑΡΙΑΣΜΟ ΣΤΟ EASYBYTEZ KAI KATEΒΑΣΤΕ ΣΑΝ PREMIUM AΠO 20HOST!! http://www.easybytez.com/free2771.html
  2. DOWNTON ABBEY (2019) WEBRip XviD AC3-FGT | ENΣΩΜΑΤΩΜΕΝΟΙ ΥΠΟΤΙΤΛΟΙ ΣΚΗΝΟΘΕΣΙΑ : Michael Engler ΣΕΝΑΡΙΟ : Julian Fellowes ΗΘΟΠΟΙΟΙ : Matthew Goode, Michelle Dockery, Maggie Smith ΕΙΔΟΣ : Drama, Romance ΠΡΕΜΙΕΡΑ : 12 September 2019 (Greece) ΜΕΤΑΦΡΑΣΗ : Calamity Jane Βασισμένη στη τηλεοπτική σειρά Downton Abbey, η ταινία αφηγείται την ιστορία μιας εύπορης οικογένειας στην Βρετανική επαρχία στις αρχές του 20ου αιώνα.. IMDB: https://www.imdb.com/title/tt6398184/
  3. Είδος Ταινίας: Comedy, Drama, Music Πρεμιέρα: 26 September 2019 (Greece) Σκηνοθέτης: Gurinder Chadha Σενάριο: Sarfraz Manzoor (screenplay), Gurinder Chadha (screenplay) Ηθοποιοί: Billy Barratt, Ronak Singh Chadha Berges, Viveik Kalra Υπότιτλοι: Ελληνικοί Ενσωματωμένοι & Σε Ξεχωριστό Αρχείο Μετάφραση: Calamity Jane Διάρκεια: 118' Καταλληλότητα: -encoder: .:Sexmeup:. Πηγή: 1080p.BluRay.x264-AAA Υπόθεση: Η ταινία διηγείται την ιστορία του Τζέιβντ, ενός βρετανού εφήβου πακιστανικής καταγωγής, που μεγάλωσε στην πόλη του Λούτον στην Αγγλία, το 1987. Εν μέσω φυλετικών και οικονομικών αναταραχών, γράφει ποίηση προκειμένου να «ξεφύγει» από τη μισαλλοδοξία που μαστίζει την πόλη του, και την αυστηρότητα του συντηρητικού πατέρα του. Αλλά όταν ένας συμμαθητής του, τον «μυεί» στη μουσική του Μπρους Σπρίνγκστιν, ο Τζέιβντ αισθάνεται ότι η εργατική τάξη στην οποία ανήκει εκείνος και η οικογένειά του, ταυτίζεται και αντικατοπτρίζεται στους δυνατούς στίχους του Μπρους. Καθώς ο Τζέιβτν ανακαλύπτει μία καθαρτική διέξοδο για ν΄ ακολουθήσει τα όνειρά του, ταυτόχρονα βρίσκει το θάρρος να εκφραστεί με τη δική του, μοναδική φωνή. https://www.imdb.com/title/tt8266310/ [video=youtube;DmmHvnS0IKM]https://www.youtube.com/watch?v=DmmHvnS0IKM ΑΝ ΘΕΛΕΤΕ ΝΑ ΣΤΗΡΙΞΕΤΕ ΤΗΝ ΔΟΥΛΕΙΑ ΜΟΥ ΚΑΝΤΕ ΕΥΚΟΛΑ ΚΑΙ ΓΡΗΓΟΡΑ ΛΟΓΑΡΙΑΣΜΟ ΣΤΟ EASYBYTEZ KAI KATEΒΑΣΤΕ ΣΑΝ PREMIUM AΠO 20HOST!! http://www.easybytez.com/free2771.html
  4. ΧΑΛΚΙΝΑ ΧΡΟΝΙΑ Γ΄ΚΥΚΛΟΣ (2019-2020) ΡΙΚ WEBRip Ο τρίτος κυκλος της δραματικής καθημερινής σειράς εποχής του ΡΙΚ που θα ξεκινήσει το Σεπτέμβριο και θα καλύπτει την prime timeζώνη του σταθμού ονομάζεται «Χάλκινα Χρόνια». Η υπόθεση της σειράς τοποθετείται μετά το Β’ Παγκόσμιο Πόλεμο και επικεντρώνεται σε διάφορες ιστορίες καθημερινών ανρθώπων, που έχουν, μέσα στις πολιτικές και κοινωνικές αλλαγές της εποχής, τα δικά τους πάθη, ανάγκες και όνειρα. Σεναριογράφοι αυτής της σειράς είναι η Δέσποινα Πυρκετή και η Σοφία Σοφοκλέους, στο σκηνοθετικό τιμόνι βρίσκεται η Κόριννα Αβρααμίδου και ο Χρίστος Νικολάου, ενώ στην παραγωγή βρίσκεται η Galinis Productions. Το πρωταγωνιστικό καστ αποτελείται από τους: Λένια Σορόκου, Αντρέα Τσέλεπο, Αντωνία Χαραλάμπους, Κύνθια Παυλίδου, Άννα Γιαγκιόζη, Γιάννα Λευκάτη, Σοφοκλή Κασκαούνια, Πανίκο Πιλάλη, Αντρέα Παπαμιχαλόπουλο, Αστέριο Πελτέκη, Μαρία Φιακά, Νάτια Χαραλάμπους, Νίκη Δραγούμη και τον Σίμο Τσιάκκα. O Κώστας Κακογιάννης επιμελείται για άλλη μια φορά τη μουσική επένδυση, ενώ τα σκηνικά και τα κοστούμια ο Λάκης Γενεθλής. General Complete name :XALKINA.S03.01.avi Format : AVI Format/Info : Audio Video Interleave File size : 1.13 GiB Duration : 54 min 46 s Overall bit rate : 2 952 kb/s Video #0 ID : 0 Format : AVC Format/Info : Advanced Video Codec Format profile : [email protected] Format settings : 1 Ref Frames Format settings, CABAC : No Format settings, ReFrames : 1 frame Codec ID : H264 Duration : 54 min 46 s Bit rate : 2 811 kb/s Width : 768 pixels Height : 432 pixels Display aspect ratio : 16:9 Frame rate : 25.000 FPS Color space : YUV Chroma subsampling : 4:2:0 Bit depth : 8 bits Scan type : Progressive Bits/(Pixel*Frame) : 0.339 Stream size : 1.08 GiB (95%) Writing library : x264 core 146 r2538 121396c Audio #1 ID : 1 Format : MPEG Audio Format version : Version 1 Format profile : Layer 3 Codec ID : 55 Codec ID/Hint : MP3 Duration : 54 min 46 s Bit rate mode : Constant Bit rate : 128 kb/s Channel(s) : 2 channels Sampling rate : 48.0 kHz Compression mode : Lossy Stream size : 50.1 MiB (4%) Alignment : Aligned on interleaves Interleave, duration : 24 ms (0.60 video frame)
  5. Είδος Ταινίας: Drama, Sport Πρεμιέρα: 23 August 2019 (USA) Σκηνοθέτης: Alex Kendrick Σενάριο: Alex Kendrick, Stephen Kendrick Ηθοποιοί: Alex Kendrick, Ben Davies, Kendrick Cross Υπότιτλοι: Ελληνικοί Ενσωματωμένοι & Σε Ξεχωριστό Αρχείο Μετάφραση: Σοφία Κοκκινά Διάρκεια: 119' Καταλληλότητα: -encoder: .:Sexmeup:. Πηγή: 1080p.BluRay.x264-GECKOS Υπόθεση: Ένας προπονητής καλαθοσφαίρισης εθελοντών προπονεί μια έφηβο για τον μαραθώνιο.... https://www.imdb.com/title/tt8186318/ [video=youtube;BGyieGVn4P4]https://www.youtube.com/watch?v=BGyieGVn4P4&t=5s ΑΝ ΘΕΛΕΤΕ ΝΑ ΣΤΗΡΙΞΕΤΕ ΤΗΝ ΔΟΥΛΕΙΑ ΜΟΥ ΚΑΝΤΕ ΕΥΚΟΛΑ ΚΑΙ ΓΡΗΓΟΡΑ ΛΟΓΑΡΙΑΣΜΟ ΣΤΟ EASYBYTEZ KAI KATEΒΑΣΤΕ ΣΑΝ PREMIUM AΠO 20HOST!! http://www.easybytez.com/free2771.html
  6. Είδος Ταινίας: Drama, Sport Πρεμιέρα: 23 August 2019 (USA) Σκηνοθέτης: Alex Kendrick Σενάριο: Alex Kendrick, Stephen Kendrick Ηθοποιοί: Alex Kendrick, Ben Davies, Kendrick Cross Υπότιτλοι: Ελληνικοί Ενσωματωμένοι & Σε Ξεχωριστό Αρχείο Μετάφραση: Σοφία Κοκκινά Διάρκεια: 119' Καταλληλότητα: -encoder: .:Sexmeup:. Πηγή: 1080p.BluRay.x264-GECKOS Υπόθεση: Ένας προπονητής καλαθοσφαίρισης εθελοντών προπονεί μια έφηβο για τον μαραθώνιο.... https://www.imdb.com/title/tt8186318/ [video=youtube;BGyieGVn4P4]https://www.youtube.com/watch?v=BGyieGVn4P4&t=5s ΑΝ ΘΕΛΕΤΕ ΝΑ ΣΤΗΡΙΞΕΤΕ ΤΗΝ ΔΟΥΛΕΙΑ ΜΟΥ ΚΑΝΤΕ ΕΥΚΟΛΑ ΚΑΙ ΓΡΗΓΟΡΑ ΛΟΓΑΡΙΑΣΜΟ ΣΤΟ EASYBYTEZ KAI KATEΒΑΣΤΕ ΣΑΝ PREMIUM AΠO 20HOST!! http://www.easybytez.com/free2771.html
  7. ΓΑΛΑΤΕΙΑ Δ΄ΚΥΚΛΟΣ (2019-2020) ΣΙΓΜΑ ΚΥΠΡΟΥ WEBRip AVI ΞΕΚΙΝΑ Ο Δ΄ΚΥΚΛΟΣ Ο έρωτας κατάφερε να βγει νικητής απέναντι στην πραγματικότητα της ζωής ή απλά συμβιβάστηκε με τον πιο αδυσώπητο αντίπαλο: τον χρόνο; Η ζωή συνεχίζεται και ο χρόνος, λένε, γιατρεύει τις πληγές. Είναι όμως αυτό αλήθεια; Οι άνθρωποι μαθαίνουν να προσαρμόζονται στα νέα δεδομένα καθώς οι εποχές προχωρούν, ακόμα και αν τα όνειρα έχουν μείνει απραγματοποίητα. Όμως η ψυχή δεν ξεχνάει και περιμένει την κατάλληλη στιγμή για να διεκδικήσει όλα όσα της στέρησε η ζωή. Άραγε τα καταπιεσμένα πάθη θα βρουν την ευκαιρία να βγουν στην επιφάνεια; Άραγε πόσο δυνατοί είναι οι ήρωες της «Γαλάτειας» για τις νέες μάχες που τους επιφυλάσσει η μοίρα; Άραγε θα πάρει ο κάθε ένας αυτό που του αξίζει; Δικαίωση… Τιμωρία… Αναγνώριση… Κατανόηση… Νίκη… Ήττα… Και ενώ ο κόσμος γύρω τους καταρρέει και ο πόλεμος πλησιάζει αμείλικτος, θα αποδειχθεί τελικά η αγάπη πιο δυνατή; ΗΘΟΠΟΙΟΙ: Κρίστοφερ Γκρέκο – Καράγιωρκης Άλκηστης Παυλίδου – Φλουρεντζού Δέσποινα Μπεμπεδέλη – Μαριγώ Ειρήνη Κωνσταντίνου – Πολύμνια Κώστας Δημητρίου – Αντζουλής Ανδρέας Μελέκκης – Μιχαηλάς (μουχτάρης) Ανδρέας Αργυρίδης – Χαμπής Νεοκλής Νεοκλέους – Κυριάκος Χριστιάνα Λάρκου – Ανδρονίκη Βαρβάρα Χριστοφή – Γαλάτεια Χρήστος Τουμάζου – Πετρής Ιάκωβος Χατζηβασίλη – Στεφανής Μάρα Κωνσταντίνου – Μαργαρίτα Ελευθερία Ανδρέου – Φανούλλα Πάολα Χατζηλαμπρή – Ερατώ Βασίλης Μιχαήλ- Πολυδεύκης Μιχάλης Τερλικκάς – Ποιητάρης Βαλεντίνα Σοφοκλέους – Βασιλού Χριστιάνα Θεοδώρου – Αννέτα ΣΕΝΑΡΙΟ: Γιώργος Σοφοκλέους και Ελένη Καούλα ΓΕΝΙΚΗ ΕΠΙΜΕΛΕΙΑ: Κύρος Ρωσσίδης ΣΚΗΝΟΘΕΣΙΑ: Κώστας Κωστόπουλος και Πάρις Προκοπίου General Complete name : GALATEIA.S03.EP.01.avi Format : AVI Format/Info : Audio Video Interleave File size : 1.01 GiB Duration : 1 h 1 min Overall bit rate : 2 337 kb/s Video ID : 0 Format : AVC Format/Info : Advanced Video Codec Format profile : [email protected] Format settings : 1 Ref Frames Format settings, CABAC : No Format settings, ReFrames : 1 frame Codec ID : H264 Duration : 1 h 1 min Bit rate : 2 196 kb/s Width : 1 280 pixels Height : 720 pixels Display aspect ratio : 16:9 Frame rate : 25.000 FPS Color space : YUV Chroma subsampling : 4:2:0 Bit depth : 8 bits Scan type : Progressive Bits/(Pixel*Frame) : 0.095 Stream size : 970 MiB (94%) Writing library : x264 core 152 r2854 e9a5903 Audio ID : 1 Format : MPEG Audio Format version : Version 1 Format profile : Layer 3 Codec ID : 55 Codec ID/Hint : MP3 Duration : 1 h 1 min Bit rate mode : Constant Bit rate : 128 kb/s Channel(s) : 1 channel Sampling rate : 44.1 kHz Compression mode : Lossy Stream size : 56.5 MiB (5%) Alignment : Aligned on interleaves Interleave, duration : 26 ms (0.65 video frame)
  8. ΓΥΝΑΙΚΑ ΧΩΡΙΣ ΟΝΟΜΑ Β΄ΚΥΚΛΟΣ (2019-2020) ΑΝΤ1 TVRip AVI HD Ο δεύτερος κύκλος της σειράς «Γυναίκα Χωρίς Όνομα», δύο γυναίκες πολεμούν μέχρι τέλους για τη ζωή που τους έκλεψαν: τη ζωή των παιδιών τους. Σε αυτή τη μάχη όμως, δεν υπάρχει βέβαιος νικητής… Θα καταλάβουν ότι η αληθινή εκδίκηση, είναι η συγχώρεση; Η ΙΣΤΟΡΙΑ Η Κάτια (Μαριάννα Τουμασάτου) ψάχνει απεγνωσμένα έναν συμβατό δότη για να σωθεί ο 10χρονος γιος της. Η Μαρίνα (Ντόρα Μακρυγιάννη) είναι η μοναδική συμβατή δότρια αλλά ανακαλύπτει ότι είναι έγκυος και ότι είναι αδύνατον να βοηθήσει την Κάτια η οποία χρησιμοποιεί κάθε μέσο για να την αναγκάσει. Προκειμένου να ξεφύγει και να σώσει το μωρό της, η Μαρίνα προδομένη πλέον από τον έρωτά της, Κωστή (Πάνος Νάτσης) κατασκευάζει την ενοχή της και καταδικάζεται ως «Γυναίκα Χωρίς Όνομα» για ένα φόνο που δεν διέπραξε ποτέ! Γεννά την κόρη της με ασφάλεια στη φυλακή και την ονομάζει Ελπίδα… Η Κάτια, τελικά, θα χάσει το παιδί της και βάζει σκοπό της ζωή της να βρει τη Μαρίνα και να την κάνει να πληρώσει με το ίδιο νόμισμα, να στερηθεί και εκείνη για πάντα το ίδιο της το παιδί. Και το καταφέρνει. Τότε, η Μαρίνα με τη βοήθεια της συγκρατούμενής της, Μάρθας (Ταμίλα Κουλίεβα), θα καταφέρει να βγει από τη φυλακή. Αποφασισμένη να φτάσει μέχρι τέλους μεταμορφώνεται σε μία ισότιμη αντίπαλο. Με άλλο όνομα και εμφάνιση επιστρέφει στη ζωή της Κάτιας και όλων εκείνων που την πλήγωσαν για να τους καταστρέψει. Οι δύο γυναίκες, η Μαρίνα και η Κάτια, θα βρεθούν αντιμέτωπες η μία με την άλλη και το μίσος τους θα τις οδηγήσει στα πιο επικίνδυνα και σκληρά μονοπάτια. Αυτό που δεν γνωρίζουν είναι ότι το αόρατο χέρι της μοίρας που τις έδεσε μαζί, κρύβει μια συγκλονιστική αλήθεια… ΟΙ ΧΑΡΑΚΤΗΡΕΣ Η Κάτια (Μαριάννα Τουμασάτου) Η Μαρίνα (Ντόρα Μακρυγιάννη) Η Έλλη (Αλεξάνδρα Ταβουλάρη) Ο Δημήτρης (Κώστας Καζανάς) Ο Κωστής (Πάνος Νάτσης) Η Μάρθα (Ταμίλα Κουλίεβα) General Complete name :GYNH.S02.EP.01.avi Format : AVI Format/Info : Audio Video Interleave File size : 943 MiB Duration : 48 min 36 s Overall bit rate : 2 713 kb/s Video #0 ID : 0 Format : AVC Format/Info : Advanced Video Codec Format profile : [email protected] Format settings : 1 Ref Frames Format settings, CABAC : No Format settings, ReFrames : 1 frame Codec ID : H264 Duration : 48 min 36 s Bit rate : 2 572 kb/s Width : 640 pixels Height : 360 pixels Display aspect ratio : 16:9 Frame rate : 25.000 FPS Color space : YUV Chroma subsampling : 4:2:0 Bit depth : 8 bits Scan type : Progressive Bits/(Pixel*Frame) : 0.447 Stream size : 894 MiB (95%) Writing library : x264 core 146 r2538 121396c Audio #1 ID : 1 Format : MPEG Audio Format version : Version 1 Format profile : Layer 3 Codec ID : 55 Codec ID/Hint : MP3 Duration : 48 min 36 s Bit rate mode : Constant Bit rate : 128 kb/s Channel(s) : 2 channels Sampling rate : 44.1 kHz Compression mode : Lossy Stream size : 44.5 MiB (5%) Alignment : Aligned on interleaves Interleave, duration : 26 ms (0.65 video frame)
  9. ΕΛΑ ΣΤΗ ΘΕΣΗ ΜΟΥ Δ΄ΚΥΚΛΟΣ - ALPHA (2019-2020) TVRip AVI Ο τέταρτος κύκλος αρχίζει Κάνει εικασίες για αυτό το όνομα. Η Φλωρέτα Σοφοκλέους είναι ένα ακόμα νέο πρόσωπο που θα μπει του χρόνου στη σειρά. Εικάζουν ότι είναι η σύζυγος του Ανδρέα ή μία ακόμα κόρη του. Μένει, λοιπόν, να το δούμε! Πρόκειται για έναν χαρακτήρα που θα φέρει αλλαγές και ανακατατάξεις στις σχέσεις των ηρώων, θα τη βρει; Το σενάριο υπογράφει ο Γιώργος Κρητικός και τη σκηνοθεσία ο Γιάννης Βασιλειάδης, ο Σπύρος Ρασιδάκης και ο Βασίλης Τσελεμέγκος. Στους πρωταγωνιστικούς ρόλους οι: Γιάννης Τσιμιτσέλης, Αθηνά Οικονομάκου, Μιχάλης Μαρίνος, Μαρίνος Κόνσολος, Ευαγγελία Συριοπούλου, Ναταλία Δραγούμη, Άνδρη Θεοδότου, Χάρης Γρηγορόπουλος, Μαρία Ανδρούτσου, Αναστάσης Κολοβός, Πάνος Σταθακόπουλος, Ερμόλαος Ματθαίου, Εύα Δαελή, Νικόλας Απέργης, Καλή Δάβρη, Αναστασία Παντούση, Ορέστης Καρύδας, Βασιλική Αγγέλη κ.α. Στο ρόλο της Αιμιλίας, η Μαρία Φιλίππου Στο ρόλο του Λεωνίδα, ο Παύλος Ευαγγελόπουλος Εκτέλεση παραγωγής J.K. Productions - ΚΑΡΑΓΙΑΝΝΗΣ General Complete name :STH.THESH.MOY.S04.EP.01.avi Format : AVI Format/Info : Audio Video Interleave File size : 1.36 GiB Duration : 50 min 39 s Overall bit rate : 3 832 kb/s Video #0 ID : 0 Format : AVC Format/Info : Advanced Video Codec Format profile : [email protected] Format settings : 1 Ref Frames Format settings, CABAC : No Format settings, ReFrames : 1 frame Codec ID : H264 Duration : 50 min 39 s Bit rate : 3 690 kb/s Width : 1 280 pixels Height : 720 pixels Display aspect ratio : 16:9 Frame rate : 25.000 FPS Color space : YUV Chroma subsampling : 4:2:0 Bit depth : 8 bits Scan type : Progressive Bits/(Pixel*Frame) : 0.160 Stream size : 1.31 GiB (96%) Writing library : x264 core 146 r2538 121396c Audio #1 ID : 1 Format : MPEG Audio Format version : Version 1 Format profile : Layer 3 Codec ID : 55 Codec ID/Hint : MP3 Duration : 50 min 39 s Bit rate mode : Constant Bit rate : 128 kb/s Channel(s) : 2 channels Sampling rate : 48.0 kHz Compression mode : Lossy Stream size : 46.4 MiB (3%) Alignment : Aligned on interleaves Interleave, duration : 24 ms (0.60 video frame)
  10. ΑΣΤΕΡΙΑ ΣΤΗΝ ΑΜΜΟ (2019) ΑΛΦΑ TV TVrip AVI Στην Ρόδο, πριν αρκετά χρόνια, η μικρή Αλεξία ζούσε ευτυχισμένη με τους γονείς της, τον Ιάκωβο και την Χαρίκλεια. Όλα κυλούσαν ήρεμα μέχρι την στιγμή που μοιραία γεγονότα διαδέχονται το ένα το άλλο και βαραίνουν το αρχοντικό της οικογένειας Στεργίου. Ο πατέρας της Αλεξίας εγκαταλείπει την οικογένειά του, φεύγει στη μακρινή Ινδία και η μητέρα της δεν αντέχει και πεθαίνει. Ο κόσμος του μικρού κοριτσιού αλλάζει, η αυστηρή γιαγιά είναι ο μόνος συγγενής της πλέον. Μοναδική αχτίδα φωτός στη ζωή της, η Βέρα, η οικονόμος του σπιτιού, και οι τρεις φίλοι της, ο Μάξιμος, ο Ανδρέας και ο Ίωνας. Σήμερα, η Αλεξία νέα γυναίκα πια, ερωτευμένη από χρόνια με τον Μάξιμο, ο οποίος την έχει πληγώσει βαθιά, είναι έτοιμη να του δώσει μία δεύτερη ευκαιρία. Μερικές φορές όμως, ο πρίγκιπας του παραμυθιού αποδεικνύεται μία ψευδαίσθηση και η Αλεξία για άλλη μια φορά προδίδεται από τον Μάξιμο. Ο Νικηφόρος Απέργης, ο σατανικός πατέρας του Μάξιμου κινεί τα νήματα της δολοπλοκίας και δε σταματά ούτε όταν κινδυνεύει η ευτυχία του ίδιου του παιδιού του. Η περιουσία της Αλεξίας ήταν πάντα στο στόχαστρό του, πολύ περισσότερο τώρα που τα χρέη τον έχουν πνίξει. Η γιαγιά της Αλεξίας, η Δέσποινα, προσπαθεί να την προστατεύσει, αλλά δεν θα προλάβει, αφού ένα βράδυ βρίσκεται δολοφονημένη. Παρηγοριά και λιμάνι στην ταραγμένη ζωή της Αλεξίας, οι δύο παιδικοί της φίλοι, ο Ανδρέας και ο Ίωνας. Ένας από τους δύο θα κληθεί να σώσει το πιο πολύτιμο πράγμα στη ζωή της φίλης τους, το γιο της. Παράλληλα με τη ζωή της Αλεξίας, στην Κύπρο έχει μεγαλώσει φτωχή και βασανισμένη η ετεροθαλής αδελφή της, η Νίκη, εννέα χρόνια μικρότερή της. Η ψυχή της κοπέλας έχει δηλητηριαστεί από την πικρία της μητέρας της και της γιαγιάς της για τον άγνωστο άντρα που κατέστρεψε τις ζωές τους. Στο κρεβάτι του πόνου, όταν η μητέρα αρρωσταίνει βαριά, η Νίκη ορκίζεται να πάρει εκδίκηση για αυτόν και την οικογένειά του. Το όνομα του άνδρα είναι Ιάκωβος Στεργίου και πρόκειται για τον πατέρα της Αλεξίας, ο οποίος δεν έχει πεθάνει αλλά ζει στην Ινδία προσπαθώντας να λησμονήσει και να λησμονηθεί. Βασανισμένος από τύψεις, όταν μαθαίνει ένα τραγικό γεγονός αποφασίζει να επιστρέψει για να σώσει τις κόρες του, την Αλεξία και την Νίκη. Σενάριο: Ρένα Ρίγγα Σκηνοθεσία: Θοδωρής Νικολαΐδης Ηθοποιοί: Μίρκα Παπακωνσταντίνου, Δημοσθένης Παπαδόπουλος, Μυρτώ Αλικάκη, Πέτρος Λαγούτης, Σοφία Βογιατζάκη, Λουκία Πιστιόλα, Ρένος Ρώτας, Λαμπρινή Σκρέκα, Φώτης Κάραλης, Λυδία Σγουράκη, Στέλιος Ανδρονίκου, Έλενα Πιερίδου, Θεόφιλος Πασχάλης, Βερόνικα Ηλιοπούλου, Γιώργος Αναγιωτός, Αστέρω Κυπριανού, Άννα Μπεζάν, Χριστίνα Παγκάλη, Ελευθερία Ανδρέου, Ελένη Διαμαντίδου, Θανάσης Δρακόπουλος, Α λέξανδρος Μαρτίδης, Μανώλης Μιχαηλίδης, Έλενα Ευσταθίου κ.ά. Παραγωγή: Alpha Κύπρου General Complete name :ASTERIA.EP.01-02.avi Format : AVI Format/Info : Audio Video Interleave File size : 1.41 GiB Duration : 1 h 41 min Overall bit rate : 1 982 kb/s Video #0 ID : 0 Format : AVC Format/Info : Advanced Video Codec Format profile : [email protected] Format settings : 1 Ref Frames Format settings, CABAC : No Format settings, ReFrames : 1 frame Codec ID : H264 Duration : 1 h 41 min Bit rate : 1 841 kb/s Width : 1 280 pixels Height : 720 pixels Display aspect ratio : 16:9 Frame rate : 25.000 FPS Color space : YUV Chroma subsampling : 4:2:0 Bit depth : 8 bits Scan type : Progressive Bits/(Pixel*Frame) : 0.080 Stream size : 1.31 GiB (93%) Writing library : x264 core 146 r2538 121396c Audio #1 ID : 1 Format : MPEG Audio Format version : Version 1 Format profile : Layer 3 Codec ID : 55 Codec ID/Hint : MP3 Duration : 1 h 41 min Bit rate mode : Constant Bit rate : 128 kb/s Channel(s) : 2 channels Sampling rate : 48.0 kHz Compression mode : Lossy Stream size : 93.1 MiB (6%) Alignment : Aligned on interleaves Interleave, duration : 24 ms (0.60 video frame)
  11. ΕΡΩΤΑΣ ΜΕΤΑ (2019) ΑΛΦΑ TV TVrip AVI Μία καινούργια σειρά με τίτλο "Έρωτας μετά" κάνει πρεμιέρα στο καινούργιο πρόγραμμα του ALPHA. Πρόκειται για ερωτικό θρίλερ που όπως αναφέρει και η ανακοίνωση του σταθμού είναι... … «Μία ιστορία έρωτα και μυστηρίου που εκτυλίσσεται σε δύο χρόνους, σ’ ένα παρελθόν γεμάτο μυστικά και πάθη, σ’ ένα παρόν που ψάχνει απαντήσεις. Έντονες σχέσεις, δυνατά συναισθήματα, αγωνία και ανατροπές συνθέτουν μια σειρά από γεγονότα που όταν ξεκαθαρίσουν, θα φανεί αν μπορεί να υπάρξει «Έρωτας μετά». Ένα τροχαίο. Δύο επιβάτες. Το σώμα της γυναίκας εξαφανίζεται. Ο άνδρας πέφτει σε κώμα. Μια σειρά ερωτημάτων ζητούν απαντήσεις. Τι προκάλεσε το ατύχημα; Γιατί εξαφανίστηκε η γυναίκα; Ποια είναι η σχέση τους; Η ταυτότητά τους αποκαλύπτει ότι δεν ήταν παντρεμένοι… Η αναγνώρισή τους φέρνει στην επιφάνεια το μυστικό τους: ήταν εραστές. Τρία χρόνια πριν, η γνωριμία δύο ζευγαριών και η φιλία που ξεκίνησε μεταξύ τους, πυροδότησε μία απαγορευμένη αγάπη. Η ένοχη σχέση των δύο εραστών θα στοιχειώσει το παρόν των συντρόφων τους. Η οικογενειακή τους αρμονία ήταν μία ψευδαίσθηση. Ο πόνος βαθύς, αλλά η ανάγκη να αποκαλυφθεί η αλήθεια επιτακτική». Η ιστορία βασίζεται στη σειρά της Telefe «Amar despues de amar» και το σενάριο υπογράφει ο Παναγιώτης Ιωσηφέλης σε συνεργασία με τους Μαρία Βρεττού, Αθηνά Γερολύμπου και Μάνο Παπαϊωάννου, ενώ σκηνοθέτης είναι ο Στέφανος Μπλάτσος μαζί με τους Βασίλη Τσελεμέγκο, Σέργιο Κωνσταντινίδη. Τους ήρωες της σειράς ενσαρκώνουν: Αντώνης Καρυστινός, Βάσω Λασκαράκη, Μάριος Αθανασίου, Έμιλυ Κολιανδρή, Μιχάλης Λεβεντογιάννης, Ευγενία Σαμαρά, Κώστας Κόκλας, Αλεξάνδρα Παλαιολόγου, Γωγώ Καρτσάνα, Γιώργος Παπαπαύλου, Λένα Δροσάκη, Δημήτρης Ξανθόπουλος, Νίκος Νικολάου, Αλέξανδρος Μούκανος, Παναγιώτης Καρμάτης, Σόλων Τσούνης, Παναγιώτα Βιτετζάκη, Εύα Κοτανίδη, Δημήτρης Πασσάς, Ιφιγένεια Καραμήτρου, Ισαβέλλα Μπαλτσαβιά, Σταύρος Τσουμάκης, Μιχαήλ Ταμπακάκης, κ.ά. Στο ρόλο της Αντιγόνης, η Μπέτυ Λιβανού Στο ρόλο του Λύσανδρου, ο Νίκος Γαλανός General Complete name : EROS.EP.01.avi Format : AVI Format/Info : Audio Video Interleave File size : 1.24 GiB Duration : 1 h 12 min Overall bit rate : 2 440 kb/s Video #0 ID : 0 Format : AVC Format/Info : Advanced Video Codec Format profile : [email protected] Format settings : 1 Ref Frames Format settings, CABAC : No Format settings, ReFrames : 1 frame Codec ID : H264 Duration : 1 h 12 min Bit rate : 2 298 kb/s Width : 1 280 pixels Height : 720 pixels Display aspect ratio : 16:9 Frame rate : 25.000 FPS Color space : YUV Chroma subsampling : 4:2:0 Bit depth : 8 bits Scan type : Progressive Bits/(Pixel*Frame) : 0.100 Stream size : 1.17 GiB (94%) Writing library : x264 core 146 r2538 121396c Audio #1 ID : 1 Format : MPEG Audio Format version : Version 1 Format profile : Layer 3 Codec ID : 55 Codec ID/Hint : MP3 Duration : 1 h 12 min Bit rate mode : Constant Bit rate : 128 kb/s Channel(s) : 2 channels Sampling rate : 48.0 kHz Compression mode : Lossy Stream size : 66.7 MiB (5%) Alignment : Aligned on interleaves Interleave, duration : 24 ms (0.60 video frame)
  12. 8 ΛΕΞΕΙΣ (2019) ΣΚΑΪ TV TVrip AVI 8 λέξεις : Kάθε μια απ΄αυτές βάζει τα θεμέλια μιας ιστορίας που θα ανατρέψει τα γεγονότα όπως τα ήξεραν οι ήρωες μέχρι σήμερα. Ένα πολιτικό θρίλερ με δραματική εξέλιξη και ήρωες που βλέπουν τις ζωές τους να κινούνται σαν μαριονέτες από μοιραία γεγονότα και συγκυρίες. Το αύριο θα γίνει αβέβαιο, τρομακτικό και ταυτόχρονα απρόσμενο και γεμάτο πάθος και όνειρα που τώρα δείχνουν πιο πιθανόν από ποτέ να πραγματοποιηθούν. Μια δυνατή ιστορία αγάπης γεμάτη διλήμματα, ίντριγκες, μυστικά και αποκαλύψεις. Ένα παθιασμένο ερωτικό τρίγωνο, μια απίστευτη πλεκτάνη που ξεκινάει από το παρελθόν για να τυλίξει στα επικίνδυνα δίχτυα της τις ζωές των ηρώων… Άνθρωποι που μέχρι χθες ζούσαν ανίδεοι για τα αποτελέσματα των επιλογών τους, δεσμοί αίματος που θα δοκιμαστούν σε ακραίες συνθήκες, ζευγάρια που στήριξαν την ευτυχία τους σε ένοχα ανομολόγητα μυστικά. Δύο πολιτικά πρόσωπα που προσπαθούν να κρυφτούν πίσω από την ψεύτικη δημόσια εικόνα τους και ένας έρωτας που θα κάψει τα πάντα στο πέρασμά του, είναι μόνο η αρχή της ιστορίας μας…. Ένας μεγάλος και απαγορευμένος έρωτας, ανάμεσα σε δυο ανθρώπους που θέλουν αλλά δεν μπορούν να είναι μαζί, γιατί οι κοινωνικές συμβάσεις είναι πιο δυνατές από το συναίσθημα που θα τους δένει κρυφά για πάντα. Τα μυστικά ανάμεσα στις οικογένειές τους είναι πολλά και η αποκάλυψή τους απειλεί να γκρεμίσει τις ζωές τους. Ο Οδυσσέας (Αντρέας Γεωργίου) είναι ένας ζωγράφος που ζει στην Κέρκυρα και ετοιμάζεται για τα εγκαίνια της πρώτης μεγάλης του έκθεσης στη Ρώμη. Η Ηλιάνα(Ειρήνη Καραγιώργη), είναι ο παντοτινός του έρωτας, μόνο που είναι παντρεμένη με τον Μιχαήλ (Ιάσωνας Παπαματθαίου), τον μεγάλο αδερφό του Οδυσσέα. Ο έρωτας, η ελπίδα για την πραγμάτωσή του και τα όνειρα των ηρώων μπλέκονται ανάμεσα σε πολιτικά παιχνίδια και ίντριγκες που σαν στόχο έχουν να καταστρέψουν όσους κρατούσαν μέχρι τώρα τα μεγάλα μυστικά. Η μητέρα των δυο αντρών, η Ναυσικά (Πέμη Ζούνη), πείθει την Ηλιάνα και τον Μιχαήλ να παραβρεθούν στα εγκαίνια της έκθεσης του Οδυσσέα στη Ρώμη για να δοθεί η ευκαιρία στα δυο αδέρφια να ξαναφτιάξουν τη σχέση τους και να κλείσουν τα στόματα του κόσμου που μιλάει. Εκεί, στην έκθεση, μια δυσάρεστη έκπληξη περιμένει τον Μιχαήλ, ο οποίος δεν ξέρει ότι όλα θα ανατραπούν με αυτή τη συνάντηση! Ένας φόνος θα περιπλέξει ακόμα περισσότερο τα πράγματα… Η επιστροφή από τη Ρώμη στην Αθήνα κρύβει γεγονότα που θα περιπλέξουν ακόμα πιο πολύ τη ζωή της οικογένειας Καλλέργη. Η Ηλιάνα θα δοκιμάσει τη μεγαλύτερη έκπληξη της ζωής της, όταν θα ανακαλύψει πως η γυναίκα που πίστευε ότι ήταν έμπιστη και στενή της φίλη, απλά δεν υπάρχει.. Πρόκειται για μια καλοστημένη συμπαιγνία που έχει σαν στόχο να παραπλανήσει την Ηλιάνα ή μήπως η ψυχολογική της κατάσταση κινείται για μια ακόμα φορά στα όρια της κατάρρευσης; Αυτό φαίνεται να πιστεύει ακόμα και ο Άκης Αρώνης (Γιώργος Παρτσαλάκης) ο πατέρας της Ηλιάνας που τρέμει για τις συνέπειες αυτής της ιστορίας. Μεγάλα προβλήματα δημιουργεί ο δημοσιογράφος Σίμος Καρατζάς (Απόστολος Γκλέτσος), ο οποίος είναι πωρωμένος με την δουλειά του και …κυνηγά τον Μιχαήλ. Η γυναίκα του Εύα Δημοπούλου (Θάλεια Ματίκα) προσπαθεί να κρατήσει τις ισορροπίες στο σπίτι και να ανταπεξέλθει στα προβλήματα του σπιτιού, λόγω των προβλημάτων υγείας της κόρης τους. Η Ναυσικά πείθει τον Μιχαήλ να πάει στην Κέρκυρα για να συμμετέχει σε μια τοπική γιορτή προκειμένου να προσεγγίσει τους Κερκυραίους και να πετύχει τους πολιτικούς του στόχους. Συμπαραστάτης στην προσπάθεια του Μιχαήλ ο αντιπρόεδρος του κόμματος Μιλτιάδης Μαρόγλου (Κούλλης Νικολάου). Στο ταξίδι αυτό ακολουθεί και η Ηλιάνα η οποία ξέρει ότι ο μόνος άνθρωπος που θα την πιστέψει είναι ο Οδυσσέας. Οι δυο ερωτευμένοι συναντιούνται στο σπίτι του Οδυσσέα, αλλά ο Μιχαήλ θα το μάθει και θα βρεθεί μπροστά σε μια σκηνή που δεν θα ήθελε ποτέ να δει! Πρωταγωνιστούν ακόμη: Ανδρέας Ανδρεόπουλος, Δανάη Παππά, Βαρβάρα Λάρμου, Ναταλία Κηρύκου, Χαριτίνη Ηλιάδου, Νέλη Αλκάδη,Ιφιγένεια Τζόλα, Νικόλας Στραβοπόδης, Αλέξης Παππάς, Πάνος Μπακανδρέας, Στέλιος Φύτρος, Ευτυχία Μέλη, Τζούλιο Φίλιππο Ντ Ερρίκο και η Έλλη Κυριακίδου. Τα παιδιά : Terra Elle Perrie, Νεφέλη Ιωσήφ, Άγγελος Γεωργίου. Σενάριο: Βάνα Δημητρίου Σκηνοθεσία: Αντρέας Γεωργίου General Complete name :LEXEIS.EP.01-02.avi Format : AVI Format/Info : Audio Video Interleave File size : 1.46 GiB Duration : 1 h 43 min Overall bit rate : 2 015 kb/s Video #0 ID : 0 Format : AVC Format/Info : Advanced Video Codec Format profile : [email protected] Format settings : 1 Ref Frames Format settings, CABAC : No Format settings, ReFrames : 1 frame Codec ID : H264 Duration : 1 h 43 min Bit rate : 1 874 kb/s Width : 1 280 pixels Height : 720 pixels Display aspect ratio : 16:9 Frame rate : 25.000 FPS Color space : YUV Chroma subsampling : 4:2:0 Bit depth : 8 bits Scan type : Progressive Bits/(Pixel*Frame) : 0.081 Stream size : 1.36 GiB (93%) Writing library : x264 core 146 r2538 121396c Audio #1 ID : 1 Format : MPEG Audio Format version : Version 1 Format profile : Layer 3 Codec ID : 55 Codec ID/Hint : MP3 Duration : 1 h 43 min Bit rate mode : Constant Bit rate : 128 kb/s Channel(s) : 2 channels Sampling rate : 48.0 kHz Compression mode : Lossy Stream size : 95.1 MiB (6%) Alignment : Aligned on interleaves Interleave, duration : 24 ms (0.60 video frame)
  13. AFTER THE WEDDING (2019) BRRip XviD AC3-EVO | ENΣΩΜΑΤΩΜΕΝΟΙ ΥΠΟΤΙΤΛΟΙ ΣΚΗΝΟΘΕΣΙΑ : Bart Freundlich ΣΕΝΑΡΙΟ : Bart Freundlich (screenplay), Susanne Bier ΗΘΟΠΟΙΟΙ : Billy Crudup, Michelle Williams, Julianne Moore ΕΙΔΟΣ : Drama ΠΡΕΜΙΕΡΑ : 14 August 2019 (Philippines) ΜΕΤΑΦΡΑΣΗ : Calamity Jane IMDB: https://www.imdb.com/title/tt7985692/ Το remake της ταινίας παρακολουθεί τη διευθύντρια ενός ινδικού ορφανοτροφείου που βρίσκεται στα πρόθυρα της χρεοκοπίας και ανακαλύπτει ότι η οργάνωσή της πρόκειται να λάβει μια μεγάλη φιλανθρωπική δωρεά από μια Αμερικανίδα πλούσια επιχειρηματία. Η διευθύντρια του ορφανοτροφείου θα αναγκαστεί να ταξιδέψει στη Νέα Υόρκη, στο παρελθόν που προσπάθησε να ξεχάσει. Η Μουρ θα υποδυθεί την πλούσια επιχειρηματία που γρήγορα αποδεικνύεται ότι δεν είναι η κατάλληλη για να στηριχθεί κάποιος πάνω της και η Ουίλιαμς θα ερμηνεύσει τον ρόλο της διευθύντριας του ορφανοτροφείου.
  14. Είδος Ταινίας: Drama Πρεμιέρα: 5 December 2019 (Greece) Σκηνοθέτης: May el-Toukhy Σενάριο: Maren Louise Kaehne (screenplay), May el-Toukhy (screenplay) Ηθοποιοί: Trine Dyrholm, Gustav Lindh, Magnus Krepper Υπότιτλοι: Ελληνικοί Ενσωματωμένοι & Σε Ξεχωριστό Αρχείο Ελληνικός Τίτλος: Η βασίλισσα της καρδιάς Γνωστό και ως: Dronningen Μετάφραση: zamandy-P.Faliro-Athens Διάρκεια: 127' Καταλληλότητα: -encoder: .:Sexmeup:. Πηγή: DANISH.1080p.WEBRip.x264.AC3.HORiZON Υπόθεση: Η Αν, μια πετυχημένη και αφοσιωμένη δικηγόρος, που ειδικεύεται στις υποθέσεις νεαρών και ανηλίκων παραβατών, ζει μια τέλεια ζωή με τον γιατρό σύζυγο της Πίτερ και τις δίδυμες κόρες τους. Όμως κάτι λείπει. Όταν ο Γκουστάβ, ο παραστρατισμένος γιος του άντρα της, μετακομίζει ξαφνικά μαζί τους, οι φευγαλέες ματιές που ανταλλάσσουν εξελίσσονται, μοιραία, σε ένα απαγορευμένο ειδύλλιο. https://www.imdb.com/title/tt8378126/ [video=youtube;iquPif3lwNQ]https://www.youtube.com/watch?v=iquPif3lwNQ ΑΝ ΘΕΛΕΤΕ ΝΑ ΣΤΗΡΙΞΕΤΕ ΤΗΝ ΔΟΥΛΕΙΑ ΜΟΥ ΚΑΝΤΕ ΕΥΚΟΛΑ ΚΑΙ ΓΡΗΓΟΡΑ ΛΟΓΑΡΙΑΣΜΟ ΣΤΟ EASYBYTEZ KAI KATEΒΑΣΤΕ ΣΑΝ PREMIUM AΠO 20HOST!! http://www.easybytez.com/free2771.html
  15. Είδος Ταινίας: Short, Crime, Drama Πρεμιέρα: June 2018 (Greece) Σκηνοθέτης: Vincent Lambe Σενάριο: Vincent Lambe Ηθοποιοί: Ely Solan, Leon Hughes, Will O'Connell Υπότιτλοι: Ελληνικοί Ενσωματωμένοι & Σε Ξεχωριστό Αρχείο Μετάφραση: VIP Team: adespoti - Myrto Διάρκεια: 30' Καταλληλότητα: -encoder: .:Sexmeup:. Πηγή: 1080p.AMZN.WEB-DL.DDP5.1.H.264-KamiKaze Υπόθεση: Η δολοφονία του Τζέιμς Μπάλτζερ στο Λίβερπουλ το 1993 συγκλόνισε τη Μεγάλη Βρετανία και όχι άδικα. Το θύμα ήταν ένα 2χρονο αγοράκι και οι θύτες ήταν 10χρονα παιδιά. https://www.imdb.com/title/tt6813264/ ΑΝ ΘΕΛΕΤΕ ΝΑ ΣΤΗΡΙΞΕΤΕ ΤΗΝ ΔΟΥΛΕΙΑ ΜΟΥ ΚΑΝΤΕ ΕΥΚΟΛΑ ΚΑΙ ΓΡΗΓΟΡΑ ΛΟΓΑΡΙΑΣΜΟ ΣΤΟ EASYBYTEZ KAI KATEΒΑΣΤΕ ΣΑΝ PREMIUM AΠO 20HOST!! http://www.easybytez.com/free2771.html
  16. Η ταινία διηγείται την ιστορία του Τζέιβντ, ενός βρετανού εφήβου πακιστανικής καταγωγής, που μεγάλωσε στην πόλη του Λούτον στην Αγγλία, το 1987. Εν μέσω φυλετικών και οικονομικών αναταραχών, γράφει ποίηση προκειμένου να «ξεφύγει» από τη μισαλλοδοξία που μαστίζει την πόλη του, και την αυστηρότητα του συντηρητικού πατέρα του. Αλλά όταν ένας συμμαθητής του, τον «μυεί» στη μουσική του Μπρους Σπρίνγκστιν, ο Τζέιβντ αισθάνεται ότι η εργατική τάξη στην οποία ανήκει εκείνος και η οικογένειά του, ταυτίζεται και αντικατοπτρίζεται στους δυνατούς στίχους του Μπρους. Καθώς ο Τζέιβτν ανακαλύπτει μία καθαρτική διέξοδο για ν΄ ακολουθήσει τα όνειρά του, ταυτόχρονα βρίσκει το θάρρος να εκφραστεί με τη δική του, μοναδική φωνή. https://www.imdb.com/title/tt8266310/ Είδος Ταινίας: Comedy, Drama, Music Πρεμιέρα: 26 September 2019 (Greece) Σκηνοθέτης: Gurinder Chadha Σενάριο: Sarfraz Manzoor (screenplay), Gurinder Chadha (screenplay) Ηθοποιοί: Billy Barratt, Ronak Singh Chadha Berges, Viveik Kalra Μετάφραση: Calamity Jane Διάρκεια: 118' EASYBYTEZ| FILEFACTORY| LINK FOR FREE USERS
  17. Είδος Ταινίας: Comedy, Drama, Music Πρεμιέρα: 26 September 2019 (Greece) Σκηνοθέτης: Gurinder Chadha Σενάριο: Sarfraz Manzoor (screenplay), Gurinder Chadha (screenplay) Ηθοποιοί: Billy Barratt, Ronak Singh Chadha Berges, Viveik Kalra Υπότιτλοι: Ελληνικοί Ενσωματωμένοι & Σε Ξεχωριστό Αρχείο Μετάφραση: Calamity Jane Διάρκεια: 118' Καταλληλότητα: -encoder: .:Sexmeup:. Πηγή: 1080p.BluRay.x264-AAA Υπόθεση: Η ταινία διηγείται την ιστορία του Τζέιβντ, ενός βρετανού εφήβου πακιστανικής καταγωγής, που μεγάλωσε στην πόλη του Λούτον στην Αγγλία, το 1987. Εν μέσω φυλετικών και οικονομικών αναταραχών, γράφει ποίηση προκειμένου να «ξεφύγει» από τη μισαλλοδοξία που μαστίζει την πόλη του, και την αυστηρότητα του συντηρητικού πατέρα του. Αλλά όταν ένας συμμαθητής του, τον «μυεί» στη μουσική του Μπρους Σπρίνγκστιν, ο Τζέιβντ αισθάνεται ότι η εργατική τάξη στην οποία ανήκει εκείνος και η οικογένειά του, ταυτίζεται και αντικατοπτρίζεται στους δυνατούς στίχους του Μπρους. Καθώς ο Τζέιβτν ανακαλύπτει μία καθαρτική διέξοδο για ν΄ ακολουθήσει τα όνειρά του, ταυτόχρονα βρίσκει το θάρρος να εκφραστεί με τη δική του, μοναδική φωνή. https://www.imdb.com/title/tt8266310/ [video=youtube;DmmHvnS0IKM]https://www.youtube.com/watch?v=DmmHvnS0IKM ΑΝ ΘΕΛΕΤΕ ΝΑ ΣΤΗΡΙΞΕΤΕ ΤΗΝ ΔΟΥΛΕΙΑ ΜΟΥ ΚΑΝΤΕ ΕΥΚΟΛΑ ΚΑΙ ΓΡΗΓΟΡΑ ΛΟΓΑΡΙΑΣΜΟ ΣΤΟ EASYBYTEZ KAI KATEΒΑΣΤΕ ΣΑΝ PREMIUM AΠO 20HOST!! http://www.easybytez.com/free2771.html
  18. Είδος Ταινίας: Short, Crime, Drama Πρεμιέρα: June 2018 (Greece) Σκηνοθέτης: Vincent Lambe Σενάριο: Vincent Lambe Ηθοποιοί: Ely Solan, Leon Hughes, Will O'Connell Υπότιτλοι: Ελληνικοί Ενσωματωμένοι & Σε Ξεχωριστό Αρχείο Μετάφραση: VIP Team: adespoti - Myrto Διάρκεια: 30' Καταλληλότητα: -encoder: .:Sexmeup:. Πηγή: 1080p.AMZN.WEB-DL.DDP5.1.H.264-KamiKaze Υπόθεση: Η δολοφονία του Τζέιμς Μπάλτζερ στο Λίβερπουλ το 1993 συγκλόνισε τη Μεγάλη Βρετανία και όχι άδικα. Το θύμα ήταν ένα 2χρονο αγοράκι και οι θύτες ήταν 10χρονα παιδιά. https://www.imdb.com/title/tt6813264/ ΑΝ ΘΕΛΕΤΕ ΝΑ ΣΤΗΡΙΞΕΤΕ ΤΗΝ ΔΟΥΛΕΙΑ ΜΟΥ ΚΑΝΤΕ ΕΥΚΟΛΑ ΚΑΙ ΓΡΗΓΟΡΑ ΛΟΓΑΡΙΑΣΜΟ ΣΤΟ EASYBYTEZ KAI KATEΒΑΣΤΕ ΣΑΝ PREMIUM AΠO 20HOST!! http://www.easybytez.com/free2771.html
  19. Είδος Ταινίας: Drama, History Πρεμιέρα: 13 November 1943 (Denmark) Σκηνοθέτης: Carl Theodor Dreyer Σενάριο: Carl Theodor Dreyer Ηθοποιοί: Thorkild Roose, Lisbeth Movin, Sigrid Neiiendam Υπότιτλοι: Ελληνικοί Ενσωματωμένοι & Σε Ξεχωριστό Αρχείο Ελληνικός Τίτλος: Μέρες Οργής Γνωστό και ως: Vredens dag Μετάφραση: [email protected] Διάρκεια: 97' Καταλληλότητα: -encoder: .:Sexmeup:. Πηγή: 1080p.BluRay.X264-GHOULS Υπόθεση: Σε ένα δανέζικο χωριό τον 17ο αιώνα, μια γριά γυναίκα κατηγορείται ως μάγισσα. Υπό την σκιά της δίκης και του κάψιμου της γυναίκας, η νεαρή σύζυγος του πάστορα ερωτεύεται τον γιο του. Τώρα έρχεται η σειρά της. https://www.imdb.com/title/tt0036506/ [video=youtube;6_SATxIRMts]https://www.youtube.com/watch?v=6_SATxIRMts ΑΝ ΘΕΛΕΤΕ ΝΑ ΣΤΗΡΙΞΕΤΕ ΤΗΝ ΔΟΥΛΕΙΑ ΜΟΥ ΚΑΝΤΕ ΕΥΚΟΛΑ ΚΑΙ ΓΡΗΓΟΡΑ ΛΟΓΑΡΙΑΣΜΟ ΣΤΟ EASYBYTEZ KAI KATEΒΑΣΤΕ ΣΑΝ PREMIUM AΠO 20HOST!! http://www.easybytez.com/free2771.html
  20. Είδος Ταινίας: Drama Πρεμιέρα: 5 December 2019 (Greece) Σκηνοθέτης: May el-Toukhy Σενάριο: Maren Louise Kaehne (screenplay), May el-Toukhy (screenplay) Ηθοποιοί: Trine Dyrholm, Gustav Lindh, Magnus Krepper Υπότιτλοι: Ελληνικοί Ενσωματωμένοι & Σε Ξεχωριστό Αρχείο Ελληνικός Τίτλος: Η βασίλισσα της καρδιάς Γνωστό και ως: Dronningen Μετάφραση: zamandy-P.Faliro-Athens Διάρκεια: 127' Καταλληλότητα: -encoder: .:Sexmeup:. Πηγή: DANISH.1080p.WEBRip.x264.AC3.HORiZON Υπόθεση: Η Αν, μια πετυχημένη και αφοσιωμένη δικηγόρος, που ειδικεύεται στις υποθέσεις νεαρών και ανηλίκων παραβατών, ζει μια τέλεια ζωή με τον γιατρό σύζυγο της Πίτερ και τις δίδυμες κόρες τους. Όμως κάτι λείπει. Όταν ο Γκουστάβ, ο παραστρατισμένος γιος του άντρα της, μετακομίζει ξαφνικά μαζί τους, οι φευγαλέες ματιές που ανταλλάσσουν εξελίσσονται, μοιραία, σε ένα απαγορευμένο ειδύλλιο. https://www.imdb.com/title/tt8378126/ [video=youtube;iquPif3lwNQ]https://www.youtube.com/watch?v=iquPif3lwNQ ΑΝ ΘΕΛΕΤΕ ΝΑ ΣΤΗΡΙΞΕΤΕ ΤΗΝ ΔΟΥΛΕΙΑ ΜΟΥ ΚΑΝΤΕ ΕΥΚΟΛΑ ΚΑΙ ΓΡΗΓΟΡΑ ΛΟΓΑΡΙΑΣΜΟ ΣΤΟ EASYBYTEZ KAI KATEΒΑΣΤΕ ΣΑΝ PREMIUM AΠO 20HOST!! http://www.easybytez.com/free2771.html
  21. Είδος Ταινίας: Drama, History Πρεμιέρα: 13 November 1943 (Denmark) Σκηνοθέτης: Carl Theodor Dreyer Σενάριο: Carl Theodor Dreyer Ηθοποιοί: Thorkild Roose, Lisbeth Movin, Sigrid Neiiendam Υπότιτλοι: Ελληνικοί Ενσωματωμένοι & Σε Ξεχωριστό Αρχείο Ελληνικός Τίτλος: Μέρες Οργής Γνωστό και ως: Vredens dag Μετάφραση: [email protected] Διάρκεια: 97' Καταλληλότητα: -encoder: .:Sexmeup:. Πηγή: 1080p.BluRay.X264-GHOULS Υπόθεση: Σε ένα δανέζικο χωριό τον 17ο αιώνα, μια γριά γυναίκα κατηγορείται ως μάγισσα. Υπό την σκιά της δίκης και του κάψιμου της γυναίκας, η νεαρή σύζυγος του πάστορα ερωτεύεται τον γιο του. Τώρα έρχεται η σειρά της. https://www.imdb.com/title/tt0036506/ [video=youtube;6_SATxIRMts]https://www.youtube.com/watch?v=6_SATxIRMts ΑΝ ΘΕΛΕΤΕ ΝΑ ΣΤΗΡΙΞΕΤΕ ΤΗΝ ΔΟΥΛΕΙΑ ΜΟΥ ΚΑΝΤΕ ΕΥΚΟΛΑ ΚΑΙ ΓΡΗΓΟΡΑ ΛΟΓΑΡΙΑΣΜΟ ΣΤΟ EASYBYTEZ KAI KATEΒΑΣΤΕ ΣΑΝ PREMIUM AΠO 20HOST!! http://www.easybytez.com/free2771.html
  22. Είδος Ταινίας: Drama, Romance Πρεμιέρα: 12 September 2019 (Greece) Σκηνοθέτης: Michael Engler Σενάριο: Julian Fellowes (characters), Julian Fellowes (screenplay by) Ηθοποιοί: Matthew Goode, Michelle Dockery, Maggie Smith Υπότιτλοι: Ελληνικοί Ενσωματωμένοι & Σε Ξεχωριστό Αρχείο Ελληνικός Τίτλος: Ο Πύργος του Downton Μετάφραση: Calamity Jane Διάρκεια: 122' Καταλληλότητα: -encoder: .:Sexmeup:. Πηγή: 1080p.WEB-DL.DD5.1.H264-CMRG Υπόθεση: Η άφιξη του Βασιλιά Γεωργίου Ε΄ της Μεγάλης Βρετανίας και της Βασίλισσας Μαίρης, θα σημάνει συναγερμό στο επάνω σπίτι όπου διαμένει η οικογένεια, αλλά κυρίως στο κάτω σπίτι, καθώς τα πάντα πρέπει να είναι στην εντέλεια και ο χρόνος είναι περιορισμένος για μια επίσκεψη τέτοιων απαιτήσεων. Όμως, βρισκόμαστε στα μέσα της ταραγμένης δεκαετίας του '20 και τα χρόνια της μεγάλης δόξας έχουν παρέλθει. Η αριστοκρατική τάξη βρίσκεται στα πρόθυρα μιας νέας εποχής και η άλλοτε καλογυαλισμένη μηχανή του σπιτιού αρχίζει και παρουσιάζει προβλήματα στη λειτουργία της. https://www.imdb.com/title/tt6398184/ [video=youtube;tu3mP0c51hE]https://www.youtube.com/watch?v=tu3mP0c51hE ΑΝ ΘΕΛΕΤΕ ΝΑ ΣΤΗΡΙΞΕΤΕ ΤΗΝ ΔΟΥΛΕΙΑ ΜΟΥ ΚΑΝΤΕ ΕΥΚΟΛΑ ΚΑΙ ΓΡΗΓΟΡΑ ΛΟΓΑΡΙΑΣΜΟ ΣΤΟ EASYBYTEZ KAI KATEΒΑΣΤΕ ΣΑΝ PREMIUM AΠO 20HOST!! http://www.easybytez.com/free2771.html
  23. Είδος Σειράς: Κοινωνική Σκηνοθεσία: Βασίλης Τσελεμέγκος Σενάριο: Κώστας Ζυρίνης Ηθοποιοί: Μυρτώ Αλικάκη (Μάγδα) , Δημήτρης Βογιατζής (II) (Λευτέρης) , Φρόσω Λύτρα (Άννα) , Άντρια Ράπτη (Μαργαρίτα) , Ρένος Χαραλαμπίδης (Μιχάλης) , Ανθή Ανδρεοπούλου (Σταυρούλα Πετράτου) , Τάσος Κωστής (Δήμαρχος) , Γιώργος Κοτανίδης (Πετρόπουλος) , Κώστας Στεφανάκης , Δημήτρης Κατσούλης , Ισίδωρος Μαβίδης , Νίκος Κούρος (κυρ-Βαγγέλης) , Κωνσταντίνος Πιλάβιος (Σάκης) , Βασίλης Τσιπίδης (Καλαμπόγιας) , Άννα Πολυτίμου (Βασίλω) , Φώτης Ρενιέρης (αστυνόμος) , Κώστας Αποστολάκης (Μανώλης) , Μάνος Γαβράς , Μαρίνα Βινιέρη , Δημήτρης Καλλιβωκάς , Χάρης Γρηγορόπουλος , Μαρία Καντιφέ , Αλέξανδρος Μούκανος , Γιώτα Τάττου , Χρήστος Μαρίνης , Βασίλης Τσελεμέγκος (εκδότης Μαρινάτος) , Κίμων Ρηγόπουλος , Υβόννη Μαλτέζου , Βαγγέλης Θεοδωρόπουλος , Γιώργος Λαζάρου , Χρήστος Γεωργίου (II) , Ανδρέας Λάμπρου , Χριστίνα Λαζάρου , Μανωλία Λαζάρου , Νίκος Δαφνής , Νίκος Κατής , Θανάσης Γεωργάκης , Γιώργος Σαμπάνης , Γιώργος Γεωγλερής , Θάνος Παπαδόπουλος , Νότα Ρουμαντζά , Στηβ Ντούζος , Αιμίλιος Χειλάκης , Ηλίας Καπερώνης , Γαλήνη Tσεβά , Δημήτρης Βέλλιος , Όλγα Μανέτα , Παναγιώτης Σακελλαρίου , Γιάννης Σαμπάνης , Παναγιώτης Χαλκιάς , Γιώργος Γιαννόπουλος , Βάνα Πεφάνη , Χρήστος Χόλης , Αγγελική Κυριαζάκη , Μάκης Θεοδοσίου Κανάλι: ΕΤ1 Επεισόδια: 13 Τέσσερις νέοι, ο Μιχάλης, η Άννα, ο Λευτέρης και η Μαργαρίτα, με τη βοήθεια του πατέρα του Μιχάλη, του μεγαλοδικηγόρου Πετρόπουλου, εξασφαλίζουν ένα νεοκλασικό κτίριο στην Πλάκα για να το μετατρέψουν σε νεανικό πολιτιστικό κέντρο. Στην παρέα προστίθεται και μια εκκολαπτόμενη δημοσιογράφος, η Μάγδα, που εκφράζει την επιθυμία να συμμετέχει στην προσπάθεια των νέων να προτείνουν καινούριους τρόπους ψυχαγωγίας στη νεολαία της περιοχής. Όταν ανακαλύπτουν ένα ταχυδρομικό σάκο με γράμματα από το 1984, αναζητούν τους παραλήπτες των γραμμάτων.
  24. Είδος Ταινίας: Drama Πρεμιέρα: 2 October 2019 (France) Σκηνοθέτης: Mati Diop Σενάριο: Mati Diop (screenplay by), Olivier Demangel (screenplay by) Ηθοποιοί: Abdou Balde, Aminata Kane, Ibrahima Mbaye Υπότιτλοι: Ελληνικοί Ενσωματωμένοι & Σε Ξεχωριστό Αρχείο Μετάφραση: Γιώργος Λυκούδης Διάρκεια: 106' Καταλληλότητα: -encoder: .:Sexmeup:. Πηγή: 1080p.NF.WEB-DL.DDP5.1.x264-NTG Υπόθεση: Λογοδοσμένη σε έναν πλούσιο άντρα, η Άντα συγκλονίζεται όταν ο πραγματικός της έρωτας εξαφανίζεται προσπαθώντας να μεταναστεύσει. Ένα θαύμα όμως τους φέρνει πάλι κοντά. https://www.imdb.com/title/tt10199586/ [video=youtube;HebCdyq1AE4]https://www.youtube.com/watch?v=HebCdyq1AE4&t=2s ΑΝ ΘΕΛΕΤΕ ΝΑ ΣΤΗΡΙΞΕΤΕ ΤΗΝ ΔΟΥΛΕΙΑ ΜΟΥ ΚΑΝΤΕ ΕΥΚΟΛΑ ΚΑΙ ΓΡΗΓΟΡΑ ΛΟΓΑΡΙΑΣΜΟ ΣΤΟ EASYBYTEZ KAI KATEΒΑΣΤΕ ΣΑΝ PREMIUM AΠO 20HOST!! http://www.easybytez.com/free2771.html
  25. Είδος Ταινίας: Drama, Sport Πρεμιέρα: 19 July 2019 (USA) Σκηνοθέτης: Kylie Claude, Rody Claude Σενάριο: Kylie Claude, Rody Claude Ηθοποιοί: Adam T Perkins, Alex McTavish, Ek Harris Υπότιτλοι: Ελληνικοί Ενσωματωμένοι & Σε Ξεχωριστό Αρχείο Μετάφραση: Άγνωστος Διάρκεια: 94' Καταλληλότητα: -encoder: .:Sexmeup:. Πηγή: 1080p.WEB-DL.H264.AC3-EVO Υπόθεση: Ένας νεαρός ανακαλύπτει τις απαντήσεις για το παρελθόν του που είναι τόσο συγκινητικό όσο και τραγικό, καθώς το μπάσκετ γίνεται κάτι παραπάνω από ένα παιχνίδι. https://www.imdb.com/title/tt5987700/ [video=youtube;Mow4-djwdLc]https://www.youtube.com/watch?v=Mow4-djwdLc ΑΝ ΘΕΛΕΤΕ ΝΑ ΣΤΗΡΙΞΕΤΕ ΤΗΝ ΔΟΥΛΕΙΑ ΜΟΥ ΚΑΝΤΕ ΕΥΚΟΛΑ ΚΑΙ ΓΡΗΓΟΡΑ ΛΟΓΑΡΙΑΣΜΟ ΣΤΟ EASYBYTEZ KAI KATEΒΑΣΤΕ ΣΑΝ PREMIUM AΠO 20HOST!! http://www.easybytez.com/free2771.html
×