Jump to content

Search the Community

Showing results for tags 'κοινωνικό'.



More search options

  • Search By Tags

    Type tags separated by commas.
  • Search By Author

Content Type


Forums

  • ΓΕΝΙΚΑ - GENERAL
    • Γενικές Ανακοινώσεις - General Announcements
    • Κανόνες - Rules
    • Βοηθητικοί Οδηγοί
    • Συζήτηση - Discussion
    • Συστηθείτε - Introduse yourself
    • Γαστρονομικές Οπτασίες - Recipes
    • Το γέλιο είναι μεταδοτικό... Μεταδώστε το!!! - Fun Place
    • Υγεία
  • ΕΛΛΗΝΙΚΗ ΜΟΥΣΙΚΗ - GREEK MUSIC
    • Νέα CDs 2016-2020
    • Promos
    • Single Remix
    • Ελληνικά Ψηφιακά Cds - Greek Digital Cds
    • Ελληνικά CDs 2010-2015
    • Παλαιότερα Ελληνικά CDs μέχρι το 2009
    • Παραδοσιακά CDs
    • Ρεμπέτικο Στέκι
    • Δισκάκια 45 στροφών και γραμμοφώνου
    • Επανεκδόσεις
    • Συλλογές
    • Box Set Collections
    • Ελληνικά Mix - Remix
    • Παιδικά Ελληνικά CDs
    • Δισκογραφίες
  • ΞΕΝΗ ΜΟΥΣΙΚΗ - INTERNATIONAL MUSIC
    • Νέα CDs 2016-2020
    • Promos
    • Παλαιότερα Ξένα CDs
    • Συλλογές
    • Box Set Collections
    • Ξένα Mix - Remix
    • Παιδικά Ξένα CDs
    • Δισκογραφίες
  • ΜΟΥΣΙΚΗ ΣΕ ΠΟΙΟΤΗΤΑ LOSSLESS
    • Ελληνικά CDs
    • Ξένα CDs
  • ΤΑΙΝΙΕΣ - MOVIES
    • Ξένες Ταινίες με ελληνικούς υπότιτλους 2016 - 2020
    • Ελληνικές Ταινίες - Greek Movies
    • Παλαιότερες Κλασσικές Ξένες Ταινίες (μέχρι το 1990)
    • Ξένες Ταινίες με ελληνικούς υπότιτλους 1991 - 2015
    • Ξένες Ταινίες HD 720p BRRIP Avi
    • Ξένες Ταινίες BluRay
    • Ξένες Ταινίες Micro HD
    • Φιλμογραφίες
    • Παιδικές Ταινίες
    • Ντοκιμαντέρ
    • Θεατρικές Παραστάσεις
  • ΕΠΟΧΙΑΚΑ
    • Χριστούγεννα
    • Πάσχα
    • Αποκριές
    • Αγίου Βαλεντίνου
  • ΤΗΛΕΟΠΤΙΚΟ ΠΡΟΓΡΑΜΜΑ
    • Ελληνικές Σειρές
    • Ξένες Σειρές
    • Τούρκικες Σειρές
    • Τηλεοπτικές Eκπομπές
    • WWE SmackDown
  • ΠΑΙΧΝΙΔΙΑ - GAMES
    • Pc Games
    • Play Station Games
    • XBOX
    • Mac Games
  • ΕΦΑΡΜΟΓΕΣ - ΠΡΟΓΡΑΜΜΑΤΑ
    • Λειτουργικά Προγράμματα
    • Προγράμματα Προστασίας
    • Εργαλεία Συστήματος
    • Εργαλεία Πολυμέσων
    • Portable Προγράμματα
    • Προγράμματα για Mac
    • Internet Tools
    • Tutorials
  • E-BOOKS
    • Έλληνες Συγγραφείς
    • Ξένοι Συγγραφείς
    • Κόμικς
    • Περιοδικά
    • Audio Books
  • ΑΝΑΖΗΤΗΣΗ
    • Μουσική
    • Ταινίες - Σειρές
    • Παιχνίδια
    • Προγράμματα
    • E-Books
  • V.I.P

Find results in...

Find results that contain...


Date Created

  • Start

    End


Last Updated

  • Start

    End


Filter by number of...

Found 1,226 results

  1. 8 ΛΕΞΕΙΣ (2019) ΣΚΑΪ TV TVrip AVI 8 λέξεις : Kάθε μια απ΄αυτές βάζει τα θεμέλια μιας ιστορίας που θα ανατρέψει τα γεγονότα όπως τα ήξεραν οι ήρωες μέχρι σήμερα. Ένα πολιτικό θρίλερ με δραματική εξέλιξη και ήρωες που βλέπουν τις ζωές τους να κινούνται σαν μαριονέτες από μοιραία γεγονότα και συγκυρίες. Το αύριο θα γίνει αβέβαιο, τρομακτικό και ταυτόχρονα απρόσμενο και γεμάτο πάθος και όνειρα που τώρα δείχνουν πιο πιθανόν από ποτέ να πραγματοποιηθούν. Μια δυνατή ιστορία αγάπης γεμάτη διλήμματα, ίντριγκες, μυστικά και αποκαλύψεις. Ένα παθιασμένο ερωτικό τρίγωνο, μια απίστευτη πλεκτάνη που ξεκινάει από το παρελθόν για να τυλίξει στα επικίνδυνα δίχτυα της τις ζωές των ηρώων… Άνθρωποι που μέχρι χθες ζούσαν ανίδεοι για τα αποτελέσματα των επιλογών τους, δεσμοί αίματος που θα δοκιμαστούν σε ακραίες συνθήκες, ζευγάρια που στήριξαν την ευτυχία τους σε ένοχα ανομολόγητα μυστικά. Δύο πολιτικά πρόσωπα που προσπαθούν να κρυφτούν πίσω από την ψεύτικη δημόσια εικόνα τους και ένας έρωτας που θα κάψει τα πάντα στο πέρασμά του, είναι μόνο η αρχή της ιστορίας μας…. Ένας μεγάλος και απαγορευμένος έρωτας, ανάμεσα σε δυο ανθρώπους που θέλουν αλλά δεν μπορούν να είναι μαζί, γιατί οι κοινωνικές συμβάσεις είναι πιο δυνατές από το συναίσθημα που θα τους δένει κρυφά για πάντα. Τα μυστικά ανάμεσα στις οικογένειές τους είναι πολλά και η αποκάλυψή τους απειλεί να γκρεμίσει τις ζωές τους. Ο Οδυσσέας (Αντρέας Γεωργίου) είναι ένας ζωγράφος που ζει στην Κέρκυρα και ετοιμάζεται για τα εγκαίνια της πρώτης μεγάλης του έκθεσης στη Ρώμη. Η Ηλιάνα(Ειρήνη Καραγιώργη), είναι ο παντοτινός του έρωτας, μόνο που είναι παντρεμένη με τον Μιχαήλ (Ιάσωνας Παπαματθαίου), τον μεγάλο αδερφό του Οδυσσέα. Ο έρωτας, η ελπίδα για την πραγμάτωσή του και τα όνειρα των ηρώων μπλέκονται ανάμεσα σε πολιτικά παιχνίδια και ίντριγκες που σαν στόχο έχουν να καταστρέψουν όσους κρατούσαν μέχρι τώρα τα μεγάλα μυστικά. Η μητέρα των δυο αντρών, η Ναυσικά (Πέμη Ζούνη), πείθει την Ηλιάνα και τον Μιχαήλ να παραβρεθούν στα εγκαίνια της έκθεσης του Οδυσσέα στη Ρώμη για να δοθεί η ευκαιρία στα δυο αδέρφια να ξαναφτιάξουν τη σχέση τους και να κλείσουν τα στόματα του κόσμου που μιλάει. Εκεί, στην έκθεση, μια δυσάρεστη έκπληξη περιμένει τον Μιχαήλ, ο οποίος δεν ξέρει ότι όλα θα ανατραπούν με αυτή τη συνάντηση! Ένας φόνος θα περιπλέξει ακόμα περισσότερο τα πράγματα… Η επιστροφή από τη Ρώμη στην Αθήνα κρύβει γεγονότα που θα περιπλέξουν ακόμα πιο πολύ τη ζωή της οικογένειας Καλλέργη. Η Ηλιάνα θα δοκιμάσει τη μεγαλύτερη έκπληξη της ζωής της, όταν θα ανακαλύψει πως η γυναίκα που πίστευε ότι ήταν έμπιστη και στενή της φίλη, απλά δεν υπάρχει.. Πρόκειται για μια καλοστημένη συμπαιγνία που έχει σαν στόχο να παραπλανήσει την Ηλιάνα ή μήπως η ψυχολογική της κατάσταση κινείται για μια ακόμα φορά στα όρια της κατάρρευσης; Αυτό φαίνεται να πιστεύει ακόμα και ο Άκης Αρώνης (Γιώργος Παρτσαλάκης) ο πατέρας της Ηλιάνας που τρέμει για τις συνέπειες αυτής της ιστορίας. Μεγάλα προβλήματα δημιουργεί ο δημοσιογράφος Σίμος Καρατζάς (Απόστολος Γκλέτσος), ο οποίος είναι πωρωμένος με την δουλειά του και …κυνηγά τον Μιχαήλ. Η γυναίκα του Εύα Δημοπούλου (Θάλεια Ματίκα) προσπαθεί να κρατήσει τις ισορροπίες στο σπίτι και να ανταπεξέλθει στα προβλήματα του σπιτιού, λόγω των προβλημάτων υγείας της κόρης τους. Η Ναυσικά πείθει τον Μιχαήλ να πάει στην Κέρκυρα για να συμμετέχει σε μια τοπική γιορτή προκειμένου να προσεγγίσει τους Κερκυραίους και να πετύχει τους πολιτικούς του στόχους. Συμπαραστάτης στην προσπάθεια του Μιχαήλ ο αντιπρόεδρος του κόμματος Μιλτιάδης Μαρόγλου (Κούλλης Νικολάου). Στο ταξίδι αυτό ακολουθεί και η Ηλιάνα η οποία ξέρει ότι ο μόνος άνθρωπος που θα την πιστέψει είναι ο Οδυσσέας. Οι δυο ερωτευμένοι συναντιούνται στο σπίτι του Οδυσσέα, αλλά ο Μιχαήλ θα το μάθει και θα βρεθεί μπροστά σε μια σκηνή που δεν θα ήθελε ποτέ να δει! Πρωταγωνιστούν ακόμη: Ανδρέας Ανδρεόπουλος, Δανάη Παππά, Βαρβάρα Λάρμου, Ναταλία Κηρύκου, Χαριτίνη Ηλιάδου, Νέλη Αλκάδη,Ιφιγένεια Τζόλα, Νικόλας Στραβοπόδης, Αλέξης Παππάς, Πάνος Μπακανδρέας, Στέλιος Φύτρος, Ευτυχία Μέλη, Τζούλιο Φίλιππο Ντ Ερρίκο και η Έλλη Κυριακίδου. Τα παιδιά : Terra Elle Perrie, Νεφέλη Ιωσήφ, Άγγελος Γεωργίου. Σενάριο: Βάνα Δημητρίου Σκηνοθεσία: Αντρέας Γεωργίου General Complete name :LEXEIS.EP.01-02.avi Format : AVI Format/Info : Audio Video Interleave File size : 1.46 GiB Duration : 1 h 43 min Overall bit rate : 2 015 kb/s Video #0 ID : 0 Format : AVC Format/Info : Advanced Video Codec Format profile : [email protected] Format settings : 1 Ref Frames Format settings, CABAC : No Format settings, ReFrames : 1 frame Codec ID : H264 Duration : 1 h 43 min Bit rate : 1 874 kb/s Width : 1 280 pixels Height : 720 pixels Display aspect ratio : 16:9 Frame rate : 25.000 FPS Color space : YUV Chroma subsampling : 4:2:0 Bit depth : 8 bits Scan type : Progressive Bits/(Pixel*Frame) : 0.081 Stream size : 1.36 GiB (93%) Writing library : x264 core 146 r2538 121396c Audio #1 ID : 1 Format : MPEG Audio Format version : Version 1 Format profile : Layer 3 Codec ID : 55 Codec ID/Hint : MP3 Duration : 1 h 43 min Bit rate mode : Constant Bit rate : 128 kb/s Channel(s) : 2 channels Sampling rate : 48.0 kHz Compression mode : Lossy Stream size : 95.1 MiB (6%) Alignment : Aligned on interleaves Interleave, duration : 24 ms (0.60 video frame)
  2. Είδος Ταινίας: Drama Πρεμιέρα: 19 September 2019 (Greece) Σκηνοθέτης: John Crowley Σενάριο: Peter Straughan (screenplay by), Donna Tartt (based on the novel by) Ηθοποιοί: Oakes Fegley, Ansel Elgort, Nicole Kidman Υπότιτλοι: Ελληνικοί Ενσωματωμένοι & Σε Ξεχωριστό Αρχείο Ελληνικός Τίτλος: Η καρδερίνα Μετάφραση: Αγγελική Γκέκα Διάρκεια: 149' Καταλληλότητα: -encoder: .:Sexmeup:. Πηγή: 1080p.BluRay.x264-GECKOS Υπόθεση: Ο Θεόδωρος "Θίο" Ντέκερ ήταν 13 ετών όταν η μητέρα του σκοτώθηκε σε βομβιστική επίθεση στο Μητροπολιτικό Μουσείο Τέχνης. Η τραγωδία αυτή αλλάζει την πορεία της ζωής του, γεμίζοντάς τον θλίψη και ενοχή αλλά και δημιουργώντας του την ανάγκη να αναγεννηθεί, να λυτρωθεί, να αγαπήσει. Παλεύοντας με όλα αυτά, κρατά μέσα του, ως θραύσμα ελπίδας από εκείνη τη μέρα, ένα μικρό κομμάτι από έναν πίνακα, στον οποίο απεικονίζεται μία καρδερίνα σε ένα κλουβί. https://www.imdb.com/title/tt3864056/ ΑΝ ΘΕΛΕΤΕ ΝΑ ΣΤΗΡΙΞΕΤΕ ΤΗΝ ΔΟΥΛΕΙΑ ΜΟΥ ΚΑΝΤΕ ΕΥΚΟΛΑ ΚΑΙ ΓΡΗΓΟΡΑ ΛΟΓΑΡΙΑΣΜΟ ΣΤΟ EASYBYTEZ KAI KATEΒΑΣΤΕ ΣΑΝ PREMIUM AΠO 20HOST!! http://www.easybytez.com/free2771.html
  3. Είδος Ταινίας: Drama Πρεμιέρα: 1967 (Greece) Σκηνοθέτης: Nikos Papatakis Σενάριο: Nikos Papatakis (screenplay), Nikos Papatakis (story) Ηθοποιοί: Olga Karlatos, George Dialegmenos, Lambros Tsangas Υπότιτλοι: Ελληνικοί Ενσωματωμένοι & Σε Ξεχωριστό Αρχείο Ελληνικός Τίτλος: Οι βοσκοί Γνωστό και ως: The Shepherds of Calamity Μετάφραση: Ελληνικός Ήχος Διάρκεια: 120' Καταλληλότητα: -encoder: .:Sexmeup:. Πηγή: 1080p.BluRay.x264-BiPOLAR Υπόθεση: Ο Θάνος, ένας φτωχός βοσκός που επέστρεψε μετανάστης από τη Γερμανία, απάγει την κόρη ενός πλούσιου τσέλιγκα, θέτοντας έτσι σε κίνηση το μηχανισμό της μοίρας: άνδρες της Χωροφυλακής καταδιώκουν το ζευγάρι στο βουνό, με τραγική κατάληξη. https://www.imdb.com/title/tt0061084/ ΜΗ ΔΙΑΘΈΣΙΜΟ ΑΝ ΘΕΛΕΤΕ ΝΑ ΣΤΗΡΙΞΕΤΕ ΤΗΝ ΔΟΥΛΕΙΑ ΜΟΥ ΚΑΝΤΕ ΕΥΚΟΛΑ ΚΑΙ ΓΡΗΓΟΡΑ ΛΟΓΑΡΙΑΣΜΟ ΣΤΟ EASYBYTEZ KAI KATEΒΑΣΤΕ ΣΑΝ PREMIUM AΠO 20HOST!! http://www.easybytez.com/free2771.html
  4. Είδος Ταινίας: Drama Πρεμιέρα: 19 September 2019 (Greece) Σκηνοθέτης: John Crowley Σενάριο: Peter Straughan (screenplay by), Donna Tartt (based on the novel by) Ηθοποιοί: Oakes Fegley, Ansel Elgort, Nicole Kidman Υπότιτλοι: Ελληνικοί Ενσωματωμένοι & Σε Ξεχωριστό Αρχείο Ελληνικός Τίτλος: Η καρδερίνα Μετάφραση: Αγγελική Γκέκα Διάρκεια: 149' Καταλληλότητα: -encoder: .:Sexmeup:. Πηγή: 1080p.BluRay.x264-GECKOS Υπόθεση: Ο Θεόδωρος "Θίο" Ντέκερ ήταν 13 ετών όταν η μητέρα του σκοτώθηκε σε βομβιστική επίθεση στο Μητροπολιτικό Μουσείο Τέχνης. Η τραγωδία αυτή αλλάζει την πορεία της ζωής του, γεμίζοντάς τον θλίψη και ενοχή αλλά και δημιουργώντας του την ανάγκη να αναγεννηθεί, να λυτρωθεί, να αγαπήσει. Παλεύοντας με όλα αυτά, κρατά μέσα του, ως θραύσμα ελπίδας από εκείνη τη μέρα, ένα μικρό κομμάτι από έναν πίνακα, στον οποίο απεικονίζεται μία καρδερίνα σε ένα κλουβί. https://www.imdb.com/title/tt3864056/ ΑΝ ΘΕΛΕΤΕ ΝΑ ΣΤΗΡΙΞΕΤΕ ΤΗΝ ΔΟΥΛΕΙΑ ΜΟΥ ΚΑΝΤΕ ΕΥΚΟΛΑ ΚΑΙ ΓΡΗΓΟΡΑ ΛΟΓΑΡΙΑΣΜΟ ΣΤΟ EASYBYTEZ KAI KATEΒΑΣΤΕ ΣΑΝ PREMIUM AΠO 20HOST!! http://www.easybytez.com/free2771.html
  5. Είδος Ταινίας: Drama Πρεμιέρα: 10 January 2020 (USA) Σκηνοθέτης: Destin Daniel Cretton Σενάριο: Destin Daniel Cretton, Andrew Lanham Ηθοποιοί: Brie Larson, Michael B. Jordan, O'Shea Jackson Jr. Υπότιτλοι: Ελληνικοί Ενσωματωμένοι & Σε Ξεχωριστό Αρχείο Ελληνικός Τίτλος: Αγώνας για Δικαιοσύνη Μετάφραση: Αγγελική Γκέκα Διάρκεια: 137' Καταλληλότητα: -encoder: .:Sexmeup:. Πηγή: 1080p.Bluray.Atmos.TrueHD.7.1.x264-EVO Υπόθεση: Μια δυνατή και αληθινή ιστορία που προκαλεί το μυαλό. Ακολουθεί τα βήματα του νεαρού δικηγόρου Μπράιαν Στίβενσον (Τζόρνταν) και τη μάχη του με τη δικαιοσύνη, που άφησε ιστορία. Μετά την αποφοίτησή του από το Χάρβαρντ, ο Μπράιαν θα μπορούσε να είχε επιλέξει μία προσοδοφόρα επαγγελματική πορεία. Αντίθετα, κατευθύνεται σ την Αλαμπάμα προκειμένου να υπερασπιστεί όσους καταδικάζονται άδικα, έχοντας την υποστήριξη της δικηγόρου Εύα Άνσλεϊ (Λάρσον). Μία από τις πρώτες και πιο εκρηκτικές υποθέσεις που αναλαμβάνει, είναι εκείνη του Γουόλτερ ΜακΜίλαν (Φοξ), που το 1987, καταδικάζεται σε θάνατο για την περιβόητη δολοφονία ενός 18χρονου κοριτσιού, παρά την ύπαρξη αποδεικτικών στοιχείων που αποδεικνύουν την αθωότητά του και του γεγονότος ότι η μόνη μαρτυρία εναντίον του, ήταν από έναν εγκληματία που είχε κίνητρο να αποκρύψει την αλήθεια. Στα χρόνια που ακολούθησαν, ο Μπράιαν εμπλέκεται σε ένα λαβύρινθο νομικών και πολιτικών παρασκηνίων και απροκάλυπτου και αναίσχυντου ρατσισμού, καθώς παλεύει για τον Γουόλτερ και άλλους σαν αυτόν, με τις πιθανότητες - και το σύστημα - να είναι εναντίον τους. https://www.imdb.com/title/tt4916630/ ΑΝ ΘΕΛΕΤΕ ΝΑ ΣΤΗΡΙΞΕΤΕ ΤΗΝ ΔΟΥΛΕΙΑ ΜΟΥ ΚΑΝΤΕ ΕΥΚΟΛΑ ΚΑΙ ΓΡΗΓΟΡΑ ΛΟΓΑΡΙΑΣΜΟ ΣΤΟ EASYBYTEZ KAI KATEΒΑΣΤΕ ΣΑΝ PREMIUM AΠO 20HOST!! http://www.easybytez.com/free2771.html
  6. Είδος Ταινίας: Drama Πρεμιέρα: 10 January 2020 (USA) Σκηνοθέτης: Destin Daniel Cretton Σενάριο: Destin Daniel Cretton, Andrew Lanham Ηθοποιοί: Brie Larson, Michael B. Jordan, O'Shea Jackson Jr. Υπότιτλοι: Ελληνικοί Ενσωματωμένοι & Σε Ξεχωριστό Αρχείο Ελληνικός Τίτλος: Αγώνας για Δικαιοσύνη Μετάφραση: Αγγελική Γκέκα Διάρκεια: 137' Καταλληλότητα: -encoder: .:Sexmeup:. Πηγή: 1080p.Bluray.Atmos.TrueHD.7.1.x264-EVO Υπόθεση: Μια δυνατή και αληθινή ιστορία που προκαλεί το μυαλό. Ακολουθεί τα βήματα του νεαρού δικηγόρου Μπράιαν Στίβενσον (Τζόρνταν) και τη μάχη του με τη δικαιοσύνη, που άφησε ιστορία. Μετά την αποφοίτησή του από το Χάρβαρντ, ο Μπράιαν θα μπορούσε να είχε επιλέξει μία προσοδοφόρα επαγγελματική πορεία. Αντίθετα, κατευθύνεται σ την Αλαμπάμα προκειμένου να υπερασπιστεί όσους καταδικάζονται άδικα, έχοντας την υποστήριξη της δικηγόρου Εύα Άνσλεϊ (Λάρσον). Μία από τις πρώτες και πιο εκρηκτικές υποθέσεις που αναλαμβάνει, είναι εκείνη του Γουόλτερ ΜακΜίλαν (Φοξ), που το 1987, καταδικάζεται σε θάνατο για την περιβόητη δολοφονία ενός 18χρονου κοριτσιού, παρά την ύπαρξη αποδεικτικών στοιχείων που αποδεικνύουν την αθωότητά του και του γεγονότος ότι η μόνη μαρτυρία εναντίον του, ήταν από έναν εγκληματία που είχε κίνητρο να αποκρύψει την αλήθεια. Στα χρόνια που ακολούθησαν, ο Μπράιαν εμπλέκεται σε ένα λαβύρινθο νομικών και πολιτικών παρασκηνίων και απροκάλυπτου και αναίσχυντου ρατσισμού, καθώς παλεύει για τον Γουόλτερ και άλλους σαν αυτόν, με τις πιθανότητες - και το σύστημα - να είναι εναντίον τους. https://www.imdb.com/title/tt4916630/ ΑΝ ΘΕΛΕΤΕ ΝΑ ΣΤΗΡΙΞΕΤΕ ΤΗΝ ΔΟΥΛΕΙΑ ΜΟΥ ΚΑΝΤΕ ΕΥΚΟΛΑ ΚΑΙ ΓΡΗΓΟΡΑ ΛΟΓΑΡΙΑΣΜΟ ΣΤΟ EASYBYTEZ KAI KATEΒΑΣΤΕ ΣΑΝ PREMIUM AΠO 20HOST!! http://www.easybytez.com/free2771.html
  7. Είδος Ταινίας: Drama, History Πρεμιέρα: 11 February 2016 (Greece) Σκηνοθέτης: Giulio Ricciarelli Σενάριο: Elisabeth Burghardt (screenplay) (as Elisabeth Bartel), Giulio Ricciarelli (screenplay) Ηθοποιοί: Andre Szymanski, Alexander Fehling, Friederike Becht Υπότιτλοι: Ελληνικοί Ενσωματωμένοι & Σε Ξεχωριστό Αρχείο Ελληνικός Τίτλος: Ο λαβύρινθος της σιωπής Γνωστό και ως: Im Labyrinth des Schweigens Μετάφραση: CRS Διάρκεια: 124' Καταλληλότητα: - encoder: .:Sexmeup:. Πηγή: 1080p.BluRay.x264-CiNEFiLE Υπόθεση: 1958. Ο πόλεμος έχει χρόνια τελειώσει και η Δυτική Γερμανία όχι μόνο ανακάμπτει, αλλά ζει μια ευφορία. Πουθενά οι ναζί, πουθενά εικόνες από τα στρατόπεδα συγκέντρωσης. Όλα μοιάζουν σαν να υπάρχουν για το καλύτερο αυτής της χώρας. Τουλάχιστον, μέχρι που ο δημοσιογράφος Τόμας Γκνίλκα αναγνωρίζει στο πρόσωπο ενός δασκάλου, αυτό του τότε διοικητή του Άουσβιτς. Και ο νεαρός εισαγγελέας Γιόχαν Ράντμαν αναλαμβάνει να διερευνήσει την υπόθεση. Στη Γερμανία, 15 χρόνια μετά τον Β` Παγκόσμιο Πόλεμο, ένας νεαρός άντρας αναγκάζει μια ολόκληρη χώρα να αντιμετωπίσει το παρελθόν της. https://www.imdb.com/title/tt3825638/ ΑΝ ΘΕΛΕΤΕ ΝΑ ΣΤΗΡΙΞΕΤΕ ΤΗΝ ΔΟΥΛΕΙΑ ΜΟΥ ΚΑΝΤΕ ΕΥΚΟΛΑ ΚΑΙ ΓΡΗΓΟΡΑ ΛΟΓΑΡΙΑΣΜΟ ΣΤΟ EASYBYTEZ KAI KATEΒΑΣΤΕ ΣΑΝ PREMIUM AΠO 20 HOST!! http://www.easybytez.com/free2771.html
  8. Είδος Ταινίας: Biography, Comedy, Drama Πρεμιέρα: 3 January 2019 (Greece) Σκηνοθέτης: Peter Farrelly Σενάριο: Nick Vallelonga, Brian Hayes Currie (as Brian Currie) Ηθοποιοί: Viggo Mortensen, Mahershala Ali, Linda Cardellini Υπότιτλοι: Ελληνικοί Ενσωματωμένοι & Σε Ξεχωριστό Αρχείο Ελληνικός Τίτλος: Το πράσινο βιβλίο Μετάφραση: J' aime le noir Διάρκεια: 130' Καταλληλότητα: - encoder: .:Sexmeup:. Πηγή: 1080p.BluRay.x264.Atmos.TrueHD7.1-HDChina Υπόθεση: Πρόκειται για τη διαδρομή του Ντον Σίρλευ, ενός παγκοσμίου φήμης αφροαμερικανού πιανίστα τη δεκαετία του 1960, σε μια περιοδεία στο Μανχάταν, στηριζόμενη στο "Πράσινο Βιβλίο", το οποίο υποδεικνύει τα ελάχιστα καταλύματα και εστιατόρια που είναι φιλικά προς τους Αφροαμερικάνους. https://www.imdb.com/title/tt6966692/ ΑΝ ΘΕΛΕΤΕ ΝΑ ΣΤΗΡΙΞΕΤΕ ΤΗΝ ΔΟΥΛΕΙΑ ΜΟΥ ΚΑΝΤΕ ΕΥΚΟΛΑ ΚΑΙ ΓΡΗΓΟΡΑ ΛΟΓΑΡΙΑΣΜΟ ΣΤΟ EASYBYTEZ KAI KATEΒΑΣΤΕ ΣΑΝ PREMIUM AΠO 20 HOST!! http://www.easybytez.com/free2771.html
  9. Είδος Ταινίας: Drama, History Πρεμιέρα: 11 February 2016 (Greece) Σκηνοθέτης: Giulio Ricciarelli Σενάριο: Elisabeth Burghardt (screenplay) (as Elisabeth Bartel), Giulio Ricciarelli (screenplay) Ηθοποιοί: Andre Szymanski, Alexander Fehling, Friederike Becht Υπότιτλοι: Ελληνικοί Ενσωματωμένοι & Σε Ξεχωριστό Αρχείο Ελληνικός Τίτλος: Ο λαβύρινθος της σιωπής Γνωστό και ως: Im Labyrinth des Schweigens Μετάφραση: CRS Διάρκεια: 124' Καταλληλότητα: - encoder: .:Sexmeup:. Πηγή: 1080p.BluRay.x264-CiNEFiLE Υπόθεση: 1958. Ο πόλεμος έχει χρόνια τελειώσει και η Δυτική Γερμανία όχι μόνο ανακάμπτει, αλλά ζει μια ευφορία. Πουθενά οι ναζί, πουθενά εικόνες από τα στρατόπεδα συγκέντρωσης. Όλα μοιάζουν σαν να υπάρχουν για το καλύτερο αυτής της χώρας. Τουλάχιστον, μέχρι που ο δημοσιογράφος Τόμας Γκνίλκα αναγνωρίζει στο πρόσωπο ενός δασκάλου, αυτό του τότε διοικητή του Άουσβιτς. Και ο νεαρός εισαγγελέας Γιόχαν Ράντμαν αναλαμβάνει να διερευνήσει την υπόθεση. Στη Γερμανία, 15 χρόνια μετά τον Β` Παγκόσμιο Πόλεμο, ένας νεαρός άντρας αναγκάζει μια ολόκληρη χώρα να αντιμετωπίσει το παρελθόν της. https://www.imdb.com/title/tt3825638/ ΑΝ ΘΕΛΕΤΕ ΝΑ ΣΤΗΡΙΞΕΤΕ ΤΗΝ ΔΟΥΛΕΙΑ ΜΟΥ ΚΑΝΤΕ ΕΥΚΟΛΑ ΚΑΙ ΓΡΗΓΟΡΑ ΛΟΓΑΡΙΑΣΜΟ ΣΤΟ EASYBYTEZ KAI KATEΒΑΣΤΕ ΣΑΝ PREMIUM AΠO 20 HOST!! http://www.easybytez.com/free2771.html
  10. ΤΑ ΔΕΛΦΙΝΑΚΙΑ ΤΟΥ ΑΜΒΡΑΚΙΚΟΥ (1993) DVDRip (DVDRip - easybytez - Ντογιάκος) Είδος: Κοινωνική Διάρκεια: 98 λεπτά Πρεμιέρα στην Ελλάδα: Παρασκευή 18 Φεβρουαρίου 1994 Χρώμα: Έγχρωμο Ήχος: (Dolby) Stereo Γλώσσα: Ελληνικά Έτος: 1993 Παραγωγή: Άγγελος Σιδεράτος & σία Ε.Ε.Ελληνικό Κέντρο Κινηματογράφου Εισιτήρια: 70.000 (1993-1994) 3η θέση σε 13 ταινίες Σκηνοθεσία: Ντίνος Δημόπουλος Σενάριο: Ντίνος Δημόπουλος Μουσική σύνθεση: Χρήστος Λεοντής Ηθοποιοί: Σταύρος Ντογιάκος, Κωνσταντίνα Αλευρά, Σπύρος Πανταζής, Νικήτας Χρόνης, Αλέξανδρος Ρήγας, Κωνσταντίνα Ανδριοπούλου, Χρήστος Ζορμπάς, Φώτης Γκαβέρας, Βαγγέλης Βαζάκας, Βίλλυ Σιδεράτου, Φωτεινή Παπαδαμάκη, Πάνος Σαλωνίτης, Δημήτρης Παπαγιάννης, Χάρης Παναγιώτου, Γιώργος Κροντήρης, Μιχάλης Μαραγκάκης, Γιάννης Δημοθόδωρος, Γιάννης Γκολομάζος, Φρειδερίκη Κολιού, Νίκος Παπαδημητρίου, Λάμπρος Μπαβέτας Υπόθεση: Σε ένα μικρό επαρχιακό θαλασσοχώρι, εδώ και εξήντα χρόνια, δυο οκτάχρονα παιδιά, ο Πέτρος και η Ανθούλα, ανακαλύπτουν σιγά-σιγά το ανεπανάληπτο θαύμα του κόσμου που τους περιβάλλει. Μιλούν με τα ζώα, κυνηγιούνται με τα πουλιά κι αρθρώνουν τις πρώτες στροφές από το αιώνιο τραγούδι της αγάπης, κι ας μην καταλαβαίνουν ακόμα τα λόγια του. Μα αυτό το θαυμαστό πανηγύρι της ζωής θα σκοτεινιάσει ξαφνικά, όταν τα δυο παιδιά θα βρεθούν μπροστά σε ένα συνομήλικο άρρωστο αγόρι, παρατημένο από τους δικούς του να πεθάνει σε μιαν έρημη καλύβα. Ο Πέτρος και η Ανθούλα πλησιάζουν θαρρετά το άρρωστο παιδί και με την ανεξάντλητη δύναμη της αγάπης γκρεμίζουν τα σύνορα της συμβατικότητας και του φόβου, κι ανοίγουν φωτεινούς δρόμους στη ζωή, αδιανόητους για τους μεγάλους.
  11. ΤΟ ΤΑΤΟΥΑΖ (2017 - ) ΗDTv - ΣΥΝΕΧΗΣ ΑΝΑΝΕΩΣΗ Το Τατουάζ είναι μια σειρά γεμάτη έρωτα, απαγορευμένους δεσμούς και εγκλήματα πάθους. Μια ερωτική ιστορία γεννιέται κάτω από αντίξοες συνθήκες. Ένα αστυνομικό θρίλερ με φόντο την Αίγινα και τα Μετέωρα, όπου ένας κατά συρροή δολοφόνος βάζει στο στόχαστρο νεαρές γυναίκες… Η Άννα (Δανάη Παππά) είναι παντρεμένη με τον Τόνυ (Μιχάλης Λεβεντογιάννης) και ζει μόνιμα στο Λονδίνο. Απογοητευμένη από τον γάμο της, αποφασίζει να πάει διακοπές με τη φίλη της, την Νικόλ (Ελεονώρα Αντωνιάδου) στην Ελλάδα, με σκοπό να συναντήσει τον Αλέξανδρο (Στέφανος Μιχαήλ) με τον οποίο έχουν γνωριστεί εδώ και έναν χρόνο, μέσω Facebook. Η συνάντησή τους θα γεννήσει έναν κεραυνοβόλο έρωτα. Η Άννα με την Νικόλ θα περάσουν κάποιες ξέγνοιαστες μέρες στην Αίγινα, μέχρι τη στιγμή που ο Αλέξανδρος θα εξαφανιστεί. Η Άννα, γεμάτη αγωνία, θα απευθυνθεί στους γονείς του, τον Παύλο (Γιώργος Παρτσαλάκης) και την Μάρθα (Ελίνα Ακριτίδου). Και οι τρεις μαζί θα ψάξουν τον Αλέξανδρο στο σπίτι του. Εκεί θα τους περιμένει μια δυσάρεστη έκπληξη… Λίγες μέρες μετά εξαφανίζεται μυστηριωδώς και η Άννα. Το γεγονός αυτό θα αναγκάσει τον Θεοχάρη (Απόστολος Γκλέτσος), πατέρα της Άννας, να έρθει στην Ελλάδα, για να την αναζητήσει. Η νέα σύντροφός του, Βέρα (Εβελίνα Παπούλια) του συμπαραστέκεται αναλαμβάνοντας να φροντίσει την Αμαλία (Μυρτώ Αλικάκη), γυναίκα τού Θεοχάρη και μητέρα της Άννας, η οποία αντιμετωπίζει ένα πολύ σοβαρό θέμα υγείας. Το σενάριο υπογράφει η Βάνα Δημητρίου και τη σκηνοθεσία ο Αντρέας Γεωργίου, ο Στάμος Τσάμης και ο Κώστας Αναγνωστόπουλος. Πρωταγωνιστούν: Στέφανος Μιχαήλ, Δανάη Παππά, Εβελίνα Παπούλια, Μυρτώ Αλικάκη, Ελίνα Ακριτίδου, Χρύσα Παππά, Κατερίνα Γερονικολού, Χριστίνα Χριστόφια, Νίκος Πολυδερόπουλος, Μιχάλης Λεβεντογιάννης, Έλενα Λιασίδου, Ελεονώρα Αντωνιάδου, Έλενα Πιερίδου, Ιάσονας Δαμιανός, Αλέξανδρος Πέρρος, Φανή Καμπιώτη. Στον ρόλο του Παύλου Μελά, ο Γιώργος Παρτσαλάκης Στον ρόλο της Μαργκός Νίβεν, η Κοραλία Καράντη Στον ρόλο του Θεοχάρη Ραζή, ο Απόστολος Γκλέτσος. [video=youtube;eE33JXR4FA0]https://www.youtube.com/watch?v=eE33JXR4FA0[/video] ΤΕΧΝΙΚΑ ΧΑΡΑΚΤΗΡΙΣΤΙΚΑ General Complete name : To.Tatoyaz.S01.E01-E02.576p.HDTV-Ft4U.mkv Format : Matroska Format version : Version 2 File size : 1.91 GiB Duration : 1h 47mn Overall bit rate : 2 557 Kbps Encoded date : UTC 2017-09-18 23:52:53 Writing application : mkvmerge v4.7.0 ('Just Like You Imagined') built on Apr 21 2011 01:13:14 Writing library : libebml v1.2.0 + libmatroska v1.1.0
  12. Είδος Ταινίας: Drama Πρεμιέρα: 1967 (Greece) Σκηνοθέτης: Nikos Papatakis Σενάριο: Nikos Papatakis (screenplay), Nikos Papatakis (story) Ηθοποιοί: Olga Karlatos, George Dialegmenos, Lambros Tsangas Υπότιτλοι: Ελληνικοί Ενσωματωμένοι & Σε Ξεχωριστό Αρχείο Ελληνικός Τίτλος: Οι βοσκοί Γνωστό και ως: The Shepherds of Calamity Μετάφραση: Ελληνικός Ήχος Διάρκεια: 120' Καταλληλότητα: -encoder: .:Sexmeup:. Πηγή: 1080p.BluRay.x264-BiPOLAR Υπόθεση: Ο Θάνος, ένας φτωχός βοσκός που επέστρεψε μετανάστης από τη Γερμανία, απάγει την κόρη ενός πλούσιου τσέλιγκα, θέτοντας έτσι σε κίνηση το μηχανισμό της μοίρας: άνδρες της Χωροφυλακής καταδιώκουν το ζευγάρι στο βουνό, με τραγική κατάληξη. https://www.imdb.com/title/tt0061084/ ΜΗ ΔΙΑΘΈΣΙΜΟ ΑΝ ΘΕΛΕΤΕ ΝΑ ΣΤΗΡΙΞΕΤΕ ΤΗΝ ΔΟΥΛΕΙΑ ΜΟΥ ΚΑΝΤΕ ΕΥΚΟΛΑ ΚΑΙ ΓΡΗΓΟΡΑ ΛΟΓΑΡΙΑΣΜΟ ΣΤΟ EASYBYTEZ KAI KATEΒΑΣΤΕ ΣΑΝ PREMIUM AΠO 20HOST!! http://www.easybytez.com/free2771.html
  13. ΩΡΕΣ ΚΟΙΝΗΣ ΗΣΥΧΙΑΣ (2006) DVDRip (DVDRip - Μαλτέζου - easybytez - worldbytez - filefactory) Είδος: Κοινωνική Διάρκεια: 90' Πρεμιέρα στην Ελλάδα: Πέμπτη 15 Φεβρουαρίου 2007 Χρώμα: Έγχρωμο Ήχος: Dolby Digital Γλώσσα: Ελληνικά Σκηνοθεσία: Κατερίνα Ευαγγελάκου Σενάριο: Νίκος Παναγιωτόπουλος, Κατερίνα Ευαγγελάκου Μουσική: Δήμητρα Γαλάνη Τραγούδι: Δήμητρα Γαλάνη Στίχοι: Στεφανία Χαρσούλα Μουσικοί:Σωτήρης Λεμονίδης - Πιάνο Μιλτιάδης Παπαστάμου - 10χορδο βιολί, Βιόλα Θοδωρής Ρέλλος - Σαξόφωνο Χρυσόστομος Μουράτογλου - Πλήκτρα, Κιθάρα Χρήστος Παραπαγκίδης - Πλήκτρα Υπόθεση: Αθήνα, καλοκαίρι και νύχτα. Ένας συναγερμός αυτοκινήτου χτυπάει. Σε μια γειτονική πολυκατοικία, οι ένοικοι αναστατώνονται και οι προσωπικές τους ιστορίες, κρυμμένες πίσω από απρόσωπα διαμερίσματα, έρχονται στην επιφάνεια. Μια πόλη που φαινομενικά κοιμάται, μα οι άνθρωποι που ζουν μέσα της αγωνιούν, ελπίζουν, ερωτεύονται η χωρίζουν, φοβούνται και επιμένουν, Μια ειλικρινής, ζωντανή, βαθιά ανθρώπινη ταινία με ένα καστ που συγκεντρώνει μερικούς από τους καλύτερους Έλληνες ηθοποιούς. Ηθοποιοί: Υβόννη Μαλτέζου,Ερρίκος Λίτσης,Αγγελική Παπαθεμελή Χρήστος Στέργιογλου,Δημήτρης Ξανθόπουλος,Αλεξία Καλτσίκη Ταξιάρχης Χάνος,Μάκης Παπαδημητρίου,Τάσος Κολοβός Βάσω Καβαλιεράτου,Λουκία Μιχαλοπούλου,Όμηρος Πουλάκης Γιώργος Βελέντζας,Ιωσήφ Μουστάκας,Απόστολος Τότσικας Ρομπέρτα Ειρήνη Μωράκη,Γιώργος Σουξές,Δημήτρης Λιόλιος Γιάννης Παπαγιάννης,Κατερίνα Μπάστα,Λίζα Λαλέ Στράτος Αλαμάρας,Δημήτρης Λαγκαδινός,Ηλίας Αλεξόπουλος Γεωργία Λαζαρίδου,Νίκος Αμανίτης,Σωτηρία Μαρίνη Τάσος Αναγνωστόπουλος,Ζωή Μαυροπούλου,Μάρθα Αντωνάκη Χρήστος Μερζιώτης,Ηλίας Αρώνης,Ορέστης Μέτσης Ειρήνη Ασλανίδου,Γιώτα Μπακοπούλου,Μαρία Γαλάτη Ελένη Μπάστα,Σοφία Γαϊτανίδου,Φώτης Μπούρας Θεόδωρος Γουρδουπάρης,Βασίλης Μυλωνάς,Νίκη Γιαννούση Πάνος Ξενάκης,Στέφανος Δαμουλιάνος,Παναγιώτης Παπαηλίας Γιάννης Διαλυνάς,Δημήτρης Ριαχής,Ζωή Δουγαλέρη Ηλιάνα Σεβδαλή,Μιχάλης Ηλιόπουλος,Νίκος Σεβδαλής Δημήτρης Θεοδώρου,Αθηνά Σταυρίδου,Σοφία Θεοδώρου Ελευθέριος Στυλιανέλης,Κώστας Ίσσαρης,Νάντια Συμεωνίδου κ.α. Διάσημες Ατάκες: Νίκη: Δεν περνάς αστικό έτσι κι αλλιώς. Ο συναγερμός σε εμποδίζει. Γιώργος: Δεν μπορώ να τον ακούω. Με τρελαίνει. Φάνης: Το περιπολικό πότε θα έρθει; Γιάννης: Είναι η τέταρτη φορά που χτυπάει. Σας παρακαλώ κάντε κάτι.
  14. Είδος Ταινίας: Drama Πρεμιέρα: 9 February 2018 (USA) Σκηνοθέτης: Alex Ross Perry Σενάριο: Alex Ross Perry Ηθοποιοί: Emily Browning, Adam Horovitz, Mary-Louise Parker Υπότιτλοι: Ελληνικοί Ενσωματωμένοι & Σε Ξεχωριστό Αρχείο Μετάφραση: sougadim Διάρκεια: 94' Καταλληλότητα: -encoder: .:Sexmeup:. Πηγή: 1080p.WEB-DL.H264.AC3-EVO Υπόθεση: Ο Νικ έχει κατασταλάξει σε μια ασφαλή ύπαρξη κάπου σε μια γωνιά του Μπρούκλιν, όπου τώρα εργάζεται επίπονα πάνω σε ένα αρχειακό σχέδιο για τον πεθερό του. Σύντομα, η 20χρονη Ναόμι καταφτάνει από την Αυστραλία για να βοηθήσει τον Νικ για ένα εξάμηνο. Δεν έχει καμία σχέση με την πόλη, παρά μια μακρινή συγγένεια με τον Μπόμπι, έναν μουσικό παραγωγό που ζει στην ίδια γειτονιά. Στους λίγους αυτούς μήνες όπου περνάει δίπλα στον Νικ, τον Μπάντι και τις οικογένειες τους, η παρουσία της θα αναστατώσει τη μουντή ισορροπία που κρατούσε τα δύο σπίτια ενωμένα. https://www.imdb.com/title/tt5687814/ ΑΝ ΘΕΛΕΤΕ ΝΑ ΣΤΗΡΙΞΕΤΕ ΤΗΝ ΔΟΥΛΕΙΑ ΜΟΥ ΚΑΝΤΕ ΕΥΚΟΛΑ ΚΑΙ ΓΡΗΓΟΡΑ ΛΟΓΑΡΙΑΣΜΟ ΣΤΟ EASYBYTEZ KAI KATEΒΑΣΤΕ ΣΑΝ PREMIUM AΠO 20HOST!! http://www.easybytez.com/free2771.html
  15. ΧΑΛΚΙΝΑ ΧΡΟΝΙΑ Γ΄ΚΥΚΛΟΣ (2019-2020) ΡΙΚ WEBRip Ο τρίτος κυκλος της δραματικής καθημερινής σειράς εποχής του ΡΙΚ που θα ξεκινήσει το Σεπτέμβριο και θα καλύπτει την prime timeζώνη του σταθμού ονομάζεται «Χάλκινα Χρόνια». Η υπόθεση της σειράς τοποθετείται μετά το Β’ Παγκόσμιο Πόλεμο και επικεντρώνεται σε διάφορες ιστορίες καθημερινών ανρθώπων, που έχουν, μέσα στις πολιτικές και κοινωνικές αλλαγές της εποχής, τα δικά τους πάθη, ανάγκες και όνειρα. Σεναριογράφοι αυτής της σειράς είναι η Δέσποινα Πυρκετή και η Σοφία Σοφοκλέους, στο σκηνοθετικό τιμόνι βρίσκεται η Κόριννα Αβρααμίδου και ο Χρίστος Νικολάου, ενώ στην παραγωγή βρίσκεται η Galinis Productions. Το πρωταγωνιστικό καστ αποτελείται από τους: Λένια Σορόκου, Αντρέα Τσέλεπο, Αντωνία Χαραλάμπους, Κύνθια Παυλίδου, Άννα Γιαγκιόζη, Γιάννα Λευκάτη, Σοφοκλή Κασκαούνια, Πανίκο Πιλάλη, Αντρέα Παπαμιχαλόπουλο, Αστέριο Πελτέκη, Μαρία Φιακά, Νάτια Χαραλάμπους, Νίκη Δραγούμη και τον Σίμο Τσιάκκα. O Κώστας Κακογιάννης επιμελείται για άλλη μια φορά τη μουσική επένδυση, ενώ τα σκηνικά και τα κοστούμια ο Λάκης Γενεθλής. General Complete name :XALKINA.S03.01.avi Format : AVI Format/Info : Audio Video Interleave File size : 1.13 GiB Duration : 54 min 46 s Overall bit rate : 2 952 kb/s Video #0 ID : 0 Format : AVC Format/Info : Advanced Video Codec Format profile : [email protected] Format settings : 1 Ref Frames Format settings, CABAC : No Format settings, ReFrames : 1 frame Codec ID : H264 Duration : 54 min 46 s Bit rate : 2 811 kb/s Width : 768 pixels Height : 432 pixels Display aspect ratio : 16:9 Frame rate : 25.000 FPS Color space : YUV Chroma subsampling : 4:2:0 Bit depth : 8 bits Scan type : Progressive Bits/(Pixel*Frame) : 0.339 Stream size : 1.08 GiB (95%) Writing library : x264 core 146 r2538 121396c Audio #1 ID : 1 Format : MPEG Audio Format version : Version 1 Format profile : Layer 3 Codec ID : 55 Codec ID/Hint : MP3 Duration : 54 min 46 s Bit rate mode : Constant Bit rate : 128 kb/s Channel(s) : 2 channels Sampling rate : 48.0 kHz Compression mode : Lossy Stream size : 50.1 MiB (4%) Alignment : Aligned on interleaves Interleave, duration : 24 ms (0.60 video frame)
  16. MERYL STREEP FILMOGRAPHY - MiXED Όλα τα ευχαριστώ, στους μεταφραστές και τους encoders. Η Μέριλ Στριπ (Mary Louise "Meryl" Streep, γενν. 22 Ιουνίου 1949) είναι Αμερικανίδα ηθοποιός. Η Στριπ θεωρείται μία από τις μεγαλύτερες ηθοποιούς της σύγχρονης εποχής. Πραγματοποίησε το ντεμπούτο της στο θέατρο το 1971 στο έργο The Playboy of Seville και στην τηλεόραση το 1977 με την τηλεταινία The Deadliest Season. Την ίδια χρονιά έκανε και την πρώτη της εμφάνιση στον κινηματογράφο με την ταινία Τζούλια (Julia, 1977). Γρήγορα ήρθαν καλλιτεχνικές και εμπορικές επιτυχίες με ρόλους στις ταινίες Ο Ελαφοκυνηγός (The Deer Hunter, 1978) και Κράμερ εναντίον Κράμερ (Kramer vs. Kramer, 1979). Για την πρώτη ταινία έλαβε την πρώτη της υποψηφιότητα για Όσκαρ ενώ για τη δεύτερη κέρδισε το πρώτο της Όσκαρ. Το 1982 κέρδισε το δεύτερο Όσκαρ για την ερμηνεία της στην ταινία Η Εκλογή της Σόφι (Sophie's Choice). Το 2012 κέρδισε το τρίτο της Όσκαρ για την ταινία Η Σιδηρά Κυρία (The Iron Lady). Η Στριπ έχει λάβει συνολικά 21 υποψηφιότητες για Όσκαρ, κερδίζοντας τρία, και 32 υποψηφιότητες για Χρυσή Σφαίρα, κερδίζοντας οκτώ. Είναι η ηθοποιός με τις περισσότερες υποψηφιότητες για Όσκαρ και Χρυσή Σφαίρα στην ιστορία του κινηματογράφου. Έχει επίσης βραβευθεί με δύο Βραβεία Έμμυ, δύο Βραβεία Σωματείου Ηθοποιών, δύο BAFTA, ένα βραβείο Καλύτερης Ηθοποιού στο Φεστιβάλ Καννών, το Τιμητικό βραβείο της Χρυσής Άρκτου για το 2012, ενώ έχει λάβει και πέντε υποψηφιότητες για Βραβείο Γκράμι Το 2004 βραβεύθηκε με το Life Achievement Award από το Αμερικανικό Ινστιτούτο Κινηματογράφου. ΤΑΙΝΙΕΣ ΠΟΥ ΠΕΡΙΛΑΜΒΑΝΟΝΤΑΙ: 1977 - Julia (Τζούλια) 1978 - The Deer Hunter (Ο Ελαφοκυνηγός) 1979 - Manhattan (Μανχάταν) 1979 - Kramer vs. Kramer (Κράμερ εναντίον Κράμερ) 1981 - The French Lieutenant's Woman (Η ερωμένη του Γάλλου λοχαγού) 1982 - Sophie's Choice (Η Εκλογή της Σόφι) 1983 - Silkwood (Η Εξαφάνιση της Κάρεν Σίλκγουντ) 1984 - Falling in Love (Μια Αγάπη Γεννιέται) 1985 - Plenty (Η Ασυμβίβαστη) 1985 - Out of Africa (Πέρα από την Αφρική) 1987 - Ironweed (Ξένοι στην Ίδια Πόλη) 1988 - A Cry in the Dark (Κραυγή στο Σκοτάδι) 1989 - She-Devil (Διαβολογυναίκα) 1990 - Postcards from the Edge (Φλερτάροντας τη Ζωή) 1992 - Death Becomes Her (Ο θάνατος σου πάει πολύ) 1993 - The House of the Spirits (Το Σπίτι των Πνευμάτων) 1994 - The River Wild (Άγριος Ποταμός) 1995 - The Bridges of Madison County (Οι Γέφυρες του Μάντισον) 1996 - Marvin's Room (Σταγόνες Αγάπης) 1998 - Dancing at Lughnasa (Χορεύοντας στη Λουνάσα) 2002 - Adaptation 2002 - The Hours (Οι Ώρες) 2003 - Stuck on You (Οι Κολλητοί) 2004 - The Manchurian Candidate (Ο Άνθρωπος της Μαντζουρίας) 2004 - Lemony Snicket's A Series of Unfortunate Events (Λέμονι Σνίκετ: Μια Σειρά από Ατυχή Γεγονότα ) 2005 - Prime (Εγώ, Αυτός & η Μητέρα του) 2006 - A Prairie Home Companion (Η Καλύτερη Παρέα) 2006 - The Devil Wears Prada (Ο Διάβολος Φοράει Prada) 2007 - Dark Matter (Σκοτεινή Ύλη) 2007 - Evening (Η Τελευταία Νύχτα) 2007 - Rendition (Έκδοση Κρατουμένου) 2007 - Lions for Lambs (Λέοντες αντί Αμνών) 2008 - Mamma Mia! (Mamma Mia! Η Ταινία) 2008 - Doubt (Αμφιβολία) 2009 - Julie & Julia (Τζούλι & Τζούλια) 2009 - It's Complicated (Είναι Μπερδεμένο) 2011 - Τhe Iron Lady (Η Σιδηρά Κυρία) 2012 - Hope Springs (Ποτέ Δεν Είναι Αργά) 2013 - August: Osage County (Αύγουστος) 2014 - Into the Woods (Τα Μυστικά του Δάσους) 2014 - The Giver (Ο φύλακας της μνήμης) 2015 - Ricki and the Flash (Η Ρίκι και η Ροκ) 2015 - Suffraggette (Σουφραζέτες) 2016 - Florence Foster Jenkins (Florence: Φάλτσο σοπράνο) 2017 - The Post (The Post: Απαγορευμένα Μυστικά)
  17. Είδος Ταινίας: Drama Πρεμιέρα: 9 February 2018 (USA) Σκηνοθέτης: Alex Ross Perry Σενάριο: Alex Ross Perry Ηθοποιοί: Emily Browning, Adam Horovitz, Mary-Louise Parker Υπότιτλοι: Ελληνικοί Ενσωματωμένοι & Σε Ξεχωριστό Αρχείο Μετάφραση: sougadim Διάρκεια: 94' Καταλληλότητα: -encoder: .:Sexmeup:. Πηγή: 1080p.WEB-DL.H264.AC3-EVO Υπόθεση: Ο Νικ έχει κατασταλάξει σε μια ασφαλή ύπαρξη κάπου σε μια γωνιά του Μπρούκλιν, όπου τώρα εργάζεται επίπονα πάνω σε ένα αρχειακό σχέδιο για τον πεθερό του. Σύντομα, η 20χρονη Ναόμι καταφτάνει από την Αυστραλία για να βοηθήσει τον Νικ για ένα εξάμηνο. Δεν έχει καμία σχέση με την πόλη, παρά μια μακρινή συγγένεια με τον Μπόμπι, έναν μουσικό παραγωγό που ζει στην ίδια γειτονιά. Στους λίγους αυτούς μήνες όπου περνάει δίπλα στον Νικ, τον Μπάντι και τις οικογένειες τους, η παρουσία της θα αναστατώσει τη μουντή ισορροπία που κρατούσε τα δύο σπίτια ενωμένα. https://www.imdb.com/title/tt5687814/ ΑΝ ΘΕΛΕΤΕ ΝΑ ΣΤΗΡΙΞΕΤΕ ΤΗΝ ΔΟΥΛΕΙΑ ΜΟΥ ΚΑΝΤΕ ΕΥΚΟΛΑ ΚΑΙ ΓΡΗΓΟΡΑ ΛΟΓΑΡΙΑΣΜΟ ΣΤΟ EASYBYTEZ KAI KATEΒΑΣΤΕ ΣΑΝ PREMIUM AΠO 20HOST!! http://www.easybytez.com/free2771.html
  18. ΚΟΙΝΩΝΙΑ ΩΡΑ ΜΗΔΕΝ (1966) DVDrip [DVDrip - Κούρκουλος - easybytez - worldbytez - filefactory] Είδος: Κοινωνικό δράμα Διάρκεια: 105' Παραγωγής: 1966 Χρώμα: Ασπρόμαυρο Γλώσσα: Ελληνικά Παραγωγή: Φίνος Φιλμ Σενάριο: Νίκος Φώσκολος Σκηνοθεσία: Ντίνος Δημόπουλος Μουσική: Γιάννης Μαρκόπουλος Υπόθεση: Ο Άγγελος Μουρούζης έχει αποταχθεί από την Αεροπορία και ως αποτέλεσμα το έχει ρίξει στο ποτό και τη χαρτοπαιξία. Όταν όμως ένα επιβατικό αεροπλάνο συντρίβεται στο έδαφος και από τους επιβάτες δεν διασώζεται παρά μία γυναίκα, ο αδελφός του, που είναι αρχηγός της Πολιτικής Αεροπορίας, τον τοποθετεί επικεφαλής της επιτροπής που θα ερευνήσει τα αίτια του δυστυχήματος. Ο σκοπός του αδελφού του είναι πονηρός, μια και αποσκοπεί στη συγκάλυψη των στοιχείων, αλλά ο Άγγελος διεξάγει κανονικές ανακρίσεις, στην πορεία των οποίων αποδεικνύεται πως το αεροπλάνο δεν πληρούσε τους όρους ασφαλείας. Ηθοποιοί: Νίκος Κούρκουλος Μαίρη Χρονοπούλου Φλωρέτα Ζαννά Ανδρέας Μπαρκουλης Ζώρας Τσαπέλης Λιάκος Χριστογιαννόπουλος Βύρων Πάλλης Κώστας Καζάκος Τασσώ Καββαδία Σούλα Αθανασιάδου Άγγελος Αντωνόπουλος Θόδωρος Έξαρχος Δημήτρης Μπισλάνης Αλέκος Ουδινότης Χρήστος Δαχτυλίδης Νίκος Πασχαλίδης Φάνης Χηνάς Χρήστος Δοξαράς Χριστόφορος Ζήκας Γιώργος Μπέλλος
  19. Είδος Ταινίας: Drama Πρεμιέρα: 11 October 2019 (Turkey) Σκηνοθέτης: Mehmet Ada Oztekin Σενάριο: Ozge Efendioglu, Kubilay Tat Ηθοποιοί: Aras Bulut Iynemli, Nisa Sofiya Aksongur, Deniz Baysal Υπότιτλοι: Ελληνικοί Ενσωματωμένοι & Σε Ξεχωριστό Αρχείο Ελληνικός Τίτλος: Το Θαύμα στο Κελί 7 Γνωστό και ως: Yedinci Kogustaki Mucize Μετάφραση: Μάρθα Σιαμέτη Διάρκεια: 132' Καταλληλότητα: -encoder: .:Sexmeup:. Πηγή: 1080p.NF.WEB-DL.EAC3.5.1x264-NoGroup Υπόθεση: Αποχωρισμένος από την κόρη του, ένας πατέρας με νοητική στέρηση πρέπει να αποδείξει ότι είναι αθώος έχοντας καταδικαστεί για τον φόνο του παιδιού ενός διοικητή. https://www.imdb.com/title/tt10431500/ ΑΝ ΘΕΛΕΤΕ ΝΑ ΣΤΗΡΙΞΕΤΕ ΤΗΝ ΔΟΥΛΕΙΑ ΜΟΥ ΚΑΝΤΕ ΕΥΚΟΛΑ ΚΑΙ ΓΡΗΓΟΡΑ ΛΟΓΑΡΙΑΣΜΟ ΣΤΟ EASYBYTEZ KAI KATEΒΑΣΤΕ ΣΑΝ PREMIUM AΠO 20HOST!! http://www.easybytez.com/free2771.html
  20. Είδος Ταινίας: Drama Πρεμιέρα: 11 October 2019 (Turkey) Σκηνοθέτης: Mehmet Ada Oztekin Σενάριο: Ozge Efendioglu, Kubilay Tat Ηθοποιοί: Aras Bulut Iynemli, Nisa Sofiya Aksongur, Deniz Baysal Υπότιτλοι: Ελληνικοί Ενσωματωμένοι & Σε Ξεχωριστό Αρχείο Ελληνικός Τίτλος: Το Θαύμα στο Κελί 7 Γνωστό και ως: Yedinci Kogustaki Mucize Μετάφραση: Μάρθα Σιαμέτη Διάρκεια: 132' Καταλληλότητα: -encoder: .:Sexmeup:. Πηγή: 1080p.NF.WEB-DL.EAC3.5.1x264-NoGroup Υπόθεση: Αποχωρισμένος από την κόρη του, ένας πατέρας με νοητική στέρηση πρέπει να αποδείξει ότι είναι αθώος έχοντας καταδικαστεί για τον φόνο του παιδιού ενός διοικητή. https://www.imdb.com/title/tt10431500/ ΑΝ ΘΕΛΕΤΕ ΝΑ ΣΤΗΡΙΞΕΤΕ ΤΗΝ ΔΟΥΛΕΙΑ ΜΟΥ ΚΑΝΤΕ ΕΥΚΟΛΑ ΚΑΙ ΓΡΗΓΟΡΑ ΛΟΓΑΡΙΑΣΜΟ ΣΤΟ EASYBYTEZ KAI KATEΒΑΣΤΕ ΣΑΝ PREMIUM AΠO 20HOST!! http://www.easybytez.com/free2771.html
  21. Είδος Ταινίας: Biography, Drama, Music Πρεμιέρα: 1 November 2018 (Greece) Σκηνοθέτης: Bryan Singer Σενάριο: Anthony McCarten (story by), Peter Morgan (story by) Ηθοποιοί: Rami Malek, Lucy Boynton, Gwilym Lee Υπότιτλοι: Ελληνικοί Ενσωματωμένοι & Σε Ξεχωριστό Αρχείο Μετάφραση: BHU Διάρκεια: 134' Καταλληλότητα: - encoder: .:Sexmeup:. Πηγή: 1080p.BluRay.x264-SPARKS Υπόθεση: To Bohemian Rhapsody είναι μια ωδή στους Queen, τη μουσική τους και τον ξεχωριστό τραγουδιστή τους Φρέντι Μέρκιουρι. O Φρέντι αψήφησε τα στερεότυπα και τους συμβιβασμούς για να γίνει ένας από τους πιο αγαπητούς καλλιτέχνες του πλανήτη. Η ταινία ακολουθεί τη ραγδαία άνοδο της μπάντας μέσα από τα εμβληματικά τραγούδια και τον επαναστατικό τους ήχο. Γνωρίζουν απαράμιλλη επιτυχία, αλλά σε μια απροσδόκητη τροπή ο Φρέντι, περιτριγυρισμένος από κακές επιρροές, παρατάει τους Queen για να κάνει σόλο καριέρα. Έχοντας υποφέρει πολύ χωρίς τους Queen, καταφέρνει να επανενωθεί μαζί τους λίγο πριν τη συναυλία «Live Aid». Ενώ έχει μόλις διαγνωσθεί ως φορέας του AIDS, ο Φρέντι οδηγεί με γενναιότητα την μπάντα σε μία από τις καλύτερες συναυλίες στην ιστορία της ροκ μουσικής. Οι Queen αφήνουν μια κληρονομιά που συνεχίζει να εμπνέει τους ασυμβίβαστους, τους ονειροπόλους και τους λάτρεις της μουσικής μέχρι και σήμερα. https://www.imdb.com/title/tt1727824/ ΑΝ ΘΕΛΕΤΕ ΝΑ ΣΤΗΡΙΞΕΤΕ ΤΗΝ ΔΟΥΛΕΙΑ ΜΟΥ ΚΑΝΤΕ ΕΥΚΟΛΑ ΚΑΙ ΓΡΗΓΟΡΑ ΛΟΓΑΡΙΑΣΜΟ ΣΤΟ EASYBYTEZ KAI KATEΒΑΣΤΕ ΣΑΝ PREMIUM AΠO 20 HOST!! http://www.easybytez.com/free2771.html
  22. To Κάποτε Στο Χόλιγουντ, επισκέπτεται το Λος Άντζελες του 1969, όπου όλα αλλάζουν, όταν ο διάσημος τηλεοπτικός αστέρας Rick Dalton και ο επί χρόνια κινηματογραφικός του «παρτενέρ», που εκτελεί χρέη κασκαντέρ, Cliff Booth βρίσκονται σε μια βιομηχανία που δεν μπορούν πλέον να αναγνωρίσουν. https://www.imdb.com/title/tt7131622/ Είδος Ταινίας: Comedy, Drama Πρεμιέρα: 22 August 2019 (Greece) Σκηνοθέτης: Quentin Tarantino Σενάριο: Quentin Tarantino Ηθοποιοί: Leonardo DiCaprio, Brad Pitt, Margot Robbie Ελληνικός Τίτλος: Κάποτε στο Χόλιγουντ Μετάφραση: AvereL Διάρκεια: 161' EASYBYTEZ | FILEFACTORY| LINK FOR FREE USERS
  23. Είδος Ταινίας: Drama, Sport Πρεμιέρα: 5 March 2020 (Greece) Σκηνοθέτης: Gavin O'Connor Σενάριο: Brad Ingelsby Ηθοποιοί: Ben Affleck, Al Madrigal, Janina Gavankar Υπότιτλοι: Ελληνικοί Ενσωματωμένοι & Σε Ξεχωριστό Αρχείο Ελληνικός Τίτλος: Ο Δρόμος της Επιστροφής Μετάφραση: Αγγελική Γκέκα Διάρκεια: 108' Καταλληλότητα: -encoder: .:Sexmeup:. Πηγή: 1080p.WEB-DL.H264.AC3-EVO Υπόθεση: Ο Τζακ Κάνινγχαμ (Μπεν Άφλεκ) είχε μπροστά του μια ζωή γεμάτη υποσχέσεις. Στο γυμνάσιο ήταν το παιδί φαινόμενο στο μπάσκετ, κατορθώνοντας να πάρει πλήρη υποτροφία για το πανεπιστήμιο, όταν ξαφνικά, για άγνωστους λόγους, αποσύρεται από τα πάντα, καταστρέφοντας το μέλλον του. Τον παίρνει η κάτω βόλτα, βιώνει μία ανυπολόγιστη απώλεια και «βυθίζεται» στο αλκοόλ, γεγονός που του κοστίζει το γάμο του και κάθε ελπίδα για μια καλύτερη ζωή. Όταν του ζητείται να προπονήσει την ομάδα μπάσκετ του πανεπιστημίου του που έχει πέσει πολύ σε σχέση με τις ένδοξες εποχές του αποδέχεται την πρόταση, εκπλήσσοντας περισσότερο απ' όλους τον εαυτό του. Καθώς οι παίκτες δένουν μεταξύ τους ως ομάδα και πετυχαίνουν τη μία νίκη μετά την άλλη, ο Τζακ αισθάνεται ότι ίσως έχει βρει τελικά ένα λόγο για να αντιμετωπίσει τους δαίμονές του. Όμως, θα είναι αυτό αρκετό για να γεμίσει το κενό του, να θεραπεύσει τις βαθιές πληγές του παρελθόντος και να τον οδηγήσει στο δρόμο για τη λύτρωση; https://www.imdb.com/title/tt8544498/ ΑΝ ΘΕΛΕΤΕ ΝΑ ΣΤΗΡΙΞΕΤΕ ΤΗΝ ΔΟΥΛΕΙΑ ΜΟΥ ΚΑΝΤΕ ΕΥΚΟΛΑ ΚΑΙ ΓΡΗΓΟΡΑ ΛΟΓΑΡΙΑΣΜΟ ΣΤΟ EASYBYTEZ KAI KATEΒΑΣΤΕ ΣΑΝ PREMIUM AΠO 20HOST!! http://www.easybytez.com/free2771.html
  24. ΠΑΚΕΤΟ 54 ΘΡΗΣΚΕΥΤΙΚΩΝ ΤΑΙΝΙΩΝ 1927 - THE KING OF KINGS 1949 - SAMSON AND DELILAH 1951 - DAVID AND BATHSHEBA 1953 - SALOME 1953 - THE ROBE 1954 - DEMETRIUS AND THE GLADIATORS 1956 - THE TEN COMMANDMENTS 1959 - SOLOMON AND SHEBA 1960 - THE STORY OF RUTH 1960 - DAVID AND GOLIATH 1961 - BARABBAS 1961 - KING OF THE KINGS 1962 - SODOM AND GOMORRAH 1964 - THE GOSPEL ACCORDING TO ST. MATTHEW 1965 - THE GREATEST STORY EVER TOLD 1966 - THE BIBLE IN THE BEGINNING 1977 - JESUS OF NAZARETH 1981 - PETER AND PAUL 1985 - KING DAVID 1985 - THE FOURTH WISE MAN 1988 - JEREMIAH 1988 - THE LAST TEMPTATION OF CHRIST 1993 - ABRAHAM 1994 - THE VISUAL BIBLE: ACTS 1994 - THE BIBLE STORIES:GENESIS 1994 - JACOB 1995 - JOSEFH 1995 - MOSES 1997 - DAVID 1997 - KING SOLOMON 1998 - LES MISERABLES 1999 - JESUS 1999 - ESTHER 1999 - NOAH'S ARK 2000 - ST. PAUL 2000 - IN THE BEGGINING 2000 - (CLOSE TO JESUS) JOSEPH OF NAZARETH (Gli amici di Gesù - Giuseppe di Nazareth) 2000 - (CLOSE TO JESUS) MARIA MADDALENA (Gli amici di Gesù - Maria Maddalena) 2001 - (CLOSE TO JESUS) JUDAS (Gli amici di Gesù - Giuda) 2001 - (CLOSE TO JESUS) THOMAS (Gli amici di Gesù - Tommaso) 2002 - SAN GIOVANNI - L'APOCALISSE 2003 - THE VISUAL BIBLE: THE GOSPEL OF JOHN 2004 - THE PASSION OF THE CHRIST 2004 - JUDAS 2004 - THE MESSIAH: PROPHECY FULFILLED 2005 - SAN PIETRO 2006 - THE FINAL INQUIRY (L' INCHIESTA) 2006 - THE NATIVITY STORY 2006 - ONE NIGHT WITH THE KING 2007 - MAGDALENA: RELEASED FROM SHAME 2012 - APOSTLE PETER AND THE LAST SUPPER 2013 - THE BOOK OF ESTHER 2013 - THE BOOK OF DANIEL 2014 - SON OF GOD
  25. Η ΜΕΓΑΛΗ ΧΙΜΑΙΡΑ - ΘΕΑΤΡΟ ΠΟΡΕΙΑ (2018) 1080p WEB-DL x264-GrLTv Σε αυτό το επικό ερωτικό μελόδραμα παρακολουθούμε την ιστορία μιας Γαλλίδας, της Μαρίνας Μπαρέ, που έρχεται να ζήσει στην Ελλάδα, ερωτευμένη και παντρεμένη με έναν Έλληνα εφοπλιστή, αλλά και παθιασμένη με την ελληνική κλασσική παιδεία. Ερχόμενη σε επαφή όμως με την ίδια την χώρα των ονείρων της, συναντά τις δικές της Χίμαιρες: το δραματικό τοπίο τραχύ, κι αισθησιακό ταυτόχρονα, την παρασύρει σε μια μοιραία δίνη πάθους, πυροδοτεί τα παλιά ψυχολογικά της τραύματα και τη οδηγεί στην αυτοκαταστροφή. Πόσο μπορεί να «σκάψει» εντός της μια σκηνοθεσία; Με νέα διανομή αλλά πάντα με την Αλεξάνδρα Αϊδίνη να κυριαρχεί, ξαναδουλεμένη στη λεπτομέρειά της με έναν βαθιά ψυχολογικό ρεαλισμό, η «Μεγάλη Χίμαιρα» λειτουργεί παραδειγματικά: ιδού τι σημαίνει αστικό θέατρο. Δεν είναι η πρώτη φορά που καταπιάνομαι (ή παρακολουθώ) τη «Μεγάλη Χίμαιρα». Θεωρώ, όμως, πως η παράσταση με την τεράστια απήχηση βρήκε πλέον το καλλιτεχνικό πεπρωμένο της. Προφανώς, έχουν παίξει ρόλο η αλλαγή διανομής, η εκ νέου επεξεργασία κάποιων σκηνών και, πρωτίστως, το ξεκαθάρισμα των προθέσεων. Η «Μεγάλη Χίμαιρα», το περίφημο μυθιστόρημα του Μ. Καραγάτση, ανεβαίνει από τον εγγονό του, Δημήτρη Τάρλοου, σαν επικό μελόδραμα ηρωικών διαστάσεων και σαν αστική τραγωδία στα πρότυπα εκείνων του Ευγένιου Ο’ Νιλ. Οι μύθοι και οι επιστήμες –η ψυχιατρική, η νευρολογία και η κοινωνική ανθρωπολογία– επιστρατεύονται τόσο από τον Καραγάτση όσο και τον Τάρλοου για να διερευνήσουν το κατεξοχήν ερώτημα που ταλανίζει την τέχνη του θεάτρου: «Τι είναι ο άνθρωπος;». Με την παροιμιώδη θυμοσοφία του, ο Καραγάτσης και, ακολουθώντας τα νήματα της παιγνιώδους σκέψης του, ο Τάρλοου, αφού μας επιτρέψουν επί δυόμισι ώρες να αναλογιστούμε διάφορες απαντήσεις, θα καταλήξουν στην εξής αφοριστική: «Τροφή για τα καβούρια». Άξονας των πάντων είναι μια μορφή υψηλής δραματικής σαγήνης, η Νορμανδή ελληνολάτρις Μαρίνα Μπαρέ, με το τραυματικό παρελθόν και τη νευρωσική συμπεριφορά. Η Αλεξάνδρα Αϊδίνη ερμηνεύει τον εξαιρετικά σύνθετο αυτό ρόλο ακροπατώντας στο κρυστάλλινο κέλυφός του, σε ένα ρεσιτάλ αδιαπραγμάτευτης βιρτουοζιτέ. Λόγοι, πόθοι, συμπλέγματα και ψυχισμοί έχουν δουλευτεί σε βάθος και ο θίασος (Μάξιμος Μουμούρης, Δημήτρης Μοθωναίος, Σμαράγδα Σμυρναίου, Ειρήνη Φαναριώτη) καταθέτει έξοχες ερμηνείες, με την Καίτη Μανωλιδάκη, ως χαροκαμένη μάνα, να κλέβει τις εντυπώσεις. Η σύνδεση των εξαιρετικά κινηματογραφημένων –διά χειρός Χρήστου Δήμα– μερών με τη θεατρική δράση ίσως άντεχε περισσότερη επεξεργασία, όπως και η διασκευή του Στρατή Πασχάλη ή κάποιες σκηνικές διευθετήσεις, τις οποίες ούτως ή άλλως δεν ευνοεί το τηλεοπτικό ντεκόρ της Ελένης Μανωλοπούλου. Κάθε φορά, πάντως, που η υποκριτική γραμμή του ψυχολογικού ρεαλισμού διαρρηγνύεται, η παράσταση απογειώνεται, όπως στη σκηνή της κλινοπάλης των δύο εραστών με βάση τη ζωώδη χορογραφία της Ζωής Χατζηαντωνίου. Ο λόγος αστραποβολεί πρωτόγνωρα. Δεν συνηθίζεται δραματικά πρόσωπα να μιλούν έτσι δίχως τα λεγόμενά τους να φαντάζουν εστέτ ή κούφια. Ο λόγος γίνεται εδώ συνώνυμος της δράσης, καθώς αυτή είναι κυρίως εσωτερική παρά εξωτερική. Με αφορμή ένα ερωτικό τρίγωνο, η «Μεγάλη Χίμαιρα» μάς εμπλέκει σε έναν ωκεανό στοχασμών έντεχνα εκλαϊκευμένων: οι ελληνικοί μύθοι, το ιδεώδες της κλασικής αρχαιότητας, η λογική των συμβόλων, η αγωνία της ελληνικότητας, η διαλεκτική Ευρώπης-Ελλάδας. Οι θεματικές αυτές αναπτύσσονται σε ομόκεντρους και αναπόδραστους κύκλους, εγκλωβίζοντας τους ήρωες στην ειμαρμένη των ψευδαισθήσεων –η χίμαιρα του τίτλου– και στη φυλακή της σάρκας. Παραστάσεις όπως η συγκεκριμένη λειτουργούν παραδειγματικά. Η «Μεγάλη Χίμαιρα» επαναπροσδιορίζει τους όρους του αστικού θεάτρου, προωθώντας το, μάλιστα, από το στίβο του θεάματος σε εκείνον του στοχασμού. Ιλειάνα Δημάδη - Αθηνόραμα [video]https://www.youtube.com/watch?time_continue=37&v=OFARyZUu-CQ&feature=emb_logo[/video] ΤΕΧΝΙΚΑ ΧΑΡΑΚΤΗΡΙΣΤΙΚΑ General Complete name : I.Megali.Ximaira.2018.1080p.WEB-DL.x264-GrLTv.mkv Format : Matroska Format version : Version 4 / Version 2 File size : 3.93 GiB Duration : 2 h 22 min Overall bit rate mode : Variable Overall bit rate : 3 958 kb/s Encoded date : UTC 2020-03-25 00:55:16 Writing application : TMPGEnc Video Mastering Works 6 Version. 6.2.10.37 Writing library : TMPGEnc Video Mastering Works 6 Version. 6.2.10.37
×