Jump to content

Search the Community

Showing results for tags 'δράμα'.



More search options

  • Search By Tags

    Type tags separated by commas.
  • Search By Author

Content Type


Forums

  • ΓΕΝΙΚΑ - GENERAL
    • Γενικές Ανακοινώσεις - General Announcements
    • Κανόνες - Rules
    • Βοηθητικοί Οδηγοί
    • Συζήτηση - Discussion
    • Συστηθείτε - Introduse yourself
    • Γαστρονομικές Οπτασίες - Recipes
    • Το γέλιο είναι μεταδοτικό... Μεταδώστε το!!! - Fun Place
    • Υγεία
  • ΕΛΛΗΝΙΚΗ ΜΟΥΣΙΚΗ - GREEK MUSIC
    • Νέα CDs 2016-2020
    • Promos
    • Single Remix
    • Ελληνικά Ψηφιακά Cds - Greek Digital Cds
    • Ελληνικά CDs 2010-2015
    • Παλαιότερα Ελληνικά CDs μέχρι το 2009
    • Παραδοσιακά CDs
    • Ρεμπέτικο Στέκι
    • Δίσκοι Βινυλίου 33 Στροφών
    • Δισκάκια 45 στροφών και γραμμοφώνου
    • Επανεκδόσεις
    • Συλλογές
    • Box Set Collections
    • Ελληνικά Mix - Remix
    • Παιδικά Ελληνικά CDs
    • Δισκογραφίες
  • ΞΕΝΗ ΜΟΥΣΙΚΗ - INTERNATIONAL MUSIC
    • Νέα CDs 2016-2020
    • Promos
    • Παλαιότερα Ξένα CDs
    • Συλλογές
    • Box Set Collections
    • Ξένα Mix - Remix
    • Παιδικά Ξένα CDs
    • Δισκογραφίες
  • ΜΟΥΣΙΚΗ ΣΕ ΠΟΙΟΤΗΤΑ LOSSLESS
    • Ελληνικά CDs
    • Ξένα CDs
  • ΤΑΙΝΙΕΣ - MOVIES
    • Ξένες Ταινίες με ελληνικούς υπότιτλους 2016 - 2020
    • Ελληνικές Ταινίες - Greek Movies
    • Παλαιότερες Κλασσικές Ξένες Ταινίες (μέχρι το 1990)
    • Ξένες Ταινίες με ελληνικούς υπότιτλους 1991 - 2015
    • Ξένες Ταινίες HD 720p BRRIP Avi
    • Ξένες Ταινίες BluRay
    • Ξένες Ταινίες Micro HD
    • WWE SmackDown
    • Φιλμογραφίες
    • Παιδικές Ταινίες
    • Ντοκιμαντέρ
    • Θεατρικές Παραστάσεις
  • ΕΠΟΧΙΑΚΑ
    • Χριστούγεννα
    • Πάσχα
    • Αποκριές
    • Αγίου Βαλεντίνου
  • ΤΗΛΕΟΠΤΙΚΟ ΠΡΟΓΡΑΜΜΑ
    • Ελληνικές Σειρές
    • Ξένες Σειρές
    • Τούρκικες Σειρές
    • Τηλεοπτικές Eκπομπές
  • ΠΑΙΧΝΙΔΙΑ - GAMES
    • Pc Games
    • Play Station Games
    • XBOX
    • Mac Games
  • ΕΦΑΡΜΟΓΕΣ - ΠΡΟΓΡΑΜΜΑΤΑ
    • Λειτουργικά Προγράμματα
    • Προγράμματα Προστασίας
    • Εργαλεία Συστήματος
    • Εργαλεία Πολυμέσων
    • Portable Προγράμματα
    • Προγράμματα για Mac
    • Internet Tools
    • Tutorials
  • E-BOOKS
    • Έλληνες Συγγραφείς
    • Ξένοι Συγγραφείς
    • Κόμικς
    • Περιοδικά
    • Audio Books
  • ΑΝΑΖΗΤΗΣΗ
    • Μουσική
    • Ταινίες - Σειρές
    • Παιχνίδια
    • Προγράμματα
    • E-Books
  • V.I.P

Find results in...

Find results that contain...


Date Created

  • Start

    End


Last Updated

  • Start

    End


Filter by number of...

Found 1,132 results

  1. ΑΓΡΙΕΣ ΜΕΛΙΣΣΕΣ (2019) ΑΝΤ1 TV TVrip AVI Θεσσαλικός Κάμπος 1958. Τρεις αδελφές. Ένας καταναγκαστικός γάμος. Ένας βιασμός. Ένας φόνος κι ένα μεγάλο μυστικό. Άγριες Μέλισσες... Οι «Άγριες Μέλισσες» είναι η νέα δραματική σειρά εποχής του ΑΝΤ1 που υπόσχεται να αντεπεξέλθει στις υψηλές προδιαγραφές της παραγωγής της. Μια δυνατή ιστορία με ξεχωριστή κινηματογραφική ματιά, που την έχουμε ξεχωρίσει όχι μόνο για τους βραβευμένους συντελεστές - όπως τον Λευτέρη Χαρίτο στη σκηνοθεσία της σειράς - και το πολυπρόσωπο καστ, το οποίο προέρχεται από τη σκηνή του θεάτρου, αλλά και για τα εντυπωσιακά σκηνικά και κοστούμια που συμβάλλουν σημαντικά στο να δημιουργηθεί το συναίσθημα μίας άλλης εποχής. Σε σενάριο της Μελίνας Τσαμπάνη και στη διεύθυνση φωτογραφίας τον Βαγγέλη Κατριτζιδάκη, η αισθητική της σειράς είναι ιδιαίτερα κινηματογραφική, προϊδεάζοντάς μας για το περιεχόμενό της, το οποίο βασίζεται όχι μόνο σε ένα δυνατό σενάριο, αλλά και σε ηθοποιούς που διαπρέπουν στον χώρο της υποκριτικής. Κάθε φορά που γεννιόνταν μία κόρη ο πατέρας της Ελένης, της Ασημίνας και της Φρόσως φύτευε και μία λεύκα στην άκρη του περιβολιού τους για να τιμήσει τον ερχομό του νέου παιδιού. Όσο αυτές μεγάλωναν και έστεκαν ψηλές και λυγερόκορμες, τόσο τις καμάρωνε σαν τις κόρες του. Στην πιο περήφανη λεύκα, όμως, στη λεύκα της Ελένης, ένα σμήνος από άγριες μέλισσες είχε πια φωλιάσει. «Τυχερή θα είσαι, κόρη μου, κι η ζωή θα είναι γλυκιά σαν τούτο εδώ το μέλι. Θα δεις» της έλεγε ο πατέρας της. Όμως, τα χρόνια πέρασαν και η Ελένη κοιτούσε τη λεύκα και αφουγκραζόταν τον βόμβο... «Πού να 'ξέρες, πατέρα... Πού να 'ξέρες πως η ζωή μόνο πίκρες έχει γράψει για το ριζικό μου». Τους ήρωες της σειράς «Άγριες Μέλισσες» θα ενσαρκώσουν πολλοί γνωστοί και καταξιωμένοι ηθοποιοί, όπως οι:Κάτια Δανδουλάκη, Γιάννης Στάνκογλου, Μαρία Κίτσου, Ελένη Τρίγγου, Γιώργος Γάλλος, Λεωνίδας Κακούρης, Κατερίνα Διδασκάλου, Δανάη Μιχαλάκη, Χριστίνα Χειλά-Φαμέλη, Δημήτρης Γκοτσόπουλος, Ιωάννης Αθανασόπουλος, Ανδρέας Κωνσταντίνου, Αναστάσης Ροΐλος, Δανάη Λουκάκη, Ελένη Καρακάση, Μαρία Πετεβή, Αλίκη Αλεξανδράκη, Μαρία Αντουλινάκη, Γιώργος Σουξές, Θεοφανία Παπαθωμά, Αλέξανδρος Καλπακίδης, Θανάσης Κουρλαμπάς, Γιώργος Γεροντιδάκης, Χρήστος Πλαΐνης, Βαγγέλης Αλεξανδρής, Αμαλία Καβάλη, Γιάννης Κουκουράκης, Κωστής Σαββιδάκης, Κωνσταντίνος Δανίκας. General Complete name :MELISSES.EP.01.avi Format : AVI Format/Info : Audio Video Interleave File size : 1.32 GiB Duration : 1 h 14 min Overall bit rate : 2 547 kb/s Video #0 ID : 0 Format : AVC Format/Info : Advanced Video Codec Format profile : [email protected] Format settings : 1 Ref Frames Format settings, CABAC : No Format settings, ReFrames : 1 frame Codec ID : H264 Duration : 1 h 14 min Bit rate : 2 405 kb/s Width : 640 pixels Height : 360 pixels Display aspect ratio : 16:9 Frame rate : 25.000 FPS Color space : YUV Chroma subsampling : 4:2:0 Bit depth : 8 bits Scan type : Progressive Bits/(Pixel*Frame) : 0.418 Stream size : 1.25 GiB (94%) Writing library : x264 core 146 r2538 121396c Audio #1 ID : 1 Format : MPEG Audio Format version : Version 1 Format profile : Layer 3 Codec ID : 55 Codec ID/Hint : MP3 Duration : 1 h 14 min Bit rate mode : Constant Bit rate : 128 kb/s Channel(s) : 2 channels Sampling rate : 48.0 kHz Compression mode : Lossy Stream size : 68.0 MiB (5%) Alignment : Aligned on interleaves Interleave, duration : 24 ms (0.60 video frame)
  2. ΜΟΙΡΑΙΑ ΣΧΕΣΗ (2009) DVDRip ΠΛΗΡΟΦΟΡΙΕΣ Είδος Ταινίας : .Δραματική Διάρκεια : .127 λεπτά Σκηνοθεσία : .Ερρίκος Ανδρέου Σενάριο : .Ερρίκος Ανδρέου Ηθοποιοί : . Νίνα Λοτσάρη Σπύρος Σπαντίδας Μαριάννα Πολυχρονίδη Αλμπέρτο Εσκενάζυ Τιτίκα Βλαχοπούλου Μάκης Ρευματάς Ανέστης Βλάχος ΥΠΟΘΕΣΗ Ο Φάνης που μεγάλωσε με πολλές δυσκολίες σ`ένα νησί του Ιονίου, αναλαμβάνει μια επικίνδυνη αποστολή: Να παραδώσει ένα δέμα που περιέχει άκρως απόρρητα έγγραφα στο σπίτι του δικηγόρου Παγουλάτου. Όμως η αποστολή έχει προδοθεί κι έτσι ο Φάνης αναγκάζεται να κρύψει τα έγγραφα γιατί κινδυνεύει η ζωή του. Λίγο αργότερα έρχεται στο νησί μια κοπέλα, η Ανθή, που κατά κάποιο τρόπο έχει ανάμειξη στην ιστορία με τα απόρρητα έγγραφα. Όταν γνωρίζεται με τον Φάνη νιώθει μια ακαταμάχητη έλξη γι`αυτόν. Ανακαλύπτουν και οι δύο ότι είναι ερωτευμένοι. Ο Φάνης, με προτροπή της Ανθής, έρχεται στην Αθήνα... Η σχέση του με την Ανθή διέρχεται από πολλές διακυμάνσεις... Κάποια στιγμή αντιλαμβάνεται ότι η ζωή του κινδυνεύει σε κάθε του βήμα. Αιτία τα έγγραφα που εξακολουθεί να έχει κρυμμένα... Ο έρωτάς του με την Ανθή σιγά σιγά εξελίσσεται σ`έναν εφιάλτη... https://www.cine.gr/film.asp?id=711626 ΤΕΧΝΙΚΑ ΧΑΡΑΚΤΗΡΙΣΤΙΚΑ General Complete name : ΜΟΙΡΑΙΑ ΣΧΕΣΗ DVDRIP(2009).mp4 Format : MPEG-4 Format profile : Base Media / Version 2 Codec ID : mp42 (mp42/isom/avc1) File size : 1.53 GiB Duration : 2 h 6 min Overall bit rate mode : Variable Overall bit rate : 1 730 kb/s Movie name : MY DVD.Title1 Album : MY DVD Encoded date : UTC 2017-05-16 07:42:59 Tagged date : UTC 2017-05-16 08:22:06 Writing application : DVDFab 9.2.1.9 covr : Unknown kind of value!
  3. UNCLE VANYA / DYADYA VANYA (1970) 720p (Irina Anisimova-Wulf, Sergey Bondarchuk) | ΞΕΧΩΡΙΣΤΟΙ ΥΠΟΤΙΤΛΟΙ Director: Andrey Konchalovskiy (as Andrey Mikhalkov-Konchalovskiy) Writers: Anton Chekhov (play), Andrey Konchalovskiy (screenplay) Stars: Irina Anisimova-Wulf, Sergey Bondarchuk, Irina Kupchenko Υπότιτλοι: zamandy-P.Faliro-Athens Ο Ιβάν, γνωστός ως θείος Βάνια, ζει με την ανιψιά του Σόνια στο οικογενειακό τους κτήμα. Όταν ο πατέρα της Σόνια βγαίνει σε σύνταξη επιστρέφει μαζί με τη νέα γυναίκα του, την Ελενα, δυσκολεύοντας τη ζωή των δυο τους. Το κλασικό αριστούργημα του Άντον Τσέχοφ μεταφέρεται στην οθόνη από τον Αντρέι Μιχάλκοφ – Κοντσαλόφσκι. [video]https://www.youtube.com/watch?v=tb-0oEAOlsM[/video] https://www.imdb.com/title/tt0065671/ ΤΕΧΝΙΚΑ ΧΑΡΑΚΤΗΡΙΣΤΙΚΑ General Complete name : Uncle Vanya ( Dyadya Vanya) (1970) 720p.avi Format : AVI Format/Info : Audio Video Interleave File size : 805 MiB Duration : 1 h 38 min Overall bit rate : 1 141 kb/s Writing application : Lavf55.22.102
  4. HOPE GAP (2020) BDRip XviD AC3-EVO | ENΣΩΜΑΤΩΜΕΝΟΙ ΥΠΟΤΙΤΛΟΙ ΣΚΗΝΟΘΕΣΙΑ : William Nicholson ΣΕΝΑΡΙΟ : William Nicholson ΗΘΟΠΟΙΟΙ : Annette Bening, Bill Nighy, Josh O'Connor ΕΙΔΟΣ : Drama, Romance ΠΡΕΜΙΕΡΑ : 3 October 2019 (Italy) ΜΕΤΑΦΡΑΣΗ : JADE Η πλοκή του έργου εστιάζει στην ‘Grace’ (Annette Bening), η οποία ύστερα από είκοσι εννέα χρόνια γάμου, μαθαίνει ότι ο άνδρας της θέλει να χωρίσουν επειδή αγαπάει μία άλλη γυναίκα. Η ίδια σοκαρισμένη από την αποκάλυψη αυτή έχει την ανάγκη από ένα ισχυρό ηθικό έρεισμα που το βρίσκει στον γιο τους (Josh O'Connor). Θέλοντας να αφήσει λίγο πίσω της αυτή την δυσάρεστη κατάσταση, γυρίζει στην ιδιαίτερη πατρίδα της, μία μικρή παραθαλάσσια πόλη, και η ηρωίδα σιγά σιγά ξαναβρίσκει τις ισορροπίες της και βλέπει τις πληγές της να κλείνουν, ανακαλύπτοντας ξανά τον εαυτό της. IMDB: https://www.imdb.com/title/tt7587876/
  5. STORIE DI ORDINARIA FOLLIA-ΕΡΩΤΙΚΕΣ ΙΣΤΟΡΙΕΣ ΚΑΘΗΜΕΡΙΝΗΣ ΤΡΕΛΑΣ (1981) DVDRip - ΕΝΣΩΜΑΤΩΜΕΝΟΙ ΥΠΟΤΙΤΛΟΙ Σκηνοθεσία: Marco Ferreri Σενάριο: Marco Ferreri, Sergio Amidei, Anthony Foutz, Marco Ferreri, Sergio Amidei, από το βιβλίο του Charles Bukowski Ηθοποιοί: Ben Gazzara, Ornella Muti, Susan Tyrrell, Tanya Lopert, Roy Brocksmith, Katya Berger, Judith Drake Μουσική: Philippe Sarde Φωτογραφία: Tonino Delli Colli Μοντάζ: Ruggero Mastroianni Έτος: 1981 Διάρκεια: 1h:36m:29s Είδος: Drama Χώρα: Ιταλία, Γαλλία Γλώσσα: Αγγλικά Υπότιτλοι: Ελληνικά, ενσωματωμένοι στο container, από το original DVD. Χρώμα: Έγχρωμο DVDRip, SubRip, Προσαρμογή-Συγχρονισμός: Lafistios Source: PAL DVD5 Μεταφορά στη μεγάλη οθόνη, από τον Ιταλό σκηνοθέτη Μάρκο Φερέρι, του ομότιτλου αυτοβιογραφικού μυθιστορήματος του Τσαρλς Μπουκόφσκι, που αποτέλεσε ένα από τα δημοφιλέστερα αναγνώσματα της δεκαετίας του ’80. Η ταινία, τολμηρή όσο και το μυθιστόρημα, αφήνει ωστόσο και μια πικρή γεύση, καθώς καταγράφει την απόλυτη μοναξιά ενός ήρωα που αναζητούσε τη διαφυγή μέσα από το ποτό και τους εφήμερους έρωτες. Στους δύο κεντρικούς ρόλους ο Μπεν Γκαζάρα και η Ορνέλα Μούτι. Περιπλανώμενος σε έναν άχαρο και εσωστρεφή κόσμο, κάτω από τον καυτό αποδιωχτικό ήλιο του Λος Άντζελες, ο συγγραφέας Τσαρλς Σίρκιν πνίγει με ταχύτατους ρυθμούς τα καθημερινά ζόρια της ζωής και τις αναμνήσεις των σεξουαλικών του κατακτήσεων, νεότερων και παλιότερων, στο φτηνό ποτό. Η γνωριμία του με μια αινιγματική νεαρή πόρνη, την Κας, θα δώσει μια πνοή στο μίζερο εικοσιτετράωρο του, αφού η ερωτική σχέση που θα αναπτυχθεί μεταξύ τους θα είναι φλογερή. Δυστυχώς για εκείνη, η προσφορά από ένα εκδοτικό οίκο της Νέα Υόρκης θα υποχρεώσει τον μεσήλικα Τσαρλς να μεταβεί στο Big Apple και να την εγκαταλείψει ολομόναχη, διατηρώντας το ερωτηματικό μέσα του για τι θα είχε συμβεί εάν είχε επιλέξει να ακολουθήσουν ένα κοινό μέλλον. Γυρνώντας στην Πόλη των Αγγέλων για να την αναζητήσει, θα πληροφορηθεί πως η Κας έχει αυτοκτονήσει, γεγονός που θα τον ωθήσει και πάλι στην ερήμωση. «Άλλωστε το διόδιο για την κατάκτηση της αιώνιας Τέχνης ίσως να είναι κάποιο είδος πνευματικής διαφορετικότητας. Αυτό που ο πρωταγωνιστής Μπεν Γκαζάρα αναφέρει ως στυλ στον εναρκτήριο λόγο του. Και δεν υπάρχει αμφιβολία πως εμείς μέσα σε αυτό το αλλόκοτο σύμπαν πλοηγούμαστε στο εσωτερικό (ιδιότυπο) δωμάτιο ενός καλλιτέχνη. Ένα σύμπαν ελαφρώς παρανοϊκό. Ένα δωμάτιο που χορεύει σε μελαγχολικές σκούρες μπλε συχνότητες, με στιγμιαίες παύσεις θερμού κόκκινου. Έναν κόσμο πλημμυρισμένο με αρχέγονα ένστικτα. Όπου η οινοποσία είναι μία πόρτα εξόδου απ` τη λογική. Έναν κόσμο σκοτεινό, συνειδητοποιημένα περιθωριακό, όπου κυριαρχεί η μηδενιστική ποίηση του Τσαρλς Μπουκόφσκι.» Πηγή: cine.gr [video]https://www.youtube.com/watch?v=wfyah1V0g1g[/video] https://www.imdb.com/title/tt0086410/ ΤΕΧΝΙΚΑ ΧΑΡΑΚΤΗΡΙΣΤΙΚΑ General Complete name : Storie di ordinaria follia.1981.DVDRip.x264.AC3.mkv Format : Matroska Format version : Version 4 File size : 1.28 GiB Duration : 1 h 36 min Overall bit rate : 1 897 kb/s Encoded date : UTC 2018-10-25T05:32:21Z Writing application : HandBrake 1.1.2 2018090500 Writing library : Lavf57.7.2
  6. ΟΝΕΙΡΟ ΑΡΙΣΤΕΡΗΣ ΝΥΧΤΑΣ (1987) DVDRip ΠΛΗΡΟΦΟΡΙΕΣ Είδος Ταινίας : Κωμωδία Διάρκεια : 1 h 30 min Σκηνοθεσία : Ντίνος Κατσουρίδης , Νίκος Καλογερόπουλος Σενάριο : Ντίνος Κατσουρίδης , Νίκος Καλογερόπουλος Ηθοποιοί : Βασίλης Τσιπίδης , Νίκος Καλογερόπουλος , Μίνα Χειμωνά , Γιώργος Τσιτσόπουλος , Μελίνα Μποτέλη , Γιώργος Κέντρος , Ταϋγέτη , Γιάννης Φύριος , Δημήτρης Καμπερίδης , Χριστίνα Αυλιανού , Κώστας Νταλιάνης , Δημήτρης Κατσιμάνης , Ανδρέας Βαρούχας , Ρίκα Βαγιάνη , Δημήτρης Γιαννακόπουλος (I) , Δήμητρα Ζέζα , Νικόλας Άσιμος , Γιώργος Αλεξόπουλος , Τάσος Σαρίδης ΥΠΟΘΕΣΗ Ένας αριστερός (Νίκος Καλογερόπουλος) φτάνει στα όρια της αυτοκτονίας, βιώνοντας μια δυνατή κρίση. Προσπαθεί να γράψει ένα βιβλίο για όλα όσα ίσχυαν κάποτε, αλλά σήμερα έχουν αλλάξει. Όλα γύρω του μοιάζουν απόμακρα. Οι φίλοι, η οικογένεια, το Κόμμα από το οποίο αποχώρησε. Η ελπίδα του για ένα διαφορετικό μέλλον είναι ουσιαστικά νεκρή. http://www.cine.gr/film.asp?id=701637&page=2 ΤΕΧΝΙΚΑ ΧΑΡΑΚΤΗΡΙΣΤΙΚΑ General Complete name : ΟΝΕΙΡΟ ΑΡΙΣΤΕΡΗΣ ΝΥΧΤΑΣ (1987).avi Format : AVI Format/Info : Audio Video Interleave File size : 1.60 GiB Duration : 1 h 30 min Overall bit rate : 2 536 kb/s Writing library : VirtualDub build 35491/release
  7. ΠΕΘΑΙΝΩ ΚΑΘΕ ΞΗΜΕΡΩΜΑ (1969) DVDRip (DVDRip - Καζάκος - easybytez - filefactory) Είδος: Δραματική Διάρκεια: 90 λεπτά Παραγωγής: 1969 Χρώμα: Ασπρόμαυρο Ήχος: Dolby digital Γλώσσα: Ελληνικά Παραγωγή: Φίνος φιλμ Σκηνοθεσία: Νίκος Φώσκολος Σενάριο: Νίκος Φώσκολος Μουσική: Μίμης Πλέσσας Τραγουδούν: Γιώργος Χατζηαντωνίου Μιχάλης Βιολάρης Δέσποινα Σταυρουλάκη Υπόθεση: Στον μικρό κόσμο του λιμανιού διαδραματίζονται οι ιστορίες των τριών αδελφών, της Πέρσας, της Χαράς και της Αναστασίας. Ο πατέρας τους πριν πεθάνει έφτιαξε την ταβέρνα «Τα τρία κορίτσια». Εκεί τραγουδάει η Πέρσα και εκεί συχνάζει η παλιοπαρέα του αρχαιοκάπηλου Ζάχου. Ο λιμενοφύλακας Ορφέας ευρισκόμενος στο κυνήγι του Ζάχου θα ερωτευθεί την Πέρσα και μετά από ένα θανατηφόρο ατύχημα σε ώρα υπηρεσίας θα περάσει στην παρανομία. Η Τασία περιμένει τον αγαπημένο της να επιστρέψει. Έχουν περάσει δέκα χρόνια από τότε που έφυγε με καράβι. Ο Αλέκος προσπαθεί να φύγει λαθρεπιβάτης για τα ξένα. Έχει έναν θείο στο Αλγέρι. Μια μέρα ο θείος του θα του στείλει την πολυπόθητη πρόσκληση, αλλά ο Αλέκος τελικά θα συνειδητοποιήσει ότι ο μόνος άνθρωπος που τον αγαπάει είναι η Χαρά. Θα αφήσει το καράβι για να μείνει με την Χαρά. Ο Ορφέας θα χτυπηθεί με τον Ζάχο και θα τον νικήσει, αλλά η παρέα του Ζάχου για να εκδικηθεί θα του στήσει καρτέρι μια νύχτα. Τελικά στους αρραβώνες της Χαράς και του Αλέκου ο αγαπημένος της Τασίας θα επιστρέψει, ενώ ο Ορφέας θα πάρει μαζί του την Πέρσα πέφτοντας μπροστά σε ένα τρένο. Ηθοποιοί: Κώστας Καζάκος Μάρθα Καραγιάννη Άγγελος Αντωνόπουλος Μάρθα Βούρτση Σπύρος Καλογήρου Νόρα Βαλσάμη Νίκος Γαλανός Τζένη Ζαχαροπούλου Σωτήρης Μουστάκας Μαρία Φωκά Χρήστος Δοξαράς Ελένη Κριτή Χρήστος Δακτυλίδης Νίκη Μακρή Νίκος Κικίλιας Χρήστος Καλαβρούζος Άρης Τσιούνης Νάσος Κεδράκας Χρήστος Στύπας
  8. ΟΙ ΑΜΑΡΤΩΛΟΙ (1971) HDTv ΠΛΗΡΟΦΟΡΙΕΣ Είδος Ταινίας : Κοινωνική Διάρκεια : 1 h 35 min Σκηνοθεσία : Γιάννης Δαλιανίδης Σενάριο : Γιάννης Δαλιανίδης Ηθοποιοί : Μπέτυ Λιβανού , Χρήστος Νομικός , Χαριτίνη Καρόλου , Καίτη Ιμπροχώρη , Βασίλης Ανδρεόπουλος , Νίκος Δενδρινός , Τάσος Μασμανίδης , Γιώργος Τσαούσης , Ερρίκος Κονταρίνης , Πέτρος Κυρίμης , Δημήτρης Ζακυνθινός , Λάμπρος Κοτσίρης , Στράτος Παχής , Γιάννης Σαββαϊδης , Θέμης Μάνεσης , Νάσος Κεδράκας , Αντώνης Λιώτσης , Εύα Φρυδάκη , Ανθή Γούναρη , Άρτεμις Τσάρμη , Δημήτρης Ιωακειμίδης , Γιάννης Τότσικας , Γιώργος Χαραλαμπίδης , Νίκος Παπαχρήστος , Νίκος Σκιαδάς , Τάσος Ράμσης , Πάνος Τουλιάτος , Κυριάκος Κατριβάνος , Νίκος Μπιτζάνης , Λάκης Γκέκας , Μαίρη Σπάθη (ως Μαίρη Μοντ) , Γιώργος Ιωσηφίδης ΥΠΟΘΕΣΗ Ο θεσσαλονικιός Γιώργος θέλει να κάνει ένα νέο ξεκίνημα στην Αθήνα αλλά ο εργοστασιάρχης θείος του που πίστευε ότι θα τον βοηθούσε τον αφήνει στην τύχη του. Μια κοπελα που είχε γνωρίσει στο τραίνο δέχεται να τον φιλοξενίσει για λίγο καιρό.Οι προσπάθειες του να βρει δουλειά αποβαίνουν άκαρπες και η βοήθεια που του προσφέρει ένας πατρίωτης του τον μπλεκει με μια σπείρα εμπόρων ναρκωτικών.Συλλαμβάνεται απο την αστυνομία αλλά η κοπέλα που τον αγαπά τον σώζει απο την φυλακή.Οι δρόμοι τους χωρίζουν και εκεινος γνωρίζει μια πλούσια κυρία και γίνεται εραστής της. http://www.cine.gr/film.asp?id=717505 ΤΕΧΝΙΚΑ ΧΑΡΑΚΤΗΡΙΣΤΙΚΑ General Complete name : ΟΙ ΑΜΑΡΤΩΛΟΙ (1971).mkv Format : Matroska Format version : Version 4 File size : 1.75 GiB Duration : 1 h 35 min Overall bit rate : 2 624 kb/s Writing application : Lavf57.71.100 Writing library : Lavf57.71.100 ErrorDetectionType : Per level 1
  9. ΜΙΡΑΝΤΑ ΑΓΑΠΗ ΜΟΥ (1966) TVRip ΠΛΗΡΟΦΟΡΙΕΣ Είδος Ταινίας : .Δραματική Διάρκεια : .81 λεπτά Σκηνοθεσία : .Αντώνης Βουγιούκας Σενάριο : .Γιάννης Ιωαννίδης Ηθοποιοί : . Αφροδίτη Γρηγοριάδου Τάκης Ασημακόπουλος Μιχάλης Μπαλλής Εύα Φρυδάκη ΥΠΟΘΕΣΗ Η Μιράντα, όντας παράλυτη, πέφτει θύμα εκμετάλλευσης ενός υπαλλήλου του πατέρα της, ο οποίος εποφθαλμιά την περιουσία της, βρίσκει όμως στήριγμα στο πρόσωπο ενός νέου που την αγαπά αληθινά. https://www.cine.gr/film.asp?id=702288 ΤΕΧΝΙΚΑ ΧΑΡΑΚΤΗΡΙΣΤΙΚΑ General Complete name : ΜΙΡΑΝΤΑ ΑΓΑΠΗ ΜΟΥ TVRIP(1966).mkv Format : Matroska Format version : Version 4 File size : 1.90 GiB Duration : 1 h 20 min Overall bit rate : 3 356 kb/s Writing application : Lavf57.71.100 Writing library : Lavf57.71.100 ErrorDetectionType : Per level 1
  10. ΤΟ ΑΓΚΙΣΤΡΙ (1976) DVDRip ( DVDRip - Günther - easybytez - worldbytez) Είδος: Δραματική Παραγωγής: 1976 Διάρκεια: 90 λεπτά Χρώμα: Έγχρωμο Ήχος: Dolby Digital Γλώσσα: English,Greek Παραγωγή: Κλέαρχος Κονιτσιώτης Σκηνοθεσία: Ερρίκος Ανδρέου Σενάριο: Κλέαρχος Κονιτσιώτης Μουσική: Γιώργος Χατζηνάσιος Υπόθεση: Ο Κώστας είναι ένας πανίσχυρος μεγιστάνας, ερωτευμένος με την όμορφη γυναίκα του Ηρώ, πρώην μοντέλο, η οποία όμως τον απατά μ’ έναν νεαρό πλέι μπόι, τον Νίκο. Οι δύο εραστές σχεδιάζουν να σκοτώσουν τον Κώστα, και πιστεύουν ότι η ευκαιρία παρουσιάζεται κατά τη διάρκεια ενός ιστιοπλοϊκού αγώνα πιστεύοντας ότι το έγκλημα μπορεί να θεωρηθεί ως ατύχημα. Όμως στη θάλασσα πέφτει ο Νίκος, το πτώμα του οποίου δεν βρίσκεται ποτέ. Η αστυνομία που ερευνά τα αίτια του ατυχήματος δεν πιστεύει τους ισχυρισμούς της μνηστής του Νίκου, η οποία διατείνεται ότι ο αρραβωνιαστικός της δολοφονήθηκε. Ο Κώστας αποδεικνύεται γνώστης των σχεδίων της γυναίκας του και του Νίκου, και η δήθεν εξαφάνιση του δεύτερου είναι δική του επινόηση για να πάρει εκδίκηση. Ωστόσο, η σύγκρουση του αντρόγυνου θα αποβεί μοιραία για όλους. Θρίλερ με αποδέκτη το διεθνές κοινό, γνώρισε σχετική επιτυχία με τον διεθνή τίτλο The Hook. Ηθοποιοί: Günther Stoll Barbara Bouchet Bob Behling Σοφία Ρούμπου Γιώργος Κυρίτσης Jessica Dublin Ντίνος Καρύδης Λίτσα Γάλλου Κυριάκος Δανίκας Σπύρος Βουτσινάς Διονύσης Πριονάς Γιώργος Βακουλέτος Γιάννης Τσικνής Σημειώσεις: Από την ομώνυμη νουβέλλα του Κλέαρχου Κονιτσιώτη επεξεργασία σεναρίου: Ερρίκος Ανδρέου, Πάνος Κοντέλης σύμβουλος ιστιοπλοΐας: Γιώργος Βακουλέτος
  11. THE AERIALIST (2020) WEBRip 720p x264 - YIFY | ENΣΩΜΑΤΩΜΕΝΟΙ ΥΠΟΤΙΤΛΟΙ ΣΚΗΝΟΘΕΣΙΑ : Ned Farr ΣΕΝΑΡΙΟ : Ned Farr (screenplay by) ΗΘΟΠΟΙΟΙ : Dreya Weber, Morgan Bradley, Kelly Marcus ΕΙΔΟΣ : Drama ΠΡΕΜΙΕΡΑ : 2020 (USA) Μια εναέρια αθλητρια κανει πρόβα για μια περιοδεία ροκ και μάχεται με την ηλικία, τον τραυματισμό της και έναν νεαρό σκηνοθέτη που σχεδιάζει να τερματίσει την καριέρα της. ΥΠΟΤΙΤΛOI:★★ΕΝΣΩΜΑΤΩΜΕΝΟΙ★★ ΑΠΟΔΟΣΗ ΔΙΑΛΟΓΩΝ:★★CAPTAIN-SFTeam★★ IMDB: https://www.imdb.com/title/tt9158416/
  12. ★ Πληροφορίες Σειράς ★ Είδος: Drama | Thriller Δημιουργός: Allan Cubitt Ηθοποιοί: Gillian Anderson, Jamie Dornan, Laura Donnelly imdb : www.imdb.com/title/tt2294189/ Yπότιτλοι: Eλληνικοί Ξεχωριστοί ★★ ΥπόΘεση Σειράς ★★ Ένα συναρπαστικό ψυχολογικό θρίλερ, που ακολουθεί την αστυνομική έρευνα, αποκαλύπτοντας την περίπλοκη ιστορία από τη ζωή, τόσο του δολοφόνου, όσο και των οικογενειών των θυμάτων. Η Gillian Anderson είναι η DSI Gibson, που φτάνει στο Μπέλφαστ, για να προβεί σε εξέταση μιας υπόθεσης δολοφονίας υψηλού προφίλ, όπου η αστυνομία δεν μπορεί να εξακριβώσει. Συνειδητοποιεί γρήγορα ότι η υπόθεση συνδέεται με άλλους και ότι υπάρχει ένας θανάσιμος κατά συρροή δολοφόνος. Ο Jamie Dornan είναι ο κατά συρροή δολοφόνος, Paul Spector, ο οποίος παραμονεύει τα θύματα του τυχαία μέσα και γύρω από το Μπέλφαστ. ★★★ Trailer Σειράς ★★★ ★★★★ EasyBytez ★★★★
  13. ΚΟΚΚΙΝΟ ΠΟΤΑΜΙ (2019) OPEN TV TVrip AVI Η ιστορία που διηγείται «Το Κόκκινο Ποτάμι» ξεκινά στην κωμόπολη Ακ Νταγ Ματέν του νομού Αγκύρας το Μάιο του 1895. Ξεκινά όταν η οικογένεια του Γεωργίου Παυλίδη αρραβωνιάζει το 12χρονο γιο της, τον Μίλτο, µε την μόλις 9χρονη Ιφιγένεια, κόρη του Μιχάλη Νικολαΐδη. Ένας αρραβώνας σκοπιμότητας, όπως συνηθιζόταν εκείνη την εποχή, καθώς σύμφωνα µε το μουσουλμανικό νόμο αν ένα κορίτσι αρραβωνιαζόταν θεωρείτο ατιμασμένο και δεν επιτρεπόταν να γίνει γυναίκα μουσουλμάνου. Οι επιθέσεις των φανατικών Τούρκων θα αναγκάσουν τις δύο οικογένειες, να εγκαταλείψουν τον τόπο τους. Οι δυο νέοι θα ξανασυναντηθούν τυχαία στην Κωνσταντινούπολη 11 χρόνια μετά. Xωρίς να γνωρίζουν την οικογενειακή σχέση που τους δένει, ερωτεύονται κεραυνοβόλα. Ένας έρωτας που θα βρεθεί αντιμέτωπος με πολλά δεινά. Ηθοποιοί: Ιωάννης Παπαζήσης, Αναστασία Παντούση, Τάνια Τρύπη, Κωνσταντίνος Καζάκος, Τάκης Βαμβακίδης, Χαρά – Μάρα Γιαννάτου, Τατιάνα Παπαμόσχου, Δημήτρης Δρόσος, Σωτήρης Χατζάκης, Στέφανος Κυριακίδης, Πέτρος Ξεκούκης, Κώστας Ξηκομηνός, Αργύρης Πανταζάρας, Νικόλας Παπαγιάννης, Γιώργος Παυλίδης, Γεράσιμος Σκιαδαρέσης, Γιώργος Τσαμπουράκης, Θοδωρής Φρατζέσκος, Κέλλυ Γιακουμάκη καθώς και πολλοί ακόμα ταλαντούχοι ηθοποιοί. Συντελεστές Σκηνοθεσία: Μανούσος Μανουσάκης Σενάριο: Νίκος Απειρανθίτης, Δώρα Μασκλαβάνου Διευθυντής φωτογραφίας: Γιώργος Παπανδρικόπουλος Διευθυντής Μοντάζ: Κωνσταντίνος Αδρακτάς Σκηνογράφος: Κατερίνα Ζουράρη Ενδυματολόγος: Μαρία Μαγγίρα Διεύθυνση Παραγωγής: Μαρία Μανουσάκη General Complete name :POTAMI.EP.01-02.avi Format : AVI Format/Info : Audio Video Interleave File size : 1.27 GiB Duration : 1 h 23 min Overall bit rate : 2 163 kb/s Video #0 ID : 0 Format : AVC Format/Info : Advanced Video Codec Format profile : [email protected] Format settings : 1 Ref Frames Format settings, CABAC : No Format settings, ReFrames : 1 frame Codec ID : H264 Duration : 1 h 23 min Bit rate : 2 022 kb/s Width : 1 024 pixels Height : 576 pixels Display aspect ratio : 16:9 Frame rate : 25.000 FPS Color space : YUV Chroma subsampling : 4:2:0 Bit depth : 8 bits Scan type : Progressive Bits/(Pixel*Frame) : 0.137 Stream size : 1.18 GiB (93%) Audio #1 ID : 1 Format : MPEG Audio Format version : Version 1 Format profile : Layer 3 Codec ID : 55 Codec ID/Hint : MP3 Duration : 1 h 23 min Bit rate mode : Constant Bit rate : 128 kb/s Channel(s) : 2 channels Sampling rate : 48.0 kHz Compression mode : Lossy Stream size : 76.8 MiB (6%) Alignment : Aligned on interleaves Interleave, duration : 24 ms (0.60 video frame)
  14. A Fortunate Man (Lykke-Per) (2018) 1080p BRRip x264 | ENΣΩΜΑΤΩΜΕΝΟΙ ΥΠΟΤΙΤΛΟΙ Director: Bille August Writers: Anders Frithiof August (screenplay), Bille August (screenplay) Stars: Esben Smed, Benjamin Kitter, Julie Christiansen IMDB: https://www.imdb.com/title/tt8436026/ Ένας ταλαντούχος μηχανικός αφήνει τις συντηρητικές του ρίζες για να αναζητήσει πλούτη και επιτυχίες στην ελίτ της Κοπεγχάγης. Η περηφάνια όμως ίσως τον καταστρέψει.
  15. ΤΟ ΤΕΛΕΥΤΑΙΟ ΨΕΜΑ (1958) DVDrip [DVDrip- Λαμπέτη - easybytez - filefactory Εναλλακτικός Τίτλος: A Matter Of Dignity Είδος: Αισθηματική, Δραματική Διάρκεια: 112 λεπτά Α' Προβολή: 10/2/1958 Εισιτήρια: 50156 Παραγωγή: Φίνος Φιλμ Χρώμα: Ασπρόμαυρο Ήχος: Dolby Digital Γλώσσα: Ελληνικά Σκηνοθέτης: Μιχάλης Κακογιάννης Σενάριο: Μιχάλης Κακογιάννης Μουσική: Μάνος Χατζιδάκις Υπόθεση: Η όμορφη κόρη μιας ξεπεσμένης Αθηναϊκής αριστοκρατικής οικογένειας που πασχίζει να διατηρήσει το πρόσχημα της ευημερίας ενώ στην πραγματικότητα πνίγεται απ' τα χρέη, πιέζεται από την μητέρα της να πνίξει τα συναισθήματά της και να παντρευτεί έναν πλούσιο. Η σχέση της με την υπηρέτρια της οικογένειας την φέρνει κοντά στους απλούς ανθρώπους της εργατικής τάξης και της αποκαλύπτει μια διαφορετική οπτική της ζωής. Hθοποιοί: Έλλη Λαμπέτη Γεώργιος Παππάς Μιχάλης Νικολινάκος Δημήτρης Παπαμιχαήλ Ελένη Ζαφειρίου Αθηνά Μιχαηλίδου Δέσπω Διαμαντίδου Μηνάς Χρηστίδης Ζωρζ Σαρρή Βασίλης Καΐλας Νίκος Φέρμας Μαίρη Χρονοπούλου Νίκος Κούρκουλος Δέσποινα Νικολαΐδου Αφίσες εποχής: Σχόλια: Η ταινία προβλήθηκε τη σαιζόν 1957-1958 και έκοψε 50.156 εισιτήρια. Ήρθε στην 5η θέση σε 31 ταινίες.
  16. Yellowstone - Seasons 1-3 (2018-2020) WebRip Xvid | ΞΕΧΩΡΙΣΤΟΙ ΕΛΛΗΝΙΚΟΙ ΥΠΟΤΙΤΛΟΙ ★ Πληροφορίες Σειράς ★ Είδος σειράς: Drama, Western Δημιουργός : John Linson, Taylor Sheridan Ηθοποιοί: Kevin Costner, Luke Grimes, Kelly Reilly IMDB : www.imdb.com/title/tt4236770/ Yπότιτλοι: Eλληνικοί Ξεχωριστοί ★★ ΥπόΘεση Σειράς ★★ Η ιστορία ακολουθεί την οικογένεια Dutton και τον πατριάρχη της John Dutton (Costner), που ελέγχει το μεγαλύτερο όμορο ράντζο στις Ηνωμένες Πολιτείες, το οποίο δέχεται συνεχείς επιθέσεις απο αυτούς με τους οποίους συνορεύει, άλλους γαιοκτήμονες, έναν Ινδιάνικο καταυλισμό και το πρώτο Εθνικό Πάρκο της χώρας. Μια έντονη ματιά ενός βίαιου κόσμου, όπου η αρπαγή της γής παράγει δισεκατομμύρια, την ώρα που οι πολιτικοί αγοράζονται και πωλούνται απο τις μεγαλύτερες εταιρείες πετρελαίου και ξυλείας. Εκεί όπου το πόσιμο νερό δηλητηριάζεται απο την άντληση πετρελαίου και οι άλυτοι φόνοι δεν αποτελούν νέα. Ολα αυτά είναι οι συνέπειες του να ζείς στα νέα σύνορα. Είναι τα καλύτερα και χειρότερα της Αμερικής, μέσα απο τα μάτια μιας οικογένειας που αντιπροσωπεύει και τα δυο. ★★★ Trailer Σειράς ★★★ ★★★★ EasyBytez ★★★★
  17. THE BANKER (2020) WEBRip XviD AC3-FGT | ENΣΩΜΑΤΩΜΕΝΟΙ ΥΠΟΤΙΤΛΟΙ ΣΚΗΝΟΘΕΣΙΑ : George Nolfi ΣΕΝΑΡΙΟ : Brad Kane (story by), Niceole R. Levy ΗΘΟΠΟΙΟΙ : Anthony Mackie, Samuel L. Jackson, Nicholas Hoult ΕΙΔΟΣ : Drama ΠΡΕΜΙΕΡΑ : 20 March 2020 (USA) ΜΕΤΑΦΡΑΣΗ : DVD Το The Bankers βασίζεται σε πραγματική ιστορία και διηγείται την ιστορία δύο Αφροαμερικανών επιχειρηματιών που, τη γεμάτη ρατσισμό δεκαετία του '50 έβαλαν σε δράση ένα ιδιαίτερα επικίνδυνο σχέδιο για να βοηθήσουν τους συνανθρώπους τους. Σκοπός τους ήταν να αγοράσουν μία τράπεζα ώστε να εξυπηρετούν εκείνους που ξεσπιτώνονταν λόγω ενός ρατσιστικού νόμου. Φυσικά αυτό δεν ήταν δυνατό να το κάνουν οι ίδιοι, έτσι προσέλαβαν έναν λευκό άνδρα, του έμαθαν τα πάντα για το deal και τον χρησιμοποίησαν ως βιτρίνα, όμως η αλήθεια δεν αργεί και βγει στην επιφάνεια και ότι κατάφεραν κινδυνεύει να καταρρεύσει. IMDB: https://www.imdb.com/title/tt6285944/
  18. Grantchester - Seasons 1-5 (2015-2020) DVDRip x264 | ΞΕΧΩΡΙΣΤΟΙ ΕΛΛΗΝΙΚΟΙ ΥΠΟΤΙΤΛΟΙ ★ Πληροφορίες Σειράς ★ Είδος: Drama | Mystery Δημιουργός: Daisy Coulam Ηθοποιοί: James Norton, Robson Green, Morven Christie imdb : www.imdb.com/title/tt3747572/ Yπότιτλοι: Ελληνικοί Ξεχωριστοί ★★ ΥπόΘεση Σειράς ★★ Το Grantchester ακολουθεί τον Sidney Chambers, ένα χαρισματικό, γοητευτικό άντρα που θα γίνει ερευνητής όταν ένας γνωστός του θα πεθάνει υπό ύποπτες συνθήκες. Συνεργάτης του θα είναι ο Geordie Keating, ο οποίος είναι απλός άνθρωπος και με πιο προσιτή συμπεριφορά, και οι δύο τους θα είναι πολύ καλοί φίλοι. ★★★ Trailer Σειράς ★★★ ★★★★ EasyBytez ★★★★
  19. Breaking Bad - Seasons 1-5 (2008-2013) Hdtv XviD - Complete | ΞΕΧΩΡΙΣΤΟΙ ΕΛΛΗΝΙΚΟΙ ΥΠΟΤΙΤΛΟΙ ★ Πληροφορίες Σειράς ★ Κατηγορία: Drama Δημιουργός: Vince Gilligan Ηθοποιοί: Bryan Cranston,Anna Gunn,Aaron Paul,Dean Norris IMDB : www.imdb.com/title/tt0903747/ Υπότιτλοι : Ξεχωριστοί Ελληνικοί ★★ ΥπόΘεση Σειράς ★★ Το Breaking Bad ακολουθεί τον πρωταγωνιστή Γουόλτερ Γούαϊτ (Bryan Cranston), έναν καθηγητή χημείας που ζει στο Νέο Μεξικό με την γυναίκα του (Anna Gunn) και τον έφηβο γιο του (RJ Mitte) που πάσχει από μια εγκεφαλική δυσλειτουργία. Στον Γουάϊτ γίνεται διάγνωση ότι έχει καρκίνο στο στάδιο 3 και του δίνεται πρόγνωση για 2 εναπομείναντα χρόνια ζωής. Με ένα πρωτόγνωρο συναίσθημα να μην φοβάται απολύτως τίποτα βασισμένο στην ιατρική πρόγνωση, και με μια μεγάλη επιθυμία να σιγουρέψει την οικονομική ασφάλεια της οικογένειας του, ο Γουάϊτ επιλέγει να εισχωρήσει στον επικίνδυνο κόσμο των ναρκωτικών και του εγκλήματος καθώς και αναρριχηθεί σε αυτό τον κόσμο. Η σειρά εξερευνεί πως μια τόσο μοιραία διάγνωση, όπως αυτή του Γουάϊτ, αποδεσμεύει ένα άνδρα από τις καθημερινές ανησυχίες και τους περιορισμούς της κανονικής κοινωνίας και ακολουθεί την μεταμόρφωση του από έναν ευγενικό οικογενειάρχη στον επικεφαλή του εμπορίου ναρκωτικών. ★★★ Trailer Σειράς ★★★ ★★★★ EasyBytez ★★★★
  20. The Romanoffs - Season 1 (2018) WebRip Xvid | ΞΕΧΩΡΙΣΤΟΙ ΕΛΛΗΝΙΚΟΙ ΥΠΟΤΙΤΛΟΙ ★ Πληροφορίες Σειράς ★ Είδος σειράς: Drama Δημιουργός : Matthew Weiner Ηθοποιοί: Aaron Eckhart, Kathryn Hahn, Christina Hendricks IMDB : www.imdb.com/title/tt6599482/ Yπότιτλοι: Eλληνικοί Ξεχωριστοί ★★ ΥπόΘεση Σειράς ★★ Ο Οίκος των Ρομανόφ υπήρξε η κυβερνώσα δυναστεία του Βασιλείου της Ρωσίας και κατόπιν της Ρωσικής Αυτοκρατορίας για τρεις αιώνες. Όταν όμως το 1917 ο Τσάρος Νικόλαος Β΄ καθαιρέθηκε και εκτελέστηκε από τους Μπολσεβίκους, τα μέλη της ευρύτερης οικογένειας που επέζησαν της δίωξης, βρήκαν καταφύγιο στην Ευρώπη και από εκεί σε όλο το κόσμο. Από τότε, πολλοί, πάρα πολλοί ισχυρίστηκαν ότι ήταν μέλη της οικογένειας ή αργότερα απόγονοί τους, προσπαθώντας να κερδίσουν κάποια προνόμια και να εκμεταλλευτούν τον τίτλο ευγενείας. Το ανθολογιακό The Romanoffs. η σειρά θα επικεντρώνεται σε διαφορετικούς χαρακτήρες ανά το κόσμο, ο καθένας από τους οποίους ισχυρίζεται ότι είναι της οικογένειας των Ρομανόφ, με όλα τα δραματικά αλλά και κωμικά ευτράπελα. ★★★ Trailer Σειράς ★★★ ★★★★ EasyBytez ★★★★
  21. Control Z - Season 1 (2020) WebRip x264 | ΞΕΧΩΡΙΣΤΟΙ ΕΛΛΗΝΙΚΟΙ ΥΠΟΤΙΤΛΟΙ ★ Πληροφορίες Σειράς ★ Είδος σειράς: Drama Δημιουργός : Miguel García Moreno, Adriana Pelusi, Carlos Quintanilla Ηθοποιοι : Ana Valeria Becerril, Michael Ronda, Yankel Stevan IMDB : www.imdb.com/title/tt11937662/ Yπότιτλοι: Eλληνικοί Ξεχωριστοί ★★ ΥπόΘεση Σειράς ★★ Η σειρά έχει να κάνει με έναν έναν hacker ο οποίος επιδιώκει να φέρει στο φως τα ένοχα μυστικά των μαθητών ενός λυκείου. Ωστόσο μία ήπιων τόνων αλλά παρατηρητική και εύστροφη μαθήτρια, η Sofía θα μπει εμπόδιο στα σχέδιά του και θα προσπαθήσει να ανακαλύψει ποιος είναι. ★★★ Trailer Σειράς ★★★ ★★★★ EasyBytez ★★★★
  22. My Brilliant Friend - Seasons 1-2 (2018-2020) WebRip X264 | ΞΕΧΩΡΙΣΤΟΙ ΕΛΛΗΝΙΚΟΙ ΥΠΟΤΙΤΛΟΙ ★ Πληροφορίες Σειράς ★ Είδος σειράς: Drama Δημιουργός : Elena Ferrante Ηθοποιοί: Valentina Acca, Antonio Buonanno, Gennaro Canonico IMDB : www.imdb.com/title/tt7278862/ Yπότιτλοι: Eλληνικοί Ξεχωριστοί ★★ ΥπόΘεση Σειράς ★★ To My Brilliant Friend αφηγείται την ιστορία δύο γυναικών, της Έλενα και της Ραφαέλα, με φόντο τις φτωχογειτονιές της Νάπολης, ξεκινώντας από την παιδική τους ηλικία τη δεκαετία του ’50. Με τη λήξη της φοίτησής τους στο δημοτικό, οι ζωές των δύο κοριτσιών χωρίζονται, καθώς, λόγω οικονομικών δυσκολιών, ο πατέρας της Ραφαέλα δεν μπορεί να την αφήσει να συνεχίσει τις σπουδές της. Από την άλλη, η Έλενα, καταφέρνει να συνεχίσει στο γυμνάσιο και στη συνέχεια, στο λύκειο. Οι δρόμοι των δύο κοριτσιών, ωστόσο, συνεχίζουν να διασταυρώνονται.Η αφήγηση γίνεται σε πρώτο πρόσωπο από την Έλενα, μέσα από την οποία σκιαγραφείται πλήθος από χαρακτήρες, τοποθεσίες και έθιμα της μεταπολεμικής Νάπολης σε μια ιστορία που καλύπτει περίπου 60 χρόνια. ★★★ Trailer Σειράς ★★★ ★★★★ EasyBytez ★★★★
  23. LUCE (2019) BRRip XviD AC3-EVO | ENΣΩΜΑΤΩΜΕΝΟΙ ΥΠΟΤΙΤΛΟΙ ΣΚΗΝΟΘΕΣΙΑ : Julius Onah ΣΕΝΑΡΙΟ : J.C. Lee (play), J.C. Lee (screenplay) ΗΘΟΠΟΙΟΙ : Naomi Watts, Octavia Spencer, Tim Roth ΕΙΔΟΣ : Drama ΠΡΕΜΙΕΡΑ : 5 September 2019 (Israel) ΜΕΤΑΦΡΑΣΗ : DROMON Ο Luce, ένας κορυφαίος αθλητής του λυκείου και αξιόλογος συζητητής, αποτελεί ένα είδωλο του νέου Αμερικανικού Ονείρου. Το ίδιο ισχύει και για τους γονείς του, που τον υιοθέτησαν πρίν απο δεκαετία, απο μια πολεμοδαρμένη χώρα. Όταν η Κα. Wilson, η καθηγήτρια του Luce ανακαλύπτει κάτι σοκαριστικό στο ντουλάπι του, η εξαιρετική φήμη του Luce αμφισβητείται. Είναι όμως δικό του το λάθος, ή μήπως η Κα. Wilson βασίζεται σε επικίνδυνα στερότυπα; IMDB: https://www.imdb.com/title/tt7616148/
  24. Barkskins - Season 1 (2019) WebRip xviD | ΞΕΧΩΡΙΣΤΟΙ ΕΛΛΗΝΙΚΟΙ ΥΠΟΤΙΤΛΟΙ ★ Πληροφορίες Σειράς ★ Είδος σειράς: Drama Δημιουργός : Elwood Reid Ηθοποιοι : Steven McCarthy, James Bloor, David Wilmot IMDB : www.imdb.com/title/tt9426272/ Yπότιτλοι: Eλληνικοί Ξεχωριστοί ★★ ΥπόΘεση Σειράς ★★ Η σειρά εκτυλίσσεται κατά τη δεκαετία του 1690 στο Wobik, μία μικρή αποικία στο Quebec του Καναδά. Όταν η καθολική εκκλησία στέλνει εκεί κάποιους ιερείς της για να μυήσουν στο δόγμα τους τον γηγενή πληθυσμό, τότε ξεσπούν εντάσεις ανάμεσα στους νεοφερμένους και τους ντόπιους. Παράλληλα, η Γαλλία για να εξασφαλίσει τα συμφέροντά της στην περιοχή αποφασίζει να στείλει περισσότερα άτομα να μετοικήσουν στον τόπο αυτόν, μεταξύ των οποίων και πολλές νέες γυναίκες ώστε να βρουν εκεί συζύγους και να κάνουν οικογένειες συμβάλλοντας στην αύξηση των υπηκόων της Νέας Γαλλίας. Όλο αυτό το ετερόκλητο πλήθος ανθρώπων που καταφτάνουν, καλείται να ανταπεξέλθει στις δυσκολίες της ζωής που ξεκινούν στο μέρος αυτό και να τα βγάλει πέρα με τις συγκρούσεις που ολοένα και εντείνονται. ★★★ Trailer Σειράς ★★★ ★★★★ EasyBytez ★★★★
  25. Years And Years (2019) Mini Series - Hdtv x264 | ΞΕΧΩΡΙΣΤΟΙ ΕΛΛΗΝΙΚΟΙ ΥΠΟΤΙΤΛΟΙ ★ Πληροφορίες Σειράς ★ Είδος σειράς: Drama, Sci-Fi Δημιουργός : Russell T. Davies Ηθοποιοι : Rory Kinnear, T'Nia Miller, Anne Reid IMDB : www.imdb.com/title/tt8694364/ Yπότιτλοι: Eλληνικοί Ξεχωριστοί ★★ ΥπόΘεση Σειράς ★★ Η σειρά ακολουθεί την οικογένεια Λάιονς που απαρτίζεται από τον οικογενειάρχη Στίβεν, τον προσφάτως χωρισμένο γκέι Ντάνιελ, την μητέρα δύο παιδιών και καθηλωμένη σε αναπηρικό αμαξίδιο Ρόζι και την ακτιβίστρια Ίντιθ, σε μία περίοδο 15 ετών από το 2019 έως το 2034 καθώς ο κόσμος αλλάζει προς το χειρότερο και οι ίδιοι βρίσκονται εγκλωβισμένοι στα προβλήματα που μπορεί να φέρει μία κοινωνική κρίση. ★★★ Trailer Σειράς ★★★ ★★★★ EasyBytez ★★★★
×