Jump to content

Search the Community

Showing results for tags 'δράμα'.



More search options

  • Search By Tags

    Type tags separated by commas.
  • Search By Author

Content Type


Forums

  • ΓΕΝΙΚΑ - GENERAL
    • Γενικές Ανακοινώσεις - General Announcements
    • Κανόνες - Rules
    • Βοηθητικοί Οδηγοί
    • Συζήτηση - Discussion
    • Συστηθείτε - Introduse yourself
    • Γαστρονομικές Οπτασίες - Recipes
    • Το γέλιο είναι μεταδοτικό... Μεταδώστε το!!! - Fun Place
    • Υγεία
  • ΕΛΛΗΝΙΚΗ ΜΟΥΣΙΚΗ - GREEK MUSIC
    • Νέα CDs 2016-2019
    • Promos
    • Single Remix
    • Ελληνικά Ψηφιακά Cds - Greek Digital Cds
    • Ελληνικά CDs 2010-2015
    • Παλαιότερα Ελληνικά CDs μέχρι το 2009
    • Παραδοσιακά CDs
    • Ρεμπέτικο Στέκι
    • Δισκάκια 45 στροφών και γραμμοφώνου
    • Επανεκδόσεις
    • Συλλογές
    • Box Set Collections
    • Ελληνικά Mix - Remix
    • Παιδικά Ελληνικά CDs
    • Δισκογραφίες
  • ΞΕΝΗ ΜΟΥΣΙΚΗ - INTERNATIONAL MUSIC
    • Νέα CDs 2016-2019
    • Παλαιότερα Ξένα CDs
    • Συλλογές
    • Box Set Collections
    • Ξένα Mix - Remix
    • Παιδικά Ξένα CDs
    • Δισκογραφίες
  • ΜΟΥΣΙΚΗ ΣΕ ΠΟΙΟΤΗΤΑ LOSSLESS
    • Ελληνικά CDs
    • Ξένα CDs
  • ΤΑΙΝΙΕΣ - MOVIES
    • Ελληνικές Ταινίες - Greek Movies
    • Ξένες Ταινίες με ελληνικούς υπότιτλους 2016 - 2019
    • Παλαιότερες Κλασσικές Ξένες Ταινίες (μέχρι το 1990)
    • Ξένες Ταινίες με ελληνικούς υπότιτλους 1991 - 2015
    • Ξένες Ταινίες HD 720p BRRIP Avi
    • Ξένες Ταινίες BluRay
    • Ξένες Ταινίες Micro HD
    • Φιλμογραφίες
    • Παιδικές Ταινίες
    • Ντοκιμαντέρ
    • Θεατρικές Παραστάσεις
  • ΕΠΟΧΙΑΚΑ
    • Χριστούγεννα
    • Πάσχα
    • Αποκριές
    • Αγίου Βαλεντίνου
  • ΤΗΛΕΟΠΤΙΚΟ ΠΡΟΓΡΑΜΜΑ
    • Ελληνικές Σειρές
    • Ξένες Σειρές
    • Τούρκικες Σειρές
    • Τηλεοπτικές Eκπομπές
  • ΠΑΙΧΝΙΔΙΑ - GAMES
    • Pc Games
    • Play Station Games
    • XBOX
    • Mac Games
  • ΕΦΑΡΜΟΓΕΣ - ΠΡΟΓΡΑΜΜΑΤΑ
    • Λειτουργικά Προγράμματα
    • Προγράμματα Προστασίας
    • Εργαλεία Συστήματος
    • Εργαλεία Πολυμέσων
    • Portable Προγράμματα
    • Προγράμματα για Mac
    • Internet Tools
    • Tutorials
  • E-BOOKS
    • Έλληνες Συγγραφείς
    • Ξένοι Συγγραφείς
    • Κόμικς
    • Περιοδικά
    • Audio Books
  • ΑΝΑΖΗΤΗΣΗ
    • Μουσική
    • Ταινίες - Σειρές
    • Παιχνίδια
    • Προγράμματα
    • E-Books
  • V.I.P

Find results in...

Find results that contain...


Date Created

  • Start

    End


Last Updated

  • Start

    End


Filter by number of...

Found 779 results

  1. ★★ Πληροφορίες Ταινίας: ★★ Ελληνικός Τίτλος: Ο Πύργος του Downton Είδος Ταινίας: Drama, Romance Σκηνοθέτης: Michael Engler Σεναριογράφος: Julian Fellowes Ηθοποιοί: Matthew Goode, Michelle Dockery, Maggie Smith Πρεμιέρα: 12 September 2019 (Greece) Μετάφραση: Calamity Jane IMDB: https://www.imdb.com/title/tt1302006/ ★★ ΥπόΘεση Ταινίας: ★★ Βασισμένη στη τηλεοπτική σειρά Downton Abbey, η ταινία αφηγείται την ιστορία μιας εύπορης οικογένειας στην Βρετανική επαρχία στις αρχές του 20ου αιώνα.. ★★ Τεχνικά Χαρακτηριστικά:★★ ★★ EasyBytez ★★ Link For Free Users
  2. The Rookie - Season 1 (2018) Hdtv xviD | ΞΕΧΩΡΙΣΤΟΙ ΕΛΛΗΝΙΚΟΙ ΥΠΟΤΙΤΛΟΙ ΠΛΗΡΟΦΟΡΙΕΣ Είδος σειράς: Crime, Drama Δημιουργός : Alexi Hawley Ηθοποιοί: Nathan Fillion, Alyssa Diaz, Richard T. Jones IMDB : www.imdb.com/title/tt7587890/ Yπότιτλοι: Eλληνικοί Ξεχωριστοί ΥΠΟΘΕΣΗ Ο John Nolan είναι ένας αστυνομικός από μια μικρή πόλη, που μετά από ένα περιστατικό που του άλλαξε τη ζωή, αποφασίζει να ακολουθήσει το όνειρό του και να γίνει αξιωματικός της αστυνομίας του Λος Άντζελες (LAPD). Ως ο μεγαλύτερος σε ηλικία αρχάριος στο σώμα, έρχεται αντιμέτωπος με τις αμφιβολίες των ανωτέρων. Αν δεν μπορέσει να συμβαδίσει με τους νεαρούς συναδέλφους του και τους εγκληματίες, θα βάζει σε ρίσκο τόσο τη δική του, όσο και τη ζωή των συναδέλφων του. Αλλά αν μπορεί να πάρει το προβάδισμα με την εμπειρία του, την αποφασιστικότητά του και το χιούμορ του, μπορεί αυτό να αποτελέσει ένα πολύ επιτυχημένο κεφάλαιο στην ζωή του. TRAILER EasyBytez Η ΣΕΙΡΑ ΑΝΑΝΕΩΘΗΚΕ ΓΙΑ 2η SEASON
  3. ΑΓΡΙΕΣ ΜΕΛΙΣΣΕΣ (2019) ΑΝΤ1 TV TVrip AVI Θεσσαλικός Κάμπος 1958. Τρεις αδελφές. Ένας καταναγκαστικός γάμος. Ένας βιασμός. Ένας φόνος κι ένα μεγάλο μυστικό. Άγριες Μέλισσες... Οι «Άγριες Μέλισσες» είναι η νέα δραματική σειρά εποχής του ΑΝΤ1 που υπόσχεται να αντεπεξέλθει στις υψηλές προδιαγραφές της παραγωγής της. Μια δυνατή ιστορία με ξεχωριστή κινηματογραφική ματιά, που την έχουμε ξεχωρίσει όχι μόνο για τους βραβευμένους συντελεστές - όπως τον Λευτέρη Χαρίτο στη σκηνοθεσία της σειράς - και το πολυπρόσωπο καστ, το οποίο προέρχεται από τη σκηνή του θεάτρου, αλλά και για τα εντυπωσιακά σκηνικά και κοστούμια που συμβάλλουν σημαντικά στο να δημιουργηθεί το συναίσθημα μίας άλλης εποχής. Σε σενάριο της Μελίνας Τσαμπάνη και στη διεύθυνση φωτογραφίας τον Βαγγέλη Κατριτζιδάκη, η αισθητική της σειράς είναι ιδιαίτερα κινηματογραφική, προϊδεάζοντάς μας για το περιεχόμενό της, το οποίο βασίζεται όχι μόνο σε ένα δυνατό σενάριο, αλλά και σε ηθοποιούς που διαπρέπουν στον χώρο της υποκριτικής. Κάθε φορά που γεννιόνταν μία κόρη ο πατέρας της Ελένης, της Ασημίνας και της Φρόσως φύτευε και μία λεύκα στην άκρη του περιβολιού τους για να τιμήσει τον ερχομό του νέου παιδιού. Όσο αυτές μεγάλωναν και έστεκαν ψηλές και λυγερόκορμες, τόσο τις καμάρωνε σαν τις κόρες του. Στην πιο περήφανη λεύκα, όμως, στη λεύκα της Ελένης, ένα σμήνος από άγριες μέλισσες είχε πια φωλιάσει. «Τυχερή θα είσαι, κόρη μου, κι η ζωή θα είναι γλυκιά σαν τούτο εδώ το μέλι. Θα δεις» της έλεγε ο πατέρας της. Όμως, τα χρόνια πέρασαν και η Ελένη κοιτούσε τη λεύκα και αφουγκραζόταν τον βόμβο... «Πού να 'ξέρες, πατέρα... Πού να 'ξέρες πως η ζωή μόνο πίκρες έχει γράψει για το ριζικό μου». Τους ήρωες της σειράς «Άγριες Μέλισσες» θα ενσαρκώσουν πολλοί γνωστοί και καταξιωμένοι ηθοποιοί, όπως οι:Κάτια Δανδουλάκη, Γιάννης Στάνκογλου, Μαρία Κίτσου, Ελένη Τρίγγου, Γιώργος Γάλλος, Λεωνίδας Κακούρης, Κατερίνα Διδασκάλου, Δανάη Μιχαλάκη, Χριστίνα Χειλά-Φαμέλη, Δημήτρης Γκοτσόπουλος, Ιωάννης Αθανασόπουλος, Ανδρέας Κωνσταντίνου, Αναστάσης Ροΐλος, Δανάη Λουκάκη, Ελένη Καρακάση, Μαρία Πετεβή, Αλίκη Αλεξανδράκη, Μαρία Αντουλινάκη, Γιώργος Σουξές, Θεοφανία Παπαθωμά, Αλέξανδρος Καλπακίδης, Θανάσης Κουρλαμπάς, Γιώργος Γεροντιδάκης, Χρήστος Πλαΐνης, Βαγγέλης Αλεξανδρής, Αμαλία Καβάλη, Γιάννης Κουκουράκης, Κωστής Σαββιδάκης, Κωνσταντίνος Δανίκας. General Complete name :MELISSES.EP.01.avi Format : AVI Format/Info : Audio Video Interleave File size : 1.32 GiB Duration : 1 h 14 min Overall bit rate : 2 547 kb/s Video #0 ID : 0 Format : AVC Format/Info : Advanced Video Codec Format profile : [email protected] Format settings : 1 Ref Frames Format settings, CABAC : No Format settings, ReFrames : 1 frame Codec ID : H264 Duration : 1 h 14 min Bit rate : 2 405 kb/s Width : 640 pixels Height : 360 pixels Display aspect ratio : 16:9 Frame rate : 25.000 FPS Color space : YUV Chroma subsampling : 4:2:0 Bit depth : 8 bits Scan type : Progressive Bits/(Pixel*Frame) : 0.418 Stream size : 1.25 GiB (94%) Writing library : x264 core 146 r2538 121396c Audio #1 ID : 1 Format : MPEG Audio Format version : Version 1 Format profile : Layer 3 Codec ID : 55 Codec ID/Hint : MP3 Duration : 1 h 14 min Bit rate mode : Constant Bit rate : 128 kb/s Channel(s) : 2 channels Sampling rate : 48.0 kHz Compression mode : Lossy Stream size : 68.0 MiB (5%) Alignment : Aligned on interleaves Interleave, duration : 24 ms (0.60 video frame)
  4. OVERCOMER (2019) BRRip XviD AC3-XVID | ENΣΩΜΑΤΩΜΕΝΟΙ ΥΠΟΤΙΤΛΟΙ ΣΚΗΝΟΘΕΣΙΑ : Alex Kendrick ΣΕΝΑΡΙΟ : Alex Kendrick, Stephen Kendrick ΗΘΟΠΟΙΟΙ : Alex Kendrick, Ben Davies, Kendrick Cross ΕΙΔΟΣ : Drama, Sport ΠΡΕΜΙΕΡΑ : 23 August 2019 (USA) ΜΕΤΑΦΡΑΣΗ : DVD Ο John Harrison (Alex Kendrick) είναι προπονητής μπάσκετ σε ένα γυμνάσιο. Θα γνωρίσει την Hannah Scott (Aryn Wright-Thompson) και θα γίνει ο προπονητής της. Για την Hannah όμως με αυτή τη γνωριμία θα βρει την απάντηση για ένα θέμα που την απασχολεί εδώ και πολύ καιρό... IMDB: https://www.imdb.com/title/tt8186318/
  5. DOWNTON ABBEY (2019) BRRip XviD AC3-XVID | ENΣΩΜΑΤΩΜΕΝΟΙ ΥΠΟΤΙΤΛΟΙ ΣΚΗΝΟΘΕΣΙΑ : Michael Engler ΣΕΝΑΡΙΟ : Julian Fellowes ΗΘΟΠΟΙΟΙ : Matthew Goode, Michelle Dockery, Maggie Smith ΕΙΔΟΣ : Drama, Romance ΠΡΕΜΙΕΡΑ : 12 September 2019 (Greece) ΜΕΤΑΦΡΑΣΗ : Calamity Jane Βασισμένη στη τηλεοπτική σειρά Downton Abbey, η ταινία αφηγείται την ιστορία μιας εύπορης οικογένειας στην Βρετανική επαρχία στις αρχές του 20ου αιώνα.. IMDB: https://www.imdb.com/title/tt6398184/
  6. ★★ Πληροφορίες Ταινίας: ★★ Ελληνικός Τίτλος: Ο Πύργος του Downton Είδος Ταινίας: Drama, Romance Σκηνοθέτης: Michael Engler Σεναριογράφος: Julian Fellowes Ηθοποιοί: Matthew Goode, Michelle Dockery, Maggie Smith Πρεμιέρα: 12 September 2019 (Greece) Μετάφραση: Calamity Jane IMDB: https://www.imdb.com/title/tt1302006/ ★★ ΥπόΘεση Ταινίας: ★★ Βασισμένη στη τηλεοπτική σειρά Downton Abbey, η ταινία αφηγείται την ιστορία μιας εύπορης οικογένειας στην Βρετανική επαρχία στις αρχές του 20ου αιώνα.. ★★ Τεχνικά Χαρακτηριστικά:★★ http://www.youtube.com/watch?v=yRlBa6J1768 ★★ EasyBytez ★★ Link For Free Users
  7. ★★ Πληροφορίες Ταινίας: ★★ Ελληνικός Τίτλος: - Είδος Ταινίας: Drama, Sport Σκηνοθέτης: Alex Kendrick Σεναριογράφος: Alex Kendrick, Stephen Kendrick Ηθοποιοί: Alex Kendrick, Ben Davies, Kendrick Cross Πρεμιέρα: 23 August 2019 (USA) Μετάφραση: Original IMDB: https://www.imdb.com/title/tt8186318/ ★★ ΥπόΘεση Ταινίας: ★★ Ο John Harrison (Alex Kendrick) είναι προπονητής μπάσκετ σε ένα γυμνάσιο. Θα γνωρίσει την Hannah Scott (Aryn Wright-Thompson) και θα γίνει ο προπονητής της. Για την Hannah όμως με αυτή τη γνωριμία θα βρει την απάντηση για ένα θέμα που την απασχολεί εδώ και πολύ καιρό... ★★ Τεχνικά Χαρακτηριστικά:★★ ★★ EasyBytez ★★ Link For Free Users
  8. The Man In The High Castle - Seasons 1-4 (2015-2019) WEBRIP x264 | ΞΕΧΩΡΙΣΤΟΙ ΕΛΛΗΝΙΚΟΙ ΥΠΟΤΙΤΛΟΙ ★ Πληροφορίες Σειράς ★ Είδος: Drama | Sci-Fi Δημιουργός: Frank Spotnitz Ηθοποιοί: Arnold Chun, Luke Kleintank, Bernhard Forcher imdb : www.imdb.com/title/tt1740299/ Yπότιτλοι: Eλληνικοί Ξεχωριστοί ★★ Υπόθεση Σειράς ★★ Η σειρά εστιάζει σε ένα κόσμο όπου η Ναζιστική Γερμανία και η Ιαπωνία υπήρξαν οι νικητές του Β” Παγκοσμίου Πολέμου. Σχεδόν είκοσι χρόνια μετά τον πόλεμο, η υφήλιος έχει μοιραστεί ανάμεσα στις δυο χώρες. Ομως η ένταση κλιμακώνεται για τις δυνάμεις του Άξονα, και η πίεση εκδηλώνεται στις Ηνωμένες Πολιτείες, όπου ο φασισμός κυριαρχεί και οι λιγοστοί αναπομείναντες Εβραίοι κρύβονται πίσω σπο ψεύτικα ονόματα. ★★★ Trailer Σειράς ★★★ ★★★★ EasyBytez ★★★★
  9. BLINDED BY THE LIGHT (2019) BRRip XViD AC3-XVID | ENΣΩΜΑΤΩΜΕΝΟΙ ΥΠΟΤΙΤΛΟΙ ΣΚΗΝΟΘΕΣΙΑ : Gurinder Chadha ΣΕΝΑΡΙΟ : Sarfraz Manzoor (screenplay), Gurinder Chadha ΗΘΟΠΟΙΟΙ : Billy Barratt, Ronak Singh Chadha Berges, Viveik Kalra ΕΙΔΟΣ : Comedy, Drama, Music ΠΡΕΜΙΕΡΑ : 26 September 2019 (Greece) ΜΕΤΑΦΡΑΣΗ : Calamity Jane Η ταινία διηγείται την ιστορία του Τζέιβντ (Βιβέικ Κάλρα), ενός βρετανού εφήβου πακιστανικής καταγωγής, που μεγάλωσε στην πόλη του Λούτον στην Αγγλία, το 1987. Εν μέσω φυλετικών και οικονομικών αναταραχών, γράφει ποίηση προκειμένου να «ξεφύγει» από τη μισαλλοδοξία που μαστίζει την πόλη του, και την αυστηρότητα του συντηρητικού πατέρα του. Αλλά όταν ένας συμμαθητής του, τον «μυεί» στη μουσική του Μπρους Σπρίνγκστιν, ο Τζέιβντ αισθάνεται ότι η εργατική τάξη στην οποία ανήκει εκείνος και η οικογένειά του, ταυτίζεται και αντικατοπτρίζεται στους δυνατούς στίχους του Μπρους. Καθώς ο Τζέιβτν ανακαλύπτει μία καθαρτική διέξοδο για ν΄ ακολουθήσει τα όνειρά του, ταυτόχρονα βρίσκει το θάρρος να εκφραστεί με τη δική του, μοναδική φωνή... IMDB: https://www.imdb.com/title/tt8266310/
  10. Directed by Stanley Kubrick Written by Howard Sackler Photography by Stanley Kubrick Music by Gerald Fried Edited by Stanley Kubrick Cast Frank Silvera ... Mac Kenneth Harp ... Lt. Corby / The General Paul Mazursky ... Sidney Stephen Coit ... Fletcher / The Captain Virginia Leith ... The Girl David Allen ... Narrator (voice) Ο υπολοχαγός Corby (Kenneth Harp) οδηγεί τους άντρες του δια μέσου εχθρικής περιοχής, σε μία προσπάθεια να επιστρέψουν σε φιλικά εδάφη, βλέπει όμως το σχέδιό του να καταρρέει, όταν συναντούν μία νεαρή γυναίκα. Η κατάσταση αρχίζει να επιδεινώνεται ραγδαία καθώς, ενώ οι άντρες του Corby αρχίζουν να υποφέρουν τόσο ψυχικά όσο και σωματικά, η παρουσία του εχθρού στην περιοχή του απειλεί να εκτροχιάσει εντελώς την απόδρασή τους... https://www.imdb.com/title/tt0045758/?ref_=fn_tt_tt_1
  11. Black Mirror - Seasons 1-5 (2011-2019) HDTV XVID | ΞΕΧΩΡΙΣΤΟΙ ΕΛΛΗΝΙΚΟΙ ΥΠΟΤΙΤΛΟΙ Είδος : Drama | Sci-Fi | Thriller Δημιουργός : Charlie Brooker Ηθοποιοί : Toby Kebbell, Jodie Whittaker, Tom Cullen and Jimi Mistry. imdb: www.imdb.com/title/tt2085059/ Υπότιτλοι : Ξεχωριστοί Ελληνικοί Το Black Mirror είναι Βρετανική δραματική σειρά με δημιουργό τον Charlie Brooker (Dead Set). Η πρώτη σεζόν απαρτίζεται από τρία αυτοτελή επεισόδια της μίας ώρας, με διαφορετικό καστ και τοπίο και οι κριτικές που έλαβε κρίνονται διθυραμβικές. Το στοιχείο που κατατάσσει το Black Mirror ως ένα από τα καλύτερα δείγματα κοινωνικής κριτικής για τον σύγχρονο κόσμο είναι η παρανοική του χροιά, που λειτουργεί ως το μεταίχμιο των παρενεργειών του ναρκωτικού που ονομάζεται σύγχρονος κόσμος και τεχνολογία. Η περιοχή ανάμεσα στην αμηχανία που αναβλύζει μέσα από το σενάριο, μπορεί κάλλιστα να ερμηνευτεί ως ο Μαύρος Καθρέφτης της εποχής μας, αυτός που μπορεί να βρεθεί παντού, με την μορφή ενός κρύου, απαθούς μόνιτορ μιας τηλεόρασης ή κινητού. Η ΣΕΙΡΑ ΑΝΑΝΕΩΘΗΚΕ ΓΙΑ 5η SEASON
  12. Ένας προπονητής καλαθοσφαίρισης εθελοντών προπονεί μια έφηβο για τον μαραθώνιο.... https://www.imdb.com/title/tt8186318/ Είδος Ταινίας: Drama, Sport Πρεμιέρα: 23 August 2019 (USA) Σκηνοθέτης: Alex Kendrick Σενάριο: Alex Kendrick, Stephen Kendrick Ηθοποιοί: Alex Kendrick, Ben Davies, Kendrick Cross Μετάφραση: Σοφία Κοκκινά Διάρκεια: 119' EASYBYTEZ | FILEFACTORY| LINK FOR FREE USERS
  13. ★★ Πληροφορίες Σειράς: ★★ Ελληνικός Τίτλος: Μαθήματα ανατομίας Είδος Ταινίας: Drama, Romance Σκηνοθέτης: Sean Olson Σεναριογράφος: Bradford Holt, Sean Olson Ηθοποιοί: Ellen Pompeo, Patrick Dempsey, Sandra Oh,Justin Chambers,Chandra Wilson, Isaiah Washington,James Pickens Jr.,Sara Ramirez Πρεμιέρα: 17 January 2019 (Greece) Μετάφραση: pinelos, Anastasia, eboussa, kexag31, sorrisi21, ismini, mcblossom IMDb: https://www.imdb.com/title/tt0413573/ ★★ ΥπόΘεση Σειράς: ★★ Το Grey's Anatomy είναι μια αμερικανική δραματική ιατρική σειρά. Μεταδίδεται από το ABC και χρησιμοποιήθηκε για την αντικατάσταση της σειράς ΄΄Boston Legal΄΄ στις 27 Μαρτίου του 2005. Ο τίτλος της σειράς είναι βασισμένος στο κλασικό ιατρικό βιβλίο Η Ανατομία του Γκρέι (Gray's Anatomy). Το Grey’s Anatomy επικεντρώνεται στην Meredith Grey (Ellen Pompeo)η οποία ξεκινά την καριέρα της ως χειρούργος στο φανταστικό νοσοκομείο του Seattle “Seattle Grace Hospital”. Όπως και οι συνάδελφοί της έτσι και η Meredith προσπαθεί να συνδυάσει άψογα την προσωπική της ζωή, διατηρώντας υγιής της σχέσεις, της αλλά και την επαγγελματική της πορεία με το να παραμένει άψογη και συνεπής επαγγελματίας. Για την Meredith, είναι σημαντικό να καταφέρει να φανεί αντάξια του ονόματος και της φήμης της μητέρας της, η οποία υπήρξε μία από τις καλύτερες χειρούργους της χώρας, ενώ παράλληλα προσπαθεί να κρατήσει κρυφό το γεγονός που αφόρα στο πρόβλημα υγείας της μητέρας της. Κάπως έτσι μας συστήνεται το Grey’s Anatomy όπου η επαγγελματικοί ρόλοι και οι προσωπικές σχέσεις των πρωταγωνιστών μπλέκονται δημιουργώντας πολυεπίπεδες αλληλεπιδράσεις με αντίκτυπο στις ζωές τους. Το Grey’s Anatomy έκανε πρεμιέρα στην Αμερική στις 27 Μαρτίου του 2005 και μέχρι στιγμής έχουν προβληθεί συνολικά 6 κύκλοι επεισοδίων. Σύμφωνα με το επίσημο δελτίο τύπου του ABC, η σειρά θα επιστρέψει στις οθόνες στις 26 Σεπτεμβρίου του 2019 για την προβολή του 16ου κύκλου της ★★ Τεχνικά Χαρακτηριστικά:★★ [video]https://www.youtube.com/watch?v=3_7j_JV3T-g[/video] ★★ EasyBytez ★★ Link For Free Users ★★Season 16η 1080p★★ ★★Season 9η έως 15η★★
  14. The Spy (2019) - Mini Series - WebRip X264 | ΞΕΧΩΡΙΣΤΟΙ ΕΛΛΗΝΙΚΟΙ ΥΠΟΤΙΤΛΟΙ Είδος: Drama , History Δημιουργός: Gideon Raff Ηθοποιοί: Sacha Baron Cohen, Hadar Ratzon Rotem, Yael Eitan imdb : www.imdb.com/title/tt5952634/ Yπότιτλοι: Eλληνικοί Εξωτερικοι Η σειρά είναι βασισμένη στην αληθινή ιστορία του πρώην πράκτορα της Μοσάντ, Έλι Κοέν, που άλλαξε την ιστορία του Ισραήλ μέσω μιας επιτυχημένης μυστικής αποστολής στη Συρία.
  15. The Rookie - Season 1 (2018) 1080p WebDL h264 | ΞΕΧΩΡΙΣΤΟΙ ΕΛΛΗΝΙΚΟΙ ΥΠΟΤΙΤΛΟΙ ΠΛΗΡΟΦΟΡΙΕΣ Είδος σειράς: Crime, Drama Δημιουργός : Alexi Hawley Ηθοποιοί: Nathan Fillion, Alyssa Diaz, Richard T. Jones IMDB : www.imdb.com/title/tt7587890/ Yπότιτλοι: Eλληνικοί Ξεχωριστοί ΥΠΟΘΕΣΗ Ο John Nolan είναι ένας αστυνομικός από μια μικρή πόλη, που μετά από ένα περιστατικό που του άλλαξε τη ζωή, αποφασίζει να ακολουθήσει το όνειρό του και να γίνει αξιωματικός της αστυνομίας του Λος Άντζελες (LAPD). Ως ο μεγαλύτερος σε ηλικία αρχάριος στο σώμα, έρχεται αντιμέτωπος με τις αμφιβολίες των ανωτέρων. Αν δεν μπορέσει να συμβαδίσει με τους νεαρούς συναδέλφους του και τους εγκληματίες, θα βάζει σε ρίσκο τόσο τη δική του, όσο και τη ζωή των συναδέλφων του. Αλλά αν μπορεί να πάρει το προβάδισμα με την εμπειρία του, την αποφασιστικότητά του και το χιούμορ του, μπορεί αυτό να αποτελέσει ένα πολύ επιτυχημένο κεφάλαιο στην ζωή του. TRAILER EasyBytez Η ΣΕΙΡΑ ΑΝΑΝΕΩΘΗΚΕ ΓΙΑ 2η SEASON
  16. YUVAMDAKI DUSMAN (2018) HDTv - ΕΝΣΩΜΑΤΩΜΕΝΟΙ ΥΠΟΤΙΤΛΟΙ Ξανανέβηκε το 5 γιατί σβήστηκε από τον easybytez. Η σειρά ολοκληρώθηκε. Είδος σειράς: Action, Adventure, Crime Series Directed by Muge Ugurlar Series Writing Credits Ruya Iscileri Stars: Nebahat Cehre, Asli Tandogan, Pamir Pekin Ήχος:Τούρκικα Λέει την ιστορία της εφαρμογής ενός μυστικού σχεδίου σε μια πλούσια, ευτυχισμένη, νέα οικογένεια που έχει μωρό, που ήταν πικάντικη από την παιδική ηλικία, ονειρευόταν και απολαμβάνει τα πάντα για χάρη της ζωής της. Η συνέχεια επί της μικρής μας οθόνης... [video=youtube;7l8A7_8v4a0]https://www.youtube.com/watch?v=7l8A7_8v4a0[/video] https://www.imdb.com/title/tt7947618/?ref_=ttfc_fc_tt ΤΕΧΝΙΚΑ ΧΑΡΑΚΤΗΡΙΣΤΙΚΑ General Complete name : ESY2PLEANTRA.01.mp4 Format : MPEG-4 Format profile : Base Media Codec ID : isom (isom/iso2/avc1/mp41) File size : 855 MiB Duration : 2 h 12 min Overall bit rate mode : Variable Overall bit rate : 902 kb/s Encoded date : UTC 2018-10-12 10:55:03 Tagged date : UTC 2018-10-12 10:55:03 Writing application : Lavf57.83.100
  17. ASKTAN KACILMAZ (2014 – ) HDTv - ΕΝΣΩΜΑΤΩΜΕΝΟΙ ΥΠΟΤΙΤΛΟΙ Όλα τα ευχαριστώ, στην ομάδα του Robin, που μεταφράζει τη σειρά. Stars: Pelin Akil, Erhan Alpay, Ozgur Avsar Ήχος:Τούρκικα Ένας νεαρός άνδρας σε αντίθεση με τον πατέρα του επιστρέφει στο σπίτι όταν ο μικρότερος αδελφός του τρέχει μακριά. Αλλά ο πατέρας του είναι εγκληματικός εγκέφαλος και η πατρίδα του είναι περίπλοκη. Θα ξεφύγει από το μονοπάτι που έχει χάσει η οικογένειά του; Ο επιθετικός γιος Barzan επιστρέφει στο Mardin στην ανατολική Τουρκία όπου ο εγκληματικός του πατέρας υπέστη καρδιακή προσβολή. Στη διάρκεια της πτήσης συναντά τη Yasemin, 1 διωκτρια στα ίχνη του πατέρα του Barzan. Θα ερωτευτούν, δεν συνειδητοποιούν ότι θα βρεθούν σε αντίθετες πλευρές μιας μάχης για να έρθουν. Αλλά οι καρδιές ακολουθούν τους δικούς τους κανόνες και ο Mardin είναι ένας άνομος τόπος. Δεν μπορεί να τρέξει από την αγάπη είναι μια φανταστική ιστορία αγάπης που παίζει σε ένα μαγικό σκηνικό, που συνδυάζει τα στοιχεία θρίλερ edge-of-seat με συναρπαστικό οικογενειακό δράμα. Η συνέχεια επί της μικρής μας οθόνης... [video]https://www.youtube.com/watch?v=pLudlSYCpXw[/video] https://www.imdb.com/title/tt4518946/?ref_=ttpl_pl_tt ΤΕΧΝΙΚΑ ΧΑΡΑΚΤΗΡΙΣΤΙΚΑ General Complete name : KA8IKIASTRAHAN.01.mkv Format : Matroska Format version : Version 4 File size : 2.07 GiB Duration : 1 h 38 min Overall bit rate : 3 012 kb/s Writing application : Lavf57.71.100 Writing library : Lavf57.71.100 ErrorDetectionType : Per level 1
  18. 8 GUN (2018) HDTv - ΕΝΣΩΜΑΤΩΜΕΝΟΙ ΥΠΟΤΙΤΛΟΙ Η σειρά ολοκληρώθηκε. Είδος σειράς: Action, Adventure, Crime Series Directed by Γ‡agri Vila Lostuvali, Ender Mihlar Series Writing Credits Toprak Karaoglu, Savas Korkmaz, Volkan SΓΌmbΓΌl, Seda Γ‡alisir Stars: Burcu Biricik, Musa Uzunlar, Bugra Gulsoy Ήχος:Τούρκικα Πρόκειται για τη μεταβαλλόμενη ζωή του Bahar, ο οποίος αντιμετωπίζει τους σκοτεινούς τύπους που διεκδικούν το λογισμικό που παράγει η νεκρή μητέρα. Η συνέχεια επί της μικρής μας οθόνης... [video=youtube;DvEYLXTVEgc]https://www.youtube.com/watch?v=DvEYLXTVEgc[/video] https://www.imdb.com/title/tt7944204/?ref_=ttep_ep_tt ΤΕΧΝΙΚΑ ΧΑΡΑΚΤΗΡΙΣΤΙΚΑ General Complete name : OXTWOPLA.01.mp4 Format : MPEG-4 Format profile : Base Media Codec ID : isom (isom/iso2/avc1/mp41) File size : 791 MiB Duration : 2 h 7 min Overall bit rate mode : Variable Overall bit rate : 868 kb/s Encoded date : UTC 2019-06-03 10:10:47 Tagged date : UTC 2019-06-03 10:10:47 Writing application : Lavf51.12.1
  19. Emergence - Season 1 (2019) Hdtv xviD | ΞΕΧΩΡΙΣΤΟΙ ΕΛΛΗΝΙΚΟΙ ΥΠΟΤΙΤΛΟΙ ΠΛΗΡΟΦΟΡΙΕΣ Είδος σειράς: Drama Δημιουργός : Tara Butters, Michele Fazekas Ηθοποιοι : Robert Bailey Jr., Alexa Swinton, Allison Tolman IMDB : www.imdb.com/title/tt9169658/ Yπότιτλοι: Eλληνικοί Ξεχωριστοί ΥΠΟΘΕΣΗ Η σειρά ξεκινάει σε μια παραλιακή κοινότητα του Long Island. Στην ακτή της συντρίβεται ένα άγνωστο αεροσκάφος.Ανάμεσα στα συντρίμμια βρίσκουν ένα μικρό κορίτσι, το οποίο μοιάζει να μην έχει κανένα τραυματισμό, όμως δεν θυμάται τίποτα, ούτε ποια είναι ούτε πως βρέθηκε εκεί. Η σερίφης της περιοχής αναλαμβάνει να το πάρει σπίτι της μέχρι να λύσει το μυστήριο, όμως όσο ψάχνει και αποκαλύπτει τη μεγάλη συνωμοσία, τόσο τα ανεξήγητα φαινόμενα στη περιοχή όλο και αυξάνονται. TRAILER EasyBytez
  20. DITTE MENNESKEBARN (1946) BRRip (Tove Maes, Karen Poulsen) | ΞΕΧΩΡΙΣΤΟΙ ΥΠΟΤΙΤΛΟΙ Είδος Ταινίας: Δράμα Έτος: 1946 Διάρκεια: 99 λεπτά Σκηνοθεσία: Bjarne Henning-Jensen Σενάριο: Martin Andersen Nexø, Bjarne Henning-Jensen Πρωταγωνιστές: Tove Maes, Karen Poulsen, Rasmus Ottesen Χρωματισμός Εικόνας: Ασπρόμαυρος Χώρα Παραγωγής: Δανία Γλώσσα: Δανέζικα Ελληνικός Τίτλος: Το Παιδί του Ανθρώπου Μετάφραση: zachs75 Η Ντίτε, που αποτελεί καρπό εξώγαμης σχέσης, εγκαταλείπεται από τη μητέρα της Σορίν σε βρεφική ηλικία. Την συντηρούν η γιαγιά της Μάρεν και ο παππούς της Σόρεν, πάμφτωχοι αμφότεροι. Ο Σόρεν, παρότι μεγάλης ηλικίας, αναγκάζεται να βγει πάλι στη θάλασσα για να δρέψει τους καρπούς της. Καταπονείται έντονα όμως, με αποτέλεσμα να μην αντέξει και να αποδημήσει εις Κύριον. Πλέον η Μάρεν είναι το μόνο στήριγμα της μικρής Ντίτε. Η Ντίτε αισθάνεται άσχημα, νήπιο όντας και χωρίς να καταλαβαίνει τι γίνεται στον κόσμο, που δεν έχει πατέρα όπως τα άλλα παιδιά. Όταν εμφανίζεται ο Λαρς Πίτερ στο σπίτι τους και ανακοινώνει ότι θα παντρευτεί τη μητέρα της, η καρδιά της αγαλλιάζει. Μετακομίζει στο σπίτι τους και καθώς τα χρόνια περνούν, η Ντίτε γίνεται ουσιαστικά η μητέρα των 3 επόμενων παιδιών. Έφηβη πλέον, αρχίζει να νιώθει τα πρώτα σκιρτήματα, αλλά ένα φονικό θα έρθει να ταράξει τη ζωή της, για να επιβεβαιώσει το ρητό: «Όπου φτωχός κι η μοίρα του». Η Δανία είναι η προτελευταία στάση του αφιερώματος «EuroMini» των λιγότερο γνωστών στον κινηματογράφο ευρωπαϊκών χωρών, με μία ταινία που αποτέλεσε τον ακρογωνιαίο λίθο του μεταπολεμικού σινεμά στη συγκεκριμένη χώρα. Μάλιστα, το Υπουργείο Πολιτισμού της Δανίας την έχει εντάξει στην πρώτη δεκάδα των καλύτερων ταινιών όλων των εποχών για τη χώρα. Είναι βασισμένη στη νουβέλα του Martin Andersen Nexø, από τους μεγαλύτερους συγγραφείς του 20ου αιώνα για τη Δανία. Έλαβε μέρος σε πάμπολλα φεστιβάλ με ανάλογες διακρίσεις. Περιέχει όμως κάποιες ελάχιστες σκηνές γυμνού, οι πρώτες στην ιστορία του δανέζικου κινηματογράφου, με αποτέλεσμα να υποστεί μερική ή ολική λογοκρισία σε αρκετές χώρες. [video]https://www.youtube.com/watch?v=W568eT8Wb4s[/video] https://www.imdb.com/title/tt0038482/ ΤΕΧΝΙΚΑ ΧΑΡΑΚΤΗΡΙΣΤΙΚΑ General Complete name : Ditte Menneskebarn (1946).mkv Format : Matroska Format version : Version 4 File size : 1.55 GiB Duration : 1 h 42 min Overall bit rate : 2 158 kb/s Encoded date : UTC 2019-11-09 07:37:47 Writing application : mkvmerge v39.0.0 ('In The Waiting Line') 32-bit Writing library : libebml v1.3.9 + libmatroska v1.5.2
  21. ΚΟΚΚΙΝΟ ΠΟΤΑΜΙ (2019) OPEN TV TVrip AVI Η ιστορία που διηγείται «Το Κόκκινο Ποτάμι» ξεκινά στην κωμόπολη Ακ Νταγ Ματέν του νομού Αγκύρας το Μάιο του 1895. Ξεκινά όταν η οικογένεια του Γεωργίου Παυλίδη αρραβωνιάζει το 12χρονο γιο της, τον Μίλτο, µε την μόλις 9χρονη Ιφιγένεια, κόρη του Μιχάλη Νικολαΐδη. Ένας αρραβώνας σκοπιμότητας, όπως συνηθιζόταν εκείνη την εποχή, καθώς σύμφωνα µε το μουσουλμανικό νόμο αν ένα κορίτσι αρραβωνιαζόταν θεωρείτο ατιμασμένο και δεν επιτρεπόταν να γίνει γυναίκα μουσουλμάνου. Οι επιθέσεις των φανατικών Τούρκων θα αναγκάσουν τις δύο οικογένειες, να εγκαταλείψουν τον τόπο τους. Οι δυο νέοι θα ξανασυναντηθούν τυχαία στην Κωνσταντινούπολη 11 χρόνια μετά. Xωρίς να γνωρίζουν την οικογενειακή σχέση που τους δένει, ερωτεύονται κεραυνοβόλα. Ένας έρωτας που θα βρεθεί αντιμέτωπος με πολλά δεινά. Ηθοποιοί: Ιωάννης Παπαζήσης, Αναστασία Παντούση, Τάνια Τρύπη, Κωνσταντίνος Καζάκος, Τάκης Βαμβακίδης, Χαρά – Μάρα Γιαννάτου, Τατιάνα Παπαμόσχου, Δημήτρης Δρόσος, Σωτήρης Χατζάκης, Στέφανος Κυριακίδης, Πέτρος Ξεκούκης, Κώστας Ξηκομηνός, Αργύρης Πανταζάρας, Νικόλας Παπαγιάννης, Γιώργος Παυλίδης, Γεράσιμος Σκιαδαρέσης, Γιώργος Τσαμπουράκης, Θοδωρής Φρατζέσκος, Κέλλυ Γιακουμάκη καθώς και πολλοί ακόμα ταλαντούχοι ηθοποιοί. Συντελεστές Σκηνοθεσία: Μανούσος Μανουσάκης Σενάριο: Νίκος Απειρανθίτης, Δώρα Μασκλαβάνου Διευθυντής φωτογραφίας: Γιώργος Παπανδρικόπουλος Διευθυντής Μοντάζ: Κωνσταντίνος Αδρακτάς Σκηνογράφος: Κατερίνα Ζουράρη Ενδυματολόγος: Μαρία Μαγγίρα Διεύθυνση Παραγωγής: Μαρία Μανουσάκη General Complete name :POTAMI.EP.01-02.avi Format : AVI Format/Info : Audio Video Interleave File size : 1.27 GiB Duration : 1 h 23 min Overall bit rate : 2 163 kb/s Video #0 ID : 0 Format : AVC Format/Info : Advanced Video Codec Format profile : [email protected] Format settings : 1 Ref Frames Format settings, CABAC : No Format settings, ReFrames : 1 frame Codec ID : H264 Duration : 1 h 23 min Bit rate : 2 022 kb/s Width : 1 024 pixels Height : 576 pixels Display aspect ratio : 16:9 Frame rate : 25.000 FPS Color space : YUV Chroma subsampling : 4:2:0 Bit depth : 8 bits Scan type : Progressive Bits/(Pixel*Frame) : 0.137 Stream size : 1.18 GiB (93%) Audio #1 ID : 1 Format : MPEG Audio Format version : Version 1 Format profile : Layer 3 Codec ID : 55 Codec ID/Hint : MP3 Duration : 1 h 23 min Bit rate mode : Constant Bit rate : 128 kb/s Channel(s) : 2 channels Sampling rate : 48.0 kHz Compression mode : Lossy Stream size : 76.8 MiB (6%) Alignment : Aligned on interleaves Interleave, duration : 24 ms (0.60 video frame)
  22. Έτος Παραγωγής: 1947 Διάρκεια: 1.36'λεπτά Χρώμα: Έγχρ. Γλώσσα:Αγγλική Σκηνοθεσία: Λιούις Άλεν Σενάριο: Ρόμπερτ Ρόσσεν,Άλμπερτ Ισαάκ Μπεζερίδης Μουσική: Μικλός Ρόσα Ηθοποιοί: Τζον Χόντιακ, Λίζαμπεθ Σκοτ,Μπαρτ Λάνκαστερ,Γουέντελ Κόρεϊ, Μαίρη Άστορ,Κριστίν Μίλερ ,Γουίλιαμ Χάριγκαν,Τζέιμς φλάβιν Η όμορφη και ατίθαση Πόλα Χάλερ εγκαταλείπει το σχολείο που φοιτούσε και επιστρέφει στο σπίτι της, στη μικρή πόλη Τσακαουάλα, κοντά στο Λας Βέγκας. Την ίδια μέρα φτάνει στην πόλη και ο γοητευτικός κακοποιός Έντι Μπέντιξ μαζί με τον μπράβο του, τον Τζόνι. Ο Έντι, που παλαιότερα είχε κατηγορηθεί για τον φόνο της γυναίκας του αλλά είχε αθωωθεί, ήταν πριν πολλά χρόνια συνεργάτης και εραστής της Φρίτσι, μητέρας τής Πόλα, στο καζίνο που εκείνη διατηρούσε. Όταν ο Έντι συναντά την Πόλα μένει έκπληκτός για την ομοιότητά της με τη νεκρή γυναίκα του και την ερωτεύεται. Όμως μαζί της είναι ερωτευμένος και ο νεαρός βοηθός του σερίφη, ο Τομ Χάνσον… http://www.imdb.com/title/tt0039311/
  23. Η ΡΟΖΑ ΤΗΣ ΣΜΥΡΝΗΣ (2016) Full ISO DVD Είδος Ταινίας : .Δραματική Διάρκεια : .93 λεπτά Σκηνοθεσία : .Γιώργος Κορδέλλας Σενάριο : .Χριστίνα Λαζαρίδη Ηθοποιοί : . Λήδα Πρωτοψάλτη Ευγενία Δημητροπούλου Τάσος Νούσιας Yilmaz Gruda Γιούλικα Σκαφιδά Πέτρος Λαγούτης Μέγεθος:........4,22 GB Περίληψη Mια συγκινητική αλλά και αισιόδοξη, ταινία, για τη σαρωτική δύναμη της ζωής και την αδελφική αγάπη που ξεπερνά τα προβλήματα του παρελθόντος. Υπόθεση Η αινιγματική σμυρνιά αρχόντισσα Ρόζα ζει επί δεκαετίες με το βάρος ενός μυστικού, που κρατά πεισματικά σφραγισμένο ακόμα και από την 28χρονη εγγονή της, Μαριάννα, τον μοναδικό άνθρωπο που έχει στον κόσμο. Ένα μυστικό που έρχεται από την Σμύρνη του 1922. Το συλλεκτικό πάθος του Δημήτρη, ενός αρχιτέκτονα που αναζητεί στα παράλια της Μικράς Ασίας ίχνη από τις χαμένες πατρίδες, μια παλιά φωτογραφία κι ένα νυφικό λερωμένο με αίμα γίνονται αφορμή για να ανασυρθεί, 60 χρόνια μετά, μια ερωτική ιστορία από το παρελθόν, που θα αλλάξει για πάντα τις ζωές της Μαριάννας και του Δημήτρη. H μυρωδιά των παλαιοπωλείων, η πρόκληση του μυστηρίου, η γοητεία του ταξιδιού και η δύναμη του έρωτα συνθέτουν την ατμόσφαιρα και τη διαδρομή που ακολουθούν οι τέσσερις ήρωες στις δυο μεριές του Αιγαίου, συνειδητοποιώντας πως οι μικρές ιστορίες των ανθρώπων είναι αυτές που σφραγίζουν τη μεγάλη Ιστορία. [video=youtube;Zs2auckOepI]https://www.youtube.com/watch?v=Zs2auckOepI[/video] http://cine.gr/film.asp?id=722616 http://www.imdb.com/title/tt6229786/?ref_=nv_sr_1
  24. SAME KIND OF DIFFERENT AS ME (2017) Ελληνικός Τίτλος: - Είδος Ταινίας: Drama Σκηνοθέτης: Michael Carney Σεναριογράφος: Michael Carney (screenplay), Alexander Foard (screenplay) Ηθοποιοί: Greg Kinnear, Renee Zellweger, Djimon Hounsou Πρεμιέρα: 20 October 2017 (USA) Μετάφραση: Άγνωστος ΥπόθεΣη: Ένας διεθνής έμπορος τέχνης, ο Ρον Χολ, βρίσκεται να γίνεται φίλος με έναν επικίνδυνο άστεγο, τον Ντένβερ. Αυτό συμβαίνει επειδή ο Ρον θέλει να σώσει τον γάμο του με την Ντέμπορα. Τα όνειρα αυτής της γυναίκας θα οδηγήσουν το αταίριαστο τρίο σε ένα απίθανο ταξίδι που θα αλλάξει τις ζωές όλων τους.
  25. Είδος σειράς: Δραματική Σκηνοθεσία: Κώστας Κατσαρόπουλος Σενάριο: Λάλη Κοντοθεοδώρου Ηθοποιοί: Νόνη Ιωαννίδου (Πανωραία Φωκιανού) , Νίκος Μπουσδούκος (Αριστείδης) , Αθηνά Παππά (Νίτσα) , Ανδρέας Βαρούχας (Θέμος) , Κώστας Αποστολίδης (Μιχάλης) , Γιώργος Σαμπάνης (κυρ Βασίλης) , Κατερίνα Καραγιάννη (μοδίστρα Αννέτα) , Νίκος Τσαχιρίδης (Μάνθος) , Μαρία Κατσανδρή (Σοφία) , Γιώργος Λιάντος (Ευγένιος) , Αλέκα Τουμαζάτου (Όλγα) , Θωμαϊς Παφίλη (κυρά της Πανωραίας) , Νίκος Αρβανίτης (κύριος της Πανωραίας) , Βασίλης Ευταξόπουλος (νέος) , Θωμάς Παλιούρας(μεσίτης) , Ράνια Οικονομίδου (κυρά) , Έκτωρ Καλούδης (Λευτέρης) , Νίκος Κεφαλάς (κύριος στο καμαρίνι) , Θάλεια Αργυρίου (θυρωρός) , Θήβη Μεγάλου (θεατρίνα) , Μιχάλης Γιαννάτος (διερμηνέας) , Λούλα Καναρέλη , Ζωή Βουδούρη (Φώτω) , Κωνσταντίνα Σαββίδη , Μαρία Σίδερη , Κώστας Πασπάλης (χωροφύλακας) Κανάλι: Ant1 Επεισόδια: 08 ραματοποιημένη σειρά βασισμένη στο ομώνυμο βιβλίο της Ιουλίας Ιατρίδη. Η σειρά αποτελεί αναδρομή των σπιτιών που έζησε η Πανωραία αλλά και των ονείρων της για λίγη γη δική της. Ένα κορίτσι που σώθηκε από την καταστροφή του 1922 φθάνει στην Αθήνα μαζί με άλλους πρόσφυγες και μπαίνει σε σπίτια ως υπηρέτρια, προκειμένου να επιβιώσει. Έχοντας περιορισμένη ακοή, βιώνει εντονότερα τη μοναξιά της ανάμεσα στους ανθρώπους. Στην αρχή παρακολουθούμε τα γεγονότα που διαδραματίζονται στο σπίτι της Νίτσας, στο οποίο η Πανωραία εργάζεται ως υπηρέτρια. Η Νίτσα οδηγείται στην πορνεία με τις παραινέσεις του Θέμου και σχεδιάζει να εκμεταλλευτεί την Πανωραία προσβάλλοντας την ηθική της. Στη συνέχεια, την παραπλανεί μιλώντας της για τα μελλοντικά σχέδιά της και τα χρήματα που μπορεί να αποταμιεύσει, έτσι ώστε να πραγματοποιήσει το όνειρό της, να χτίσει ένα δικό της σπίτι.
×